#TITLE:What's up, People!;
#SUBTITLE:Death Note Opening 2;
#ARTIST:Maximum the Hormone;
#TITLETRANSLIT:;
#SUBTITLETRANSLIT:;
#ARTISTTRANSLIT:;
#CREDIT:Owem;
#BANNER:../banner.png;
#BACKGROUND:../bg.png;
#LYRICSPATH:;
#CDTITLE:../cdtitleowem.png;
#MUSIC:Death Note Opening 2 - What's up, People! - Maximum the Hormone.ogg;
#OFFSET:-0.351;
#SAMPLESTART:30.913;
#SAMPLELENGTH:29.999;
#SELECTABLE:YES;
#BPMS:0.000=160.956,114.000=40.239,118.000=80.478,126.000=160.956,157.000=241.434,185.000=160.956;
#STOPS:;
#BGCHANGES:;
// cache tags:
#FIRSTBEAT:0.500;
#LASTBEAT:201.875;
#SONGFILENAME:Songs/Owem's Simfiles 08 1.1/What's up, People! - Death Note Opening 2 - [Owem] v1.0.0/What's up, People!.sm;
#HASMUSIC:1;
#HASBANNER:1;
#MUSICLENGTH:79.992;
// end cache tags

//---------------dance-single - 3-4/18-7 (24th)----------------
#NOTES:
     dance-single:
     3-4/18-7 (24th):
     Challenge:
     19:
     1.000,1.000,0.188,0.213,1.000,850.000,15.000,17.000,0.000,4.000:
0000
0000
1001
0000
1010
0000
0010
0100
0001
0000
1000
0000
0100
0010
0000
0001
,
0100
0000
0010
0000
1000
0001
0000
0100
0001
0000
0010
0000
0100
1000
0000
0001
,
1000
0000
1010
0000
0110
0000
0001
0100
0010
0000
1000
0000
0001
0100
0000
0010
,
0100
0000
0001
0000
1000
0100
0000
0010
0001
0000
1000
0000
0010
0100
0000
0001
,
0100
0000
0000
0020
0000
0000
0030
0000
0000
0000
0000
0000
1000
0100
0010
0001
1000
0001
0100
0010
1000
0010
0100
0001
,
1000
0100
1000
0001
0010
0001
0100
0010
1000
0010
0100
0001
1000
0100
0010
0001
0010
0100
1000
0001
0010
0001
0100
0010
,
1000
0001
1000
0100
0010
0001
1000
0100
1000
0001
1000
0010
0100
0010
1000
0001
0010
0100
0010
0001
1000
0100
1000
0001
,
0100
0010
1000
0001
1000
0100
0010
0001
0010
0100
1000
0001
0010
0001
0100
0010
1000
0010
0100
0001
1000
0100
0010
0001
,
1000
0000
0000
0000
0000
0000
0100
0000
0000
0000
0000
0000
0010
0000
0000
0001
0000
0000
1000
0000
0000
0010
0000
0000
0100
0000
0001
0000
1000
0000
0100
0000
1000
0000
0010
0000
0100
0000
0001
0000
1000
0000
0001
0000
0010
0000
0100
0000
,
1000
0001
0010
0001
1000
0100
0010
0100
1000
0001
0010
0001
0100
0010
1000
0001
1000
0100
0010
0001
1000
0100
1000
0010
,
0100
0001
1000
0100
0010
0100
1000
0001
0010
0001
0100
0010
1000
0001
0100
0001
1000
0100
0010
0001
1000
0010
0100
0001
,
1000
0100
1000
0010
0100
0001
1000
0001
0010
0100
1000
0001
0010
0001
0100
0010
1000
0001
1000
0100
0010
0001
1000
0100
,
1000
0000
0001
0000
0100
0000
0010
0000
1000
0000
0010
0000
0100
0000
0000
0001
0000
0000
2000
0000
0000
0000
0000
0000
3010
0000
0000
0100
0000
0000
0000
0000
0000
0001
0000
0000
1000
0000
0000
0000
0000
0000
0010
0000
0000
0100
0000
0000
,
0001
1000
0000
0100
0010
0000
0001
1000
0001
0100
0000
0010
1000
0000
0001
0010
,
0001
1000
0100
0000
0020
0000
0032
0000
1003
0010
0000
0100
0001
0000
1000
0100
,
0010
0001
0000
1000
0010
0000
0100
0001
1000
0001
0000
0100
0010
0000
1000
0010
,
0100
0001
1000
0000
0200
0000
0310
0001
1000
0001
0100
0010
1000
0000
0010
1000
,
0001
1000
0100
0000
0010
0000
0001
1000
0001
0100
0010
0000
1000
0000
0001
0010
,
0100
0000
2000
0000
3000
0000
0010
0100
0001
1000
0001
0000
1000
0000
0100
0010
,
0001
1000
0001
0000
0100
0000
0010
1000
0010
0100
0001
0000
1000
0000
0100
0010
,
0002
0000
0000
2003
0000
0000
3010
0000
0000
0000
0000
0000
1000
0001
1000
0010
0100
0001
1000
0100
1000
0001
0010
0100
,
0010
0001
1000
0100
1000
0001
1000
0010
0100
0010
1000
0001
0100
0001
1000
0010
0100
0001
1000
0100
1000
0001
0010
0001
,
0100
0010
1000
0001
1000
0100
0010
0001
1000
0100
1000
0010
0100
0001
1000
0100
1000
0010
0100
0001
1000
0100
0010
0100
,
1000
0001
0010
0001
1000
0100
0010
0100
1000
0001
0010
0001
1000
0001
0100
0010
0100
0001
1000
0010
1000
0100
0010
0001
,
1000
0100
1000
0001
0100
0010
0100
0001
1000
0100
1000
0001
0010
0100
0010
0001
1000
0100
1000
0001
0100
0010
0100
0001
,
1000
0010
1000
0001
0010
0001
0100
0010
1000
0001
1000
0100
0010
0100
1000
0001
0010
0001
1000
0100
1000
0001
1000
0010
,
0100
0010
1000
0001
0100
0010
0100
0001
1000
0100
0010
0100
1000
0001
0010
0001
1000
0100
0010
0100
1000
0001
0010
0001
,
0100
0010
1000
0001
1000
0100
0010
0100
1000
0001
0010
0001
0100
0010
1000
0010
0100
0001
1000
0100
1000
0001
1000
0010
,
0100
0000
0000
0000
0010
0000
0000
0000
1000
0000
0000
0000
0001
0000
0000
0000
0010
0000
0000
0000
0001
0000
0000
0000
1000
0000
0000
0000
0100
0000
0000
0000
0010
0000
0000
0000
0100
0000
0000
0000
1000
0000
0000
0000
0001
0000
0000
0000
0100
0000
0000
0010
0000
0000
0100
0000
0000
0010
0000
0000
1000
0000
0000
0001
0000
0000
1000
0000
0000
0001
0000
0000
0010
0000
0000
0001
0000
0000
0010
0000
0000
0001
0000
0000
1000
0000
0000
0010
0000
0000
1000
0000
0000
0010
0000
0000
,
0100
0010
0100
0010
0100
0001
0100
0001
1000
0100
1000
0100
0010
0001
0010
0001
1000
0100
0010
0001
1000
0001
0100
0010
0100
0001
1000
0010
1000
0001
0100
0010
,
0100
0001
1000
0100
0010
0100
1000
0001
0010
0001
1000
0100
0010
0100
1000
0001
0010
0001
1000
0001
0100
0010
1000
0010
0100
0010
1000
0001
0100
0001
1000
0100
,
0010
0001
1000
0100
1000
0010
0100
0001
1000
0001
0010
0100
0010
0001
1000
0010
1000
0000
0001
0000
1000
0000
0100
0000
0010
0000
0001
0000
1000
0000
0100
0000
,
1000
0010
0100
0010
1000
0001
0010
0100
1000
0001
0010
0001
0100
0010
1000
0010
,
0100
0001
1000
0100
0010
0100
1000
0001
0010
0001
1000
0100
0010
0100
1000
0001
,
1000
0010
0100
0010
1000
0001
0100
0001
1000
0010
1000
0001
0010
0100
0010
0001
,
1000
0100
1000
0010
0100
0010
1000
0001
0100
0001
1000
0100
0010
0001
1000
0001
,
0100
0010
0100
0001
1000
0010
1000
0100
0010
0001
1000
0100
1000
0001
0010
0001
,
0100
0010
1000
0001
1000
0100
0010
0001
1000
0100
1000
0001
0010
0001
0100
0010
,
1000
0001
0010
0100
0010
0001
1000
0100
1000
0001
0100
0010
0100
0001
1000
0100
,
2000
3000
0020
0030
0200
0300
0000
0001
1000
0100
0010
0001
1000
0010
0100
0010
,
1000
0001
0100
0001
1000
0100
0010
0001
1000
0100
1000
0010
0100
0001
1000
0001
,
0010
0100
1000
0001
0010
0001
0100
0010
1000
0010
0100
0010
1000
0001
0100
0001
,
1000
0100
0010
0100
1000
0001
0010
0001
0100
0010
0100
0001
1000
0100
1000
0010
,
0100
0001
1000
0001
0010
0100
0010
0001
1000
0100
1000
0001
0100
0010
0100
0001
,
1000
0010
1000
0100
0010
0001
1000
0100
1000
0001
0010
0001
0100
0010
1000
0001
,
0010
0100
0010
0001
1000
0100
1000
0001
0100
0001
1000
0010
1000
0100
0010
0001
,
1000
0000
0000
0010
0000
0000
0100
0000
0000
0001
0000
0000
1000
0000
0000
0000
0100
0000
0000
0000
0010
0000
0000
0000
0001
0000
0000
0000
0000
0000
0102
0000
0000
0000
0000
0000
0000
0000
0000
0000
0000
0000
0000
0000
0000
0000
0000
0000
,
0213
0000
0000
0000
0000
0000
0000
0000
0000
0000
0000
1310
0000
0000
0000
0110
,
0000
0000
0000
0000
0101
0000
0000
0000
0000
0000
0000
0000
2001
0000
0000
0000
0000
0000
0000
0000
0000
0000
0000
0000
3110
0000
0000
0000
0000
0000
0000
0011
,
0000
0000
0000
0101
0000
0000
1020
0000
0000
0000
0000
0000
0000
2032
0000
0000
,
0000
0000
0000
3000
0000
0000
0000
0000
0000
0000
0000
0000
0000
0000
0000
0003
0000
0000
0000
0000
0000
0000
0000
0000
0000
0000
0000
0000
0000
0000
0000
0000
;
