#TITLE:CPacaud_-_Meow_Meow(Final_Fantasy_Mystic_Quest);
#SUBTITLE:;
#ARTIST:Unknown artist;
#TITLETRANSLIT:;
#SUBTITLETRANSLIT:;
#ARTISTTRANSLIT:;
#CREDIT:;
#BANNER:Final Fantasy Mystic Quest.jpg;
#BACKGROUND:;
#LYRICSPATH:;
#CDTITLE:;
#MUSIC:CPacaud_-_Meow_Meow(Final_Fantasy_Mystic_Quest).mp3;
#OFFSET:0.000;
#SAMPLESTART:51.350;
#SAMPLELENGTH:12.000;
#SELECTABLE:YES;
#BPMS:0.000=100.000,56.750=150.000;
#STOPS:;
#BGCHANGES:;
// cache tags:
#FIRSTBEAT:0.000;
#LASTBEAT:208.000;
#SONGFILENAME:Songs/cedric step/CPacaud_-_Meow_Meow(Final_Fantasy_Mystic_Quest)/CPacaud_-_Meow_Meow(Final_Fantasy_Mystic_Quest).sm;
#HASMUSIC:1;
#HASBANNER:1;
#MUSICLENGTH:98.063;
// end cache tags

//---------------dance-single - ME-OW----------------
#NOTES:
     dance-single:
     ME-OW:
     Hard:
     8:
     0.664,1.000,0.653,0.061,1.000,386.000,64.000,6.000,0.000,0.000:
1000
0000
0000
0000
0000
0000
0000
0000
0100
0000
0000
0000
1000
0100
0010
0001
0000
0000
0000
0000
1000
0000
0000
0000
0000
0000
0000
0000
1100
0000
0000
0000
,
0000
0000
0110
0000
0000
0101
0000
0000
1010
0000
0000
0000
1001
0000
0000
0000
,
1000
0100
0010
0100
1000
0000
0000
0000
0000
0000
0000
0000
0000
0000
0000
0000
1100
0000
0000
0000
0000
0000
0000
0000
0110
0000
0000
0000
0000
0000
0000
0000
,
0011
0000
0000
0000
0000
0000
1100
0000
0000
0000
0000
0000
0110
0000
0000
0000
0000
0000
0000
0000
1000
0100
0010
0001
0000
0000
0000
0000
0000
0000
0000
0000
,
1100
0000
0000
0001
0001
0000
0000
0001
0000
0000
1000
0000
0001
0000
0100
0000
,
1000
0000
0000
0000
0001
0000
0000
0000
1000
0000
0000
0000
1000
0001
0100
0010
0001
0100
1000
0100
0010
0001
0010
0100
1000
0000
0000
0000
1001
0000
0000
0000
,
0000
0000
0000
0000
0110
0000
0000
0000
0000
0000
0000
0000
1000
0000
0000
0000
0010
0000
0000
0000
0100
0000
0000
0000
1000
0000
0000
0000
0001
1000
0100
0000
,
1000
0001
0010
0000
0001
1000
0100
0000
1000
0001
0010
0000
0001
1000
0100
0000
1000
0100
0010
0000
0001
0010
0100
0000
1000
0100
0010
0000
1000
0100
0010
0000
,
0100
0010
1000
0010
0001
1000
0100
0010
0001
0100
0010
1000
0100
0010
0001
0100
0010
1000
0100
0010
0100
1000
0100
0001
0010
0100
0010
1000
0100
0010
0100
0001
,
0010
0100
0010
1000
0100
0010
0100
1000
0001
0010
0100
0010
0001
1000
0100
0010
0100
0001
0010
0100
1000
0100
0010
0100
0001
0100
0010
0001
0010
0000
0000
0000
,
0200
0000
0000
0000
0000
0000
1000
0001
2300
0000
0000
0000
0010
0010
0010
0000
,
3020
0100
0000
1000
0000
0100
0000
0000
0031
0000
0000
0000
0110
0000
0000
0000
,
1000
0000
0100
0000
0010
0000
0000
0000
0000
0000
1001
0000
0000
0000
0000
0000
1000
0100
0010
0001
0010
0100
1000
0100
0010
0001
0010
0100
1000
0100
0010
0001
,
0010
0100
1000
0100
0010
0001
0010
0100
1000
0000
0000
0000
0000
0000
1001
0000
0000
0000
0000
0000
0110
0000
0000
0000
0000
0000
1001
0000
0000
0000
0000
0000
,
0110
0000
0000
1001
0000
0000
0000
0000
0000
0000
0000
0000
1000
0100
0010
0001
,
0000
0000
0010
0000
0000
0000
0001
0000
1000
0000
0000
0000
0000
0110
0000
0000
,
0000
0101
0000
0000
0000
0000
0110
0000
0000
0000
0000
1001
0000
0000
0000
0000
,
0000
1000
0000
0100
0010
0001
0000
0000
0000
0000
0100
0000
0000
0000
0000
1001
,
0000
0000
0000
0000
0110
0000
0000
0000
0000
0110
0000
0000
0000
0000
1001
0000
,
0000
0000
0000
1001
0000
0000
0000
0000
0000
0000
0000
1000
0100
0010
0001
0000
,
0000
0100
0000
1001
1100
0000
1001
0000
,
0000
0000
0100
0001
1000
0000
0100
0000
,
0010
0000
0000
0001
1000
0010
0100
0001
0000
0010
0100
0000
1000
0000
0001
0000
,
1010
0000
0000
0000
1100
0000
0000
0000
0000
0000
0000
1000
0000
0100
0010
0001
,
0000
0100
0010
0000
0000
0001
0000
0000
0010
0000
0000
0100
0000
1000
0010
0000
,
0100
0000
0001
0000
0010
0000
0000
0100
0000
0000
0000
0000
1010
0000
0000
0000
,
0000
0101
0000
0000
0000
0000
0011
0000
0000
0000
0000
0110
0000
0000
0000
0000
,
0000
1000
0000
0100
0010
0001
0100
0000
0000
0100
0001
0000
0010
0000
0100
0000
,
1000
0000
0000
0000
0000
1010
0000
0000
0000
0101
0000
0000
0000
0000
0011
0000
,
0000
0000
0110
0000
0000
0000
0000
0000
0000
1000
0000
0001
0010
0100
0000
0001
,
0000
0000
0100
0000
0000
0010
1000
0000
0100
0000
0000
0000
0101
0000
0000
0000
,
0000
0000
0000
0000
1000
0100
0000
0010
0001
0000
0100
0010
0000
0000
0000
0100
,
0000
0000
0000
0001
0000
0010
0100
1000
0010
0100
0001
0010
0100
0000
0000
1010
,
0000
0000
0000
0000
1100
0000
0000
0000
0000
0000
0000
0000
1000
0000
0100
0010
,
0000
0001
0100
0000
0000
0000
0000
0001
0000
0000
0000
0000
1000
0000
0100
0010
,
0000
0001
0000
0100
0000
0000
0010
0000
1000
0000
0000
0000
1100
0000
0000
0000
,
0000
0110
0000
0000
0000
0000
0011
0000
0000
0000
0000
0110
0000
0000
0000
0000
,
0000
1000
0000
0100
0010
0001
0100
0000
0000
0000
0100
0000
0000
0000
0001
0000
,
0010
0100
0000
0000
0000
1000
0000
0000
0000
0110
0000
0000
0000
0000
0011
0000
,
0000
0000
0110
0000
0000
0000
0000
1000
0000
0000
0000
0100
0010
0001
0100
0000
,
0000
0100
0000
1000
0100
0000
0020
0000
,
0000
0000
0000
0000
0030
1000
0000
0100
0000
0010
0000
0000
0001
0000
0000
0000
,
0100
0000
0000
0000
0001
0000
1000
0000
0100
0010
0001
0000
0100
0000
0010
0000
,
1100
0000
0000
0000
0110
0000
0000
0000
0000
0000
0000
1000
0000
0100
0000
0010
,
0001
0000
0100
0001
0010
0000
0000
0100
0000
0000
1000
0010
0000
0100
0001
0000
,
0010
0000
0000
0000
0000
0000
0100
0000
0000
0000
0000
0000
0000
0110
0000
0000
,
0000
0011
0000
0000
0000
0000
0110
0000
0000
0000
0000
1010
0000
0000
0000
0000
,
0000
0000
1000
0100
0010
0001
0000
0000
0000
0000
1000
0000
0000
0000
0000
0000
,
1100
0000
0000
0000
0110
0000
0000
0000
0000
0011
0000
0000
0000
0000
0110
0000
,
0000
0000
0000
0110
0000
0000
0000
1000
0000
0000
0000
0100
0010
0001
0100
0000
,
0000
0100
0000
0001
0100
0000
0220
0000
,
0000
0000
0000
0000
,
0330
0000
0000
0000
;
