#TITLE:Yatsuzaki DJ Sharpnel Megamax;
#SUBTITLE:;
#ARTIST:DJ Sharpnel;
#TITLETRANSLIT:;
#SUBTITLETRANSLIT:;
#ARTISTTRANSLIT:;
#CREDIT:;
#BANNER:megamax bn.png;
#BACKGROUND:megamax bg.png;
#LYRICSPATH:;
#CDTITLE:;
#MUSIC:megamax.ogg;
#OFFSET:0.003;
#SAMPLESTART:281.824;
#SAMPLELENGTH:19.217;
#SELECTABLE:YES;
#DISPLAYBPM:200.000;
#BPMS:0.000=199.810,740.000=99.905,772.000=199.810;
#STOPS:;
#BGCHANGES:;
// cache tags:
#FIRSTBEAT:16.000;
#LASTBEAT:1060.000;
#SONGFILENAME:Songs/SHARPNELSTREAMZ v2/Yatsuzaki DJ Sharpnel Megamax/yatsuzaki.sm;
#HASMUSIC:1;
#HASBANNER:1;
#MUSICLENGTH:331.929;
// end cache tags

//---------------dance-single - 16 (TYLR)----------------
#NOTES:
     dance-single:
     16 (TYLR):
     Challenge:
     16:
     1.000,1.000,0.160,0.352,1.000,2809.000,53.000,117.000,79.000,0.000:
0000
0000
0000
0000
,
0000
0000
0000
0000
,
0000
0000
0000
0000
,
0000
0000
0000
0000
,
1001
1000
0010
0100
0100
0010
1000
1000
,
0001
0001
0010
0100
0100
0010
0001
0001
,
0100
0100
0010
1000
1000
0010
0100
0100
,
0001
0001
0010
0100
0100
0010
0001
1000
,
1001
0000
0101
0000
0010
0010
0101
0000
,
1000
0000
0000
0000
0000
0000
1100
0000
0000
0000
0000
0000
0001
1000
0001
1000
0000
0000
0100
0000
0000
0010
0000
0000
,
0001
0000
0000
0000
0000
0000
0101
0000
0000
0001
0000
0000
1000
0000
0000
0001
0010
0001
0010
0000
0000
0000
0000
0000
,
0100
0000
0000
0000
0000
0000
0000
0000
0000
0000
0000
0000
1100
0000
0000
0000
0000
0000
1000
0000
0100
0000
1000
0000
0100
0000
0000
0000
0000
0000
0000
0000
0000
0010
0000
0000
0000
0000
0000
0000
0000
0000
0001
0000
0000
0000
0000
0000
,
1001
0000
0101
0000
0010
0010
0101
0000
,
1000
0000
0000
0000
0000
0000
1100
0000
0000
0000
0000
0000
0001
1000
0001
1000
0000
0000
0100
0000
0000
0010
0000
0000
,
0011
0000
0000
0000
0000
0000
0000
0000
0000
0101
0000
0000
0000
0000
0000
1000
0010
1000
0010
0000
0000
0000
0000
0000
,
1001
0000
0000
0000
0000
0000
0010
0000
0000
0001
0000
0000
1000
0001
1000
0001
1000
0001
1000
0000
0000
0001
0000
0000
,
1000
0000
0010
0100
0001
0000
1000
0001
0100
0000
0010
1000
0001
0000
1000
0001
,
0010
0000
0100
1000
0100
0000
0010
0001
1000
0000
0001
1000
0100
0000
1000
0001
,
0100
0000
0010
1000
0001
0000
1000
0010
0100
0000
0001
1000
0001
0000
1000
0100
,
0010
0000
0000
0000
0000
0000
0001
0000
1000
0000
0001
0000
1000
0000
0000
0000
0000
0000
0001
0000
0000
0000
0000
0000
1000
0000
0001
0000
1000
0000
0001
0000
0000
0000
0000
0000
0010
0000
0000
0001
0000
0000
0010
0000
0000
0001
0000
0000
,
1000
0000
0010
1000
0001
0000
1000
0100
0010
0000
0100
1000
0001
0000
0100
0001
,
1000
0000
0010
0100
0001
0000
1000
0010
1000
0000
0001
0100
0010
0000
1000
0100
,
0010
0000
0001
1000
0100
0000
1000
0001
0010
0000
0001
1000
0001
0000
0100
0010
,
1000
0000
0000
0000
0000
0000
0000
0000
0000
1010
0000
0000
0000
0000
0000
0000
0000
0000
0101
0000
0000
0000
0000
0000
1000
0000
0000
0000
0000
0000
0000
0000
0000
0000
0000
0000
0001
0000
1000
0000
0001
0000
1000
0000
0001
0000
1000
0000
,
0001
0000
0100
0010
1000
0000
0001
1000
0010
0000
0100
0001
1000
0000
0001
1000
,
0100
0000
0010
0001
0010
0000
0100
1000
0001
0000
1000
0001
0010
0000
0001
1000
,
0010
0000
0100
0001
1000
0000
0001
0100
0010
0000
1000
0001
1000
0000
0001
0010
,
0100
0000
0000
0000
0000
0000
1000
0000
0001
0000
1000
0000
0001
0000
0000
0000
0000
0000
0010
0000
0000
0000
0000
0000
0001
0000
1000
0000
0001
0000
1000
0000
0000
0000
0000
0000
0001
0000
0000
0100
0000
0000
0001
0000
0000
0100
0000
0000
,
0010
0000
1000
0100
1000
0000
0001
0010
0100
0000
0010
0001
1000
0000
0010
1000
,
0001
0000
0100
0010
1000
0000
0001
0100
0001
0000
1000
0010
0100
0000
0001
0010
,
0100
0000
0000
1100
0000
0000
1001
0000
1000
0000
1010
0000
0110
0000
0101
0000
,
1001
0000
0000
0000
0000
0000
0000
0000
0000
0011
0000
0000
0000
0000
0000
0000
0000
0000
1100
0000
0000
0000
0000
0000
0000
0000
0000
0001
0000
0000
1000
0000
0000
0000
0000
0000
0001
0000
1000
0000
0001
0000
1000
0000
0001
0000
1000
0000
,
0001
0000
1000
0000
0010
0100
0001
0000
0010
0100
1000
0000
0001
0100
0010
0000
,
1000
0001
0010
0000
0100
1000
0001
0000
0010
0001
1000
0000
0001
0100
0010
0000
,
1000
0100
0010
0000
0001
1000
0010
0000
0100
0001
1000
0000
0100
0010
0001
0000
,
0100
0000
0000
0000
0000
0000
0010
0000
1000
0000
0010
0000
1000
0000
0000
0000
0000
0000
0001
0000
0000
0000
0000
0000
1000
0000
0010
0000
1000
0000
0010
0000
0000
0000
0000
0000
0100
0000
0000
0001
0000
0000
0100
0000
0000
0001
0000
0000
,
0010
0001
1000
0000
0100
0010
0001
0000
1000
0001
0010
0000
0100
1000
0001
0000
,
0100
0010
1000
0000
0001
1000
0010
0000
0100
0001
1000
0000
0100
0010
0001
0000
,
0100
0010
1000
0000
0001
1000
0010
0000
0100
0001
1000
0000
0100
0010
0001
0000
,
0101
0000
0000
0000
0000
0000
0100
0000
0000
0010
0000
0000
1000
0000
0000
0000
0000
0000
0001
0000
0000
0000
0000
0000
1000
0000
0000
0000
0000
0000
0000
0000
0000
0000
0000
0000
0001
0000
0100
0000
0001
0000
0100
0000
0001
0000
0100
0000
,
0001
0000
1000
0000
0100
0010
0001
0000
0100
0010
1000
0000
0001
0010
0100
0000
,
1000
0001
0100
0000
0010
1000
0001
0000
0100
0001
1000
0000
0001
0010
0100
0000
,
1000
0010
0100
0000
0001
1000
0100
0000
0010
0001
1000
0000
0010
0100
0001
0000
,
0010
0000
0000
0000
0000
0000
0100
0000
1000
0000
0100
0000
1000
0000
0000
0000
0000
0000
0001
0000
0000
0000
0000
0000
1000
0000
0100
0000
1000
0000
0100
0000
0000
0000
0000
0000
0010
0000
0000
0001
0000
0000
0010
0000
0000
0001
0000
0000
,
0100
0001
1000
0000
0010
0100
0001
0000
1000
0001
0100
0000
0010
1000
0001
0000
,
0010
0100
1000
0000
0001
1000
0100
0000
0010
0001
1000
0000
0010
0100
0001
0000
,
0010
0001
0100
0010
0100
0001
0010
0100
1000
0001
0100
0001
1000
0100
0010
0001
,
0100
0000
0000
M00M
,
2001
3002
0203
0302
2003
3020
0230
0320
,
2030
3200
0320
0230
2300
3002
0023
0032
,
0203
0320
2030
3020
0230
0302
2003
3002
,
0023
0230
2300
3020
2030
3200
2300
3200
,
M00M
0302
0023
0032
0203
0320
2030
3020
,
0230
0302
2003
3002
0023
0230
2300
3200
,
0320
0032
2003
3002
0203
0320
0230
0320
,
M00M
0000
0032
0000
0023
0000
0032
0000
0203
0000
0302
0000
2003
0000
3002
0003
,
1001
1000
0010
1000
0001
0100
0010
0100
,
0001
0010
0100
0010
0001
1000
0100
1000
,
0010
0100
0001
0100
0010
1000
0001
1000
,
0100
0000
0010
0000
0001
0000
0100
0000
0001
0000
0010
0000
0001
0000
0010
M00M
,
0010
1000
0100
1000
0010
0100
0001
0100
,
0010
1000
0001
1000
0100
0010
0001
0010
,
0100
0000
1000
0000
0001
0000
1000
0000
0010
0000
0100
0000
0010
0000
0100
M00M
,
0100
1000
0100
1000
0010
1000
0001
1000
,
1001
0000
0001
0000
0010
0001
0000
0001
1000
0000
0001
0000
0100
0000
0001
0100
,
0000
0000
0010
0000
0010
0000
1000
0010
0000
0000
0100
0000
0100
0000
0001
0000
,
1000
0000
0001
0000
0001
1000
0000
0100
0010
0000
0001
0000
0001
0000
0100
0010
,
0000
0000
1000
0000
1000
0000
0001
1000
0000
0000
0010
0000
0010
0000
0100
0000
,
0001
0000
0010
0000
0100
0010
0000
0010
0001
0000
1000
0000
1000
0000
0001
1000
,
0000
0000
1000
0000
1000
0000
1000
0010
0000
0000
0100
0000
0100
0000
0001
0000
,
1000
0000
0100
0000
0100
1000
0000
1000
0100
0000
0010
0000
0010
0000
0001
0000
,
1000
0000
0000
1000
0000
0000
1000
0000
0000
1000
0000
0000
0010
0000
0100
0000
,
1001
0000
0000
0MM0
,
1000
0001
0010
0001
1000
0010
0100
0010
1000
0001
0010
0100
0010
0001
1000
0010
,
0100
0001
0010
0100
0010
0001
1000
0010
0100
0001
1000
0100
1000
0001
0100
0010
,
1000
0001
0010
0100
0010
0001
1000
0010
0100
0001
1000
0100
1000
0001
1000
0010
,
0100
0001
0010
0100
0010
0001
1000
0010
0100
0001
1000
0100
1000
0001
0100
0010
,
1000
0001
0010
0100
0010
0001
0100
0001
1000
0010
0100
0001
0100
0010
1000
0100
,
0010
0001
1000
0010
1000
0001
1000
0010
0100
0001
1000
0100
1000
0001
0010
0100
,
1000
0001
0100
0010
0100
0001
1000
0001
0100
0010
1000
0100
1000
0010
0100
0001
,
1000
0000
0000
0100
0000
0000
0010
0000
0000
0001
0000
0000
0010
0000
0000
0100
0000
0000
1000
0000
0000
0001
0000
0000
1000
0000
0001
0000
1000
0000
0001
0000
0000
0100
0000
0000
0010
0000
0000
0000
0000
0000
1000
0000
0000
0000
0000
0000
,
0001
1000
0100
1000
0001
0100
0010
0100
0001
1000
0100
0010
0100
1000
0001
0100
,
0010
1000
0100
0010
0100
1000
0001
0100
0010
1000
0001
0010
0001
1000
0010
0100
,
0001
1000
0100
0010
0100
1000
0001
0100
0010
1000
0001
0010
0001
1000
0001
0100
,
0010
1000
0100
0010
0100
1000
0001
0100
0010
1000
0001
0010
0001
1000
0010
0100
,
0001
1000
0100
0010
0100
1000
0010
1000
0001
0100
0010
1000
0010
0100
0001
0010
,
0100
1000
0001
0100
0001
1000
0001
0100
0010
1000
0001
0010
0001
1000
0100
0010
,
0001
1000
0010
0100
0010
1000
0001
1000
0010
0100
0001
0010
0001
0100
0010
1000
,
0001
0000
0000
0000
0000
0000
1000
0000
0001
0000
1000
0000
0001
0000
0000
0000
0000
0000
0010
0000
0000
0001
0000
0000
1000
0000
0001
0000
1000
0000
0001
0000
0000
0100
0000
0000
0010
0000
0000
0000
0000
0000
1000
0000
0000
0000
0000
0000
,
0001
1000
0010
1000
0001
0010
0100
0010
0001
1000
0010
0100
0010
1000
0001
0010
,
0100
1000
0010
0100
0010
1000
0001
0010
0100
1000
0001
0100
0001
1000
0100
0010
,
0001
1000
0010
0100
0010
1000
0001
0010
0100
1000
0001
0100
0001
1000
0001
0010
,
0100
1000
0010
0100
0010
1000
0001
0010
0100
1000
0001
0100
0001
1000
0100
0010
,
0001
1000
0010
0100
0010
1000
0100
1000
0001
0010
0100
1000
0100
0010
0001
0100
,
0010
1000
0001
0010
0001
1000
0001
0010
0100
1000
0001
0100
0001
1000
0010
0100
,
0001
1000
0100
0010
0100
1000
0001
1000
0100
0010
0001
0100
0001
0010
0100
1000
,
0001
0000
0000
0000
0000
0000
1000
0000
0010
0000
1000
0000
0010
0000
0000
0000
0000
0000
0100
0000
0000
0001
0000
0000
1000
0000
0001
0000
1000
0000
0001
0000
0000
0010
0000
0000
0100
0000
0000
0000
0000
0000
1000
0000
0000
0000
0000
0000
,
0001
1000
0010
1000
0001
0010
0100
0010
0001
1000
0010
0100
0010
1000
0001
0010
,
0100
1000
0010
0100
0010
1000
0001
0010
0100
1000
0001
0100
0001
1000
0100
0010
,
0001
1000
0010
0100
0010
1000
0001
0010
0100
1000
0001
0100
0001
1000
0001
0010
,
0100
1000
0010
0100
0010
1000
0001
0010
0100
1000
0001
0100
0001
1000
0100
0010
,
0001
1000
0010
0100
0010
1000
0100
1000
0001
0010
0100
1000
0100
0010
0001
0100
,
0010
1000
0001
0010
0001
1000
0001
0010
0100
1000
0001
0100
0001
1000
0010
0100
,
0001
1000
0100
0010
0100
1000
0001
1000
0100
0010
0001
0100
0001
0010
0100
1000
,
0001
0000
0000
0000
0000
0000
1000
0000
0010
0000
0100
0000
0001
0000
0000
1000
0000
0000
0001
0000
0000
1000
0000
0000
0001
0000
0010
0000
0100
0000
1000
0000
0000
0001
0000
0000
1000
0000
0000
0000
0000
0000
0001
0000
0000
0000
0000
0000
,
1000
0100
0010
0001
1000
0100
0010
0001
1000
0100
0010
0001
1000
0001
0010
0001
,
0100
0010
1000
0001
1000
0010
0100
0001
1000
0001
0100
0010
1000
0001
1000
0100
,
0010
0100
1000
0001
0010
0100
0010
0001
1000
0001
0100
0010
0100
0001
1000
0100
,
0010
0100
1000
0001
0010
0100
1000
0001
0100
0001
0100
0001
0100
0000
0100
0000
,
0001
0100
0010
1000
0001
0100
0010
1000
0001
0100
0010
1000
0001
1000
0010
1000
,
0100
0010
0001
1000
0001
0010
0100
1000
0001
1000
0100
0010
0001
1000
0001
0100
,
0010
0100
0001
1000
0010
0100
0010
1000
0001
1000
0100
0010
0100
1000
0001
0100
,
0010
0000
0000
0000
0000
0000
1000
0000
0010
0000
0100
0000
0001
0000
0000
0000
0000
0000
1000
0000
0000
0001
0000
0000
1000
0000
0100
0000
0010
0000
0001
0000
0000
1000
0000
0000
0001
0000
0000
0000
0000
0000
0001
0000
0000
0000
0000
0000
,
1000
0100
0010
0001
1000
0100
0010
0001
1000
0100
0010
0001
1000
0001
0100
0001
,
0010
0100
1000
0001
0100
0010
1000
0001
1000
0010
0100
0001
1000
0100
0010
0001
,
0100
0010
1000
0001
0100
0010
0100
0001
1000
0100
0010
0001
1000
0001
0010
0100
,
1000
0000
0000
0001
0000
0000
0100
0000
0000
0010
0000
0000
1000
0000
0000
0001
0000
0000
0100
0000
0000
0010
0000
0000
1000
0000
0001
0000
1000
0000
0001
0000
0000
0100
0000
0000
0010
0000
0000
0000
0000
0000
0010
0000
0000
0000
0000
0000
,
1000
0010
0100
0001
1000
0010
0100
0001
1000
0010
0100
0001
1000
0100
0010
0100
,
1000
0001
0010
0001
1000
0010
0100
0010
1000
0001
0100
0001
0100
0010
1000
0001
,
0010
0100
1000
0010
0100
0001
0010
0100
1000
0100
0010
0001
0100
0010
0100
0001
,
4000
0004
0000
0000
0000
0000
0000
0000
0000
0000
0000
0000
0000
0000
0000
0000
0000
0000
0000
0000
0000
3000
0003
0000
,
0010
0100
1000
1000
0010
0100
0001
0001
,
1000
0100
0010
0001
1000
1000
1000
0001
,
0100
0010
1000
1000
0100
0010
0001
0001
,
1000
0010
0200
0000
0301
0200
0000
0301
,
1001
1000
1000
0010
1000
0100
0010
0010
,
0001
0100
0010
0100
0001
0001
0001
1000
,
0001
0010
0100
0100
1000
0010
0100
0100
,
0001
0000
0000
0000
0000
0000
1000
0000
0100
0000
1000
0000
0100
0000
0000
0000
0000
0000
0010
0000
0000
0001
0000
0000
1000
0000
0001
0000
1000
0000
0001
0000
0000
1000
0000
0000
0100
0000
0000
0000
0000
0000
0010
0000
0000
0000
0000
0000
,
1001
0001
0001
0100
0010
1000
0001
0001
,
0010
0100
1000
0001
1000
1000
1000
0001
,
1000
0010
0100
0100
0001
0010
0100
0100
,
1000
0010
0200
0000
0301
0200
0000
0310
,
1010
1000
1000
0001
1000
0100
0010
0010
,
0001
0100
0010
1000
0001
0001
0001
0010
,
0001
0000
0100
0010
1000
0000
0001
0100
0001
0000
1000
0100
0010
0000
0001
0000
,
1001
0000
1000
0000
2000
0000
0000
0000
3010
0000
0020
0000
0000
0030
1000
0000
,
0001
0010
0100
1000
0001
0010
0001
1000
0010
0100
0001
1000
0001
0100
0010
1000
,
0001
1000
0100
0010
0100
1000
0001
0100
0001
1000
0010
0100
0001
0100
0010
1000
,
0100
0010
0001
0010
0100
1000
0001
0100
0010
0100
0001
1000
0100
0010
0001
1000
,
0001
0000
0100
0000
0010
0000
1000
0000
0000
0000
0000
0000
0001
0000
0100
0000
0010
0000
1000
0000
0000
1000
0000
0000
,
0001
0010
0100
1000
0001
0010
0001
1000
0010
0100
0001
1000
0001
0100
0010
1000
,
0001
0010
0100
1000
0001
1000
0100
0010
0001
1000
0001
0100
0010
1000
0010
0100
,
0001
1000
0100
0010
0001
0010
0100
1000
0001
0010
0001
1000
0100
0010
0001
1000
,
0020
0000
1030
0001
0020
0000
0031
1000
0200
0000
1300
0001
0200
0000
0310
1000
,
0001
0010
0100
1000
0001
0010
0001
1000
0010
0100
0001
1000
0001
0100
0010
1000
,
0001
1000
0100
0010
0100
1000
0001
0100
0001
1000
0010
0100
0001
0100
0010
1000
,
0100
0010
0001
0010
0100
1000
0001
0100
0010
0100
0001
1000
0100
0010
0001
1000
,
0001
0000
0100
0000
0010
0000
1000
0000
0000
0000
0000
0000
0001
0000
0100
0000
0010
0000
1000
0000
0000
1000
0000
0000
,
0001
0010
0100
1000
0001
0010
0001
1000
0010
0100
0001
1000
0001
0100
0010
1000
,
0001
0010
0100
1000
0001
0010
0001
1000
0010
0100
0001
0100
0010
1000
0010
0100
,
0001
1000
0100
0010
0001
0010
0100
1000
0001
0010
0001
1000
0100
0010
0001
1000
,
0020
0030
0000
0000
0100
0000
0020
0030
0000
0000
1000
0000
0002
0003
0000
0000
0010
0000
0002
0003
0000
0000
1000
0000
0020
0030
0200
0300
0020
0030
2000
3000
,
0001
0010
0100
1000
0001
0010
0001
1000
0010
0100
0001
1000
0001
0100
0010
1000
,
0001
0010
0001
1000
0010
0100
0001
1000
0100
1000
0001
0010
0100
1000
0100
0010
,
0001
1000
0001
0100
0001
1000
0100
0010
0100
1000
0001
1000
0010
0100
0010
1000
,
0100
0010
0001
0010
0100
1000
0001
1000
0010
0100
0001
0100
0010
1000
0001
1000
,
0001
0010
0100
1000
0001
0010
0001
1000
0010
0100
0001
1000
0001
0100
0010
1000
,
0001
1000
0100
0010
0001
0010
0100
1000
0001
0100
0001
1000
0100
0010
0100
1000
,
0001
0100
0001
1000
0010
0100
0010
1000
0001
0100
0010
1000
0001
1000
0010
1000
,
0200
0300
0000
0000
0010
0000
0002
0003
0000
0000
0010
0000
0200
0300
0000
0000
1000
0000
0002
0003
0000
0000
1000
0000
0020
0030
0200
0300
0002
0003
2000
3000
,
0001
0010
0100
1000
0001
0100
0001
0100
0010
1000
0010
1000
0001
1000
0001
1000
,
0001
0010
0001
0010
0100
1000
0100
1000
0001
0100
0001
0100
0010
1000
0010
1000
,
0001
0010
0001
0010
0100
1000
0100
1000
0001
0100
0001
0100
0010
1000
0010
1000
,
0100
0010
0100
0010
0001
1000
0001
1000
0001
0100
0001
0100
0010
1000
0010
1000
,
0001
0010
0001
0010
0100
1000
0100
1000
0001
0100
0001
0100
0010
1000
0010
1000
,
0100
0010
0100
0010
0001
0100
0001
0100
0010
1000
0010
1000
0100
0010
0100
0010
,
0001
0100
0010
1000
0100
1000
0010
0100
0001
0010
0100
1000
0001
1000
0100
0010
,
0001
0100
0010
1000
0100
0010
0100
1000
0010
0100
0001
0010
0100
1000
0001
1000
,
00M2
0M00
0000
0000
0M00
0000
0000
00M0
,
0003
0M00
0000
0000
0M00
0000
0000
000M
,
0000
M000
0000
0000
M000
0000
0000
000M
,
0000
M000
0000
0000
M000
0000
0000
0M00
,
0000
000M
0000
0000
000M
0000
0000
0M00
,
0000
000M
0000
0000
000M
0000
0000
M000
,
0000
00M0
0000
0000
00M0
0000
0000
0M00
,
0000
000M
0000
0000
000M
0000
0000
00M0
,
0000
M000
0000
0000
M000
0000
0000
000M
,
0000
M000
0000
0000
M000
0000
0000
00M0
,
0000
000M
0000
0000
000M
0000
0000
0M00
,
0000
000M
0000
0000
000M
0000
0000
00M0
,
0000
M000
0000
0000
M000
0000
0000
00M0
,
0000
M000
0000
0000
M000
0000
0000
0M00
,
M000
000M
M000
000M
M000
000M
M000
000M
M000
000M
M000
000M
M000
000M
M000
000M
,
0M00
00M0
0M00
00M0
0M00
00M0
0M00
00M0
,
1001
0001
0010
0100
0000
0000
0000
0000
1000
0001
0010
0100
0000
0000
0000
0000
,
1000
0001
0100
0010
0000
0000
0000
0000
1000
0001
0100
0010
1000
0100
0010
0001
,
1000
0010
0100
0001
0000
0000
0000
0000
1000
0010
0100
0001
0000
0000
0000
0000
,
0010
0100
1000
0001
0000
0000
0000
0000
0010
0100
1000
0001
0100
0001
0010
0100
,
1000
0100
0010
0001
0000
0000
0000
0000
1000
0100
0010
0001
0000
0000
0000
0000
,
1000
0010
0100
0001
0000
0000
0000
0000
1000
0010
0100
0001
1000
0100
0010
0001
,
0100
0010
1000
0001
0000
0000
0000
0000
0100
0010
1000
0001
0000
0000
0000
0000
,
1000
0100
0010
0001
0000
0000
0000
0000
1000
0100
0010
0001
0000
0000
0000
0000
,
1001
0001
1000
0001
,
0010
0100
1000
0001
,
0100
0010
0100
0001
,
0010
0100
1000
0010
,
0100
0001
1000
0001
,
0100
0010
1000
0100
,
0010
0001
1000
0001
,
0010
0100
1000
0001
,
1000
0100
1000
0001
0100
0001
1000
0010
,
0100
0001
0010
0001
0100
0010
1000
0001
,
1000
0000
0001
0010
0001
0000
1000
0100
1000
0000
0001
0100
0001
0000
0010
0100
,
0010
0000
0001
1000
0001
0000
0100
0010
0100
0000
0001
0100
0001
0000
0010
0100
,
1000
0001
1000
0100
0010
0001
1000
0001
1000
0100
0010
0001
0100
0010
1000
0001
,
0100
0001
1000
0010
0100
0001
1000
0001
0100
0010
1000
0001
0010
0100
1000
0100
,
0010
0001
0100
0010
1000
0010
0100
0001
0010
0100
1000
0010
0100
0001
0010
0001
,
0400
0000
0000
0000
0000
0000
0000
0300
,
1002
0000
0000
0003
0000
0000
0002
0000
0000
0003
0000
0000
0002
0000
0000
0003
,
0000
0000
0200
0000
0000
0300
0000
0000
0200
0000
0320
0000
0000
0000
0030
0000
,
2000
0000
0000
3000
0000
0000
2000
0000
0000
3000
0000
0000
2000
0000
0000
3000
,
0000
0000
0200
0000
0000
0300
0000
0000
0200
0000
0000
0000
0320
0000
0000
0000
,
0032
0000
0000
0003
0000
0000
0002
0000
0000
0003
0000
0000
0002
0000
0000
0003
,
0000
0000
0200
0000
0000
0300
0000
0000
0200
0000
0320
0000
0000
0000
0030
0000
,
2000
0000
0000
3000
0000
0000
2000
0000
0000
3000
0000
0000
2000
0000
0000
3000
,
0000
0000
0200
0000
0000
0300
0000
0000
0200
0000
0000
0000
0310
0000
0010
0001
,
1000
1001
0101
0110
,
1010
1100
0110
0011
,
0101
1010
1100
0011
,
0101
1100
0011
1010
,
1100
1000
0001
0001
0100
0100
0010
0010
,
1000
1000
0100
0100
0010
0010
0001
0001
,
1000
0010
0100
0001
1000
0001
0100
0010
1000
0100
0010
0001
0100
0001
0010
0100
,
4000
0000
0000
0000
0000
0000
0000
3000
,
1001
0000
0000
0000
,
0000
0000
0000
0000
0000
1000
0100
0010
,
0001
0100
0001
1000
0010
0100
0010
1000
0001
1000
0100
1000
0001
0100
0010
0100
,
0001
1000
0010
0100
0010
1000
0001
1000
0010
1000
0001
0010
0001
0100
0010
1000
,
0100
0010
0100
1000
0001
0100
0010
1000
0001
1000
0010
0100
0001
1000
0100
1000
,
0001
0010
0100
1000
0001
1000
0100
1000
0001
0100
0001
1000
0100
0010
0001
0100
,
0010
1000
0001
1000
0100
0010
0001
1000
0100
1000
0001
0100
0010
1000
0001
1000
,
0010
0100
0001
1000
0100
1000
0001
0010
0100
0010
0001
1000
0010
0100
0001
0010
,
0100
1000
0100
0010
0001
0010
0100
1000
0001
0010
0001
1000
0100
0010
0100
1000
,
0001
0100
0010
1000
0100
0010
0001
1000
0010
0100
0010
0100
0001
0010
0100
1000
,
0001
0100
0001
1000
0010
0100
0010
1000
0001
1000
0100
1000
0001
0100
0010
0100
,
0001
1000
0010
0100
0010
1000
0001
1000
0010
1000
0001
0010
0001
0100
0010
1000
,
0100
0010
0100
1000
0001
0100
0010
1000
0001
1000
0010
0100
0001
1000
0100
1000
,
0001
0010
0100
1000
0001
1000
0100
1000
0001
0100
0001
1000
0100
0010
0001
0100
,
0010
1000
0001
1000
0100
0010
0001
1000
0100
1000
0001
0100
0010
1000
0001
1000
,
0010
0100
0001
1000
0100
1000
0001
0010
0100
0010
0001
1000
0010
0100
0001
0010
,
0100
1000
0100
0010
0001
0010
0100
1000
0001
0010
0001
1000
0100
0010
0100
1000
,
0001
1000
0010
0100
0001
1000
0010
1000
0100
0010
0001
1000
0001
0100
0010
1000
,
0001
1000
0100
0010
0001
0010
0100
1000
0001
0100
0010
0100
0001
1000
0100
1000
,
0001
0010
0100
1000
0001
0100
0001
1000
0010
0100
0010
1000
0100
0010
0001
0100
,
0010
1000
0001
0010
0100
0010
0001
1000
0001
0100
0010
0100
0001
1000
0100
0010
,
0100
1000
0001
0010
0001
1000
0010
0100
0001
0100
0010
1000
0100
0010
0001
0100
,
0010
1000
0001
0010
0100
0010
0001
1000
0001
0100
0010
0100
0001
1000
0100
0010
,
0100
1000
0001
0010
0001
1000
0010
0100
0001
0100
0010
1000
0100
0010
0001
0100
,
0010
1000
0001
0010
0100
0010
0001
1000
0010
0100
0001
1000
0100
0010
0001
1000
,
0001
0100
0010
0100
0001
1000
0010
1000
0100
0010
0001
1000
0010
0100
0010
1000
,
0001
1000
0100
0010
0001
0010
0100
1000
0001
0100
0010
0100
0001
1000
0100
1000
,
0001
0010
0100
1000
0001
0100
0001
1000
0010
0100
0010
1000
0100
0010
0001
0100
,
0010
1000
0001
0010
0100
0010
0001
1000
0001
0100
0010
0100
0001
1000
0100
0010
,
0100
1000
0001
0010
0001
1000
0010
0100
0001
0100
0010
1000
0100
0010
0001
0100
,
0010
1000
0001
0010
0100
0010
0001
1000
0001
0100
0010
0100
0001
1000
0100
0010
,
0100
1000
0001
0010
0001
1000
0010
0100
0001
0100
0010
1000
0100
0010
0001
0100
,
0010
1000
0001
0010
0100
0010
0001
1000
0010
0100
0001
1000
0100
0010
0001
1000
,
0001
0100
0010
0100
0001
1000
0010
1000
0100
0010
0001
1000
0010
0100
0010
0100
,
0002
0003
0000
0000
0020
0030
0000
0000
,
0200
0300
0000
0000
2000
3000
0000
0000
,
0002
0000
0000
0000
,
0000
0000
0000
0000
,
0000
0000
0000
0000
,
0000
0000
0000
0000
,
0003
0000
0000
0000
;
