#TITLE:Final Destination;
#SUBTITLE:Super Smash Bros. Brawl;
#ARTIST:Nintendo & HAL Laboratory Inc.;
#TITLETRANSLIT:;
#SUBTITLETRANSLIT:;
#ARTISTTRANSLIT:;
#CREDIT:owenviau1;
#BANNER:BN.PNG;
#BACKGROUND:BG.PNG;
#LYRICSPATH:;
#CDTITLE:../ov1_title.png;
#MUSIC:Final Destination - Super Smash Bros. Brawl.mp3;
#OFFSET:-0.167;
#SAMPLESTART:7.308;
#SAMPLELENGTH:29.999;
#SELECTABLE:YES;
#DISPLAYBPM:167.000;
#BPMS:0.000=167.015,1.000=166.995,2.000=167.015,3.000=166.995,5.000=167.015,6.000=166.995,7.000=167.005,8.000=166.995,10.000=167.005,11.000=166.995,12.000=167.005,13.000=166.995,15.000=167.005,16.000=166.995,18.000=167.005,19.000=166.995,20.000=167.005,21.000=166.995,23.000=167.005,24.000=166.995,26.000=167.005,27.000=166.995,28.000=167.005,29.000=166.995,31.000=167.005,32.000=166.995,34.000=167.005,35.000=166.995,36.000=167.005,37.000=166.995,39.000=167.005,40.000=166.995,42.000=167.005,43.000=166.995,44.000=167.005,45.000=166.995,47.000=167.005,48.000=166.995,50.000=167.005,51.000=166.995,52.000=167.005,53.000=166.995,55.000=167.005,56.000=166.995,58.000=167.005,59.000=166.995,60.000=167.005,61.000=166.995,63.000=167.005,64.000=166.995,66.000=167.005,67.000=166.995,68.000=167.005,69.000=166.995,71.000=167.005,72.000=166.995,74.000=167.005,75.000=166.995,76.000=167.005,77.000=166.995,79.000=167.005,80.000=166.995,82.000=167.005,83.000=166.995,84.000=167.005,85.000=166.995,87.000=167.005,88.000=166.995,90.000=167.005,91.000=166.995,92.000=167.005,93.000=166.995,95.000=167.005,96.000=166.995,98.000=167.005,99.000=166.995,100.000=167.005,101.000=166.995,103.000=167.005,104.000=166.995,106.000=167.005,107.000=166.995,108.000=167.005,109.000=166.995,111.000=167.005,112.000=166.995,114.000=167.005,115.000=166.995,116.000=167.005,117.000=166.995,119.000=167.005,120.000=166.995,122.000=167.005,123.000=166.995,124.000=167.005,125.000=166.995,126.000=167.005,127.000=166.995,128.000=167.005,129.000=166.995,130.000=167.005,131.000=166.995,132.000=167.005,133.000=166.995,134.000=167.005,135.000=166.995,136.000=167.005,137.000=166.995,138.000=167.005,139.000=166.995,140.000=167.005,141.000=166.995,142.000=167.005,143.000=166.995,144.000=167.005,145.000=166.995,146.000=167.005,147.000=166.995,148.000=167.005,149.000=166.995,150.000=167.005,151.000=166.995,152.000=167.005,153.000=166.995,154.000=167.005,155.000=166.995,156.000=167.005,157.000=166.995,158.000=167.005,159.000=166.995,160.000=167.005,161.000=166.995,162.000=167.005,163.000=166.995,164.000=167.005,165.000=166.995,166.000=167.005,167.000=166.995,168.000=167.005,169.000=166.995,170.000=167.005,171.000=166.995,172.000=167.005,173.000=166.995,174.000=167.005,175.000=166.995,176.000=167.005,177.000=166.995,178.000=167.005,179.000=166.995,180.000=167.005,181.000=166.995,182.000=167.005,183.000=166.995,184.000=167.005,185.000=166.995,186.000=167.005,187.000=166.995,188.000=167.005,189.000=166.995,190.000=167.005,191.000=166.995,192.000=167.005,193.000=166.995,194.000=167.005,195.000=166.995,196.000=167.005,197.000=166.995,198.000=167.005,199.000=166.995,200.000=167.005,201.000=166.995,202.000=167.005,203.000=166.995,204.000=167.005,205.000=166.995,206.000=167.005,207.000=166.995,208.000=167.005,209.000=166.995,210.000=167.005,211.000=166.995,212.000=167.005,213.000=166.995,214.000=167.005,215.000=166.995,216.000=167.005,217.000=166.995,218.000=167.005,219.000=166.995,220.000=167.005,221.000=166.995,222.000=167.005,223.000=166.995,224.000=167.005,225.000=166.995,226.000=167.005,227.000=166.995,228.000=167.005,229.000=166.995,230.000=167.005,231.000=166.995,232.000=167.005,233.000=166.995,234.000=167.005,235.000=166.995,236.000=167.005,237.000=166.995,238.000=167.005,239.000=166.995,240.000=167.005,241.000=166.995,242.000=167.005,243.000=166.995,244.000=167.005,245.000=166.995,246.000=167.005,247.000=166.995,248.000=167.005,249.000=166.995,250.000=167.005,251.000=166.995,252.000=167.005,253.000=166.995,254.000=167.005,255.000=166.995,256.000=167.005,257.000=166.995,258.000=167.005,259.000=166.995,260.000=167.005,261.000=166.995,262.000=167.005,263.000=166.995,264.000=167.005,265.000=166.995,266.000=167.005,267.000=166.995,268.000=167.005,269.000=166.995,270.000=167.005,271.000=166.995,272.000=167.005,273.000=166.995,274.000=167.005,275.000=166.995,276.000=167.005,277.000=166.995,278.000=167.005,279.000=166.995,280.000=167.005,281.000=166.995,282.000=167.005,283.000=166.995,284.000=167.005,285.000=166.995,286.000=167.005,287.000=166.995,288.000=167.005,289.000=166.995,290.000=167.005,291.000=166.995,292.000=167.005,293.000=166.995,294.000=167.005,295.000=166.995,296.000=167.005,297.000=166.995,298.000=167.005,299.000=166.995,300.000=167.005,301.000=166.995,302.000=167.005,303.000=166.995,304.000=167.005,305.000=166.995,306.000=167.005,307.000=166.995,308.000=167.005,309.000=166.995,310.000=167.005,311.000=166.995,312.000=167.005,313.000=166.995,314.000=167.005,315.000=166.995,316.000=167.005,317.000=166.995,318.000=167.005,319.000=166.995,320.000=167.005,321.000=166.995,322.000=167.005,323.000=166.995,324.000=167.005,325.000=166.995,326.000=167.005,327.000=166.995,328.000=167.005,329.000=166.995,330.000=167.005,331.000=166.995,332.000=167.005,333.000=166.995,334.000=167.005,335.000=166.995,336.000=167.005,337.000=166.995,338.000=167.005,339.000=166.995,340.000=167.005,341.000=166.995,342.000=167.005,343.000=166.995,344.000=167.005,345.000=166.995,346.000=167.005,347.000=166.995,348.000=167.005,349.000=166.995,350.000=167.005,351.000=166.995,352.000=167.005,353.000=166.995,354.000=167.005,355.000=166.995,356.000=167.005,357.000=166.995,358.000=167.005,359.000=166.995,360.000=167.005,361.000=166.995,362.000=167.005,363.000=166.995,364.000=167.005,365.000=166.995,366.000=167.005,367.000=166.995,368.000=167.005,369.000=166.995,370.000=167.005,371.000=166.995,372.000=167.005,373.000=166.995,374.000=167.005,375.000=166.995,376.000=167.005,377.000=166.995,378.000=167.005,379.000=166.995,380.000=167.005,381.000=166.995,382.000=167.005,383.000=166.995,384.000=167.005,385.000=166.995,386.000=167.005,387.000=166.995,388.000=167.005,389.000=166.995,390.000=167.005,391.000=166.995,392.000=167.005,393.000=166.995,394.000=167.005,395.000=166.995,396.000=167.005,397.000=166.995,398.000=167.005,399.000=166.995,400.000=167.005,401.000=166.995,402.000=167.005,403.000=166.995,404.000=167.005,405.000=166.995,406.000=167.005,407.000=166.995,408.000=167.005,409.000=166.995,410.000=167.005,411.000=166.995,412.000=167.005,413.000=166.995,414.000=167.005,415.000=166.995,416.000=167.005,417.000=166.995,418.000=167.005,419.000=166.995,420.000=167.005,421.000=166.995,422.000=167.005,423.000=166.995,424.000=167.005,425.000=166.995,426.000=167.005,427.000=166.995,428.000=167.005,429.000=166.995,430.000=167.005,431.000=166.995,432.000=167.005,433.000=166.995,434.000=167.005,435.000=166.995,436.000=167.005,437.000=166.995,438.000=167.005,439.000=166.995,440.000=167.005,441.000=166.995,442.000=167.005,443.000=166.995,444.000=167.005,445.000=166.995,446.000=167.005,447.000=166.995,448.000=167.005,449.000=166.995,450.000=167.005,451.000=166.995,452.000=167.005,453.000=166.995,454.000=167.005,455.000=166.995,456.000=167.005,457.000=166.995,458.000=167.005,459.000=166.995,460.000=167.005,461.000=166.995,462.000=167.005,463.000=166.995,464.000=167.005,465.000=166.995,466.000=167.005,467.000=166.995,468.000=167.005,469.000=166.995,470.000=167.005,471.000=166.995,472.000=167.005,473.000=166.995,474.000=167.005,475.000=166.995,476.000=167.005,477.000=166.995,478.000=167.005,479.000=166.995,480.000=167.005,481.000=166.995,482.000=167.005,483.000=166.995,484.000=167.005,485.000=166.995,503.000=166.986,504.000=166.995,543.000=166.986,544.000=166.995;
#STOPS:;
#BGCHANGES:;
// cache tags:
#FIRSTBEAT:20.000;
#LASTBEAT:568.000;
#SONGFILENAME:Songs/owenviau1 Simfiles 5/Final Destination - [owenviau1] v1.6/Final Destination.sm;
#HASMUSIC:1;
#HASBANNER:1;
#MUSICLENGTH:205.037;
// end cache tags

//---------------dance-single - ----------------
#NOTES:
     dance-single:
     :
     Hard:
     12:
     0.866,1.000,0.093,0.756,0.393,1069.000,19.000,155.000,0.000,11.000:
0000
0000
0000
0000
,
0000
0000
0000
0000
,
0000
0000
0000
0000
,
0000
0000
0000
0000
,
0000
0000
0000
0000
,
1000
0000
0100
0001
1000
0000
0010
0000
1000
0100
0010
0000
0001
0000
1000
0001
,
0100
0000
1000
0000
0100
0001
1000
0000
0010
0000
0001
0000
1000
0000
0100
0000
,
0010
0000
0001
1000
0001
0000
0100
0000
1000
0010
1000
0000
0001
0000
0010
0100
,
0010
0000
1000
0000
0010
0100
0001
0000
1000
0000
0100
0000
0010
0000
0001
0000
,
0010
0000
1000
0010
0100
0000
0001
0000
0010
0100
0001
0000
1000
0000
0100
0010
,
0001
0000
1000
0000
0001
1000
0001
0000
0010
0000
0100
0000
1000
0000
0010
0000
,
0001
0000
0010
0100
1000
0000
0001
0000
1000
0001
1000
0000
0010
0000
0001
1000
,
0001
0000
1000
0000
0001
0100
0010
0000
1000
0000
0001
0000
0100
0000
0010
0000
,
1000
0000
0001
1000
0001
0000
0100
0000
0010
1000
0010
0000
0001
0000
1000
0001
,
1000
0000
0010
0000
1000
0100
1000
0000
0001
0000
0010
0000
1000
0000
0010
0000
,
0001
0000
1000
0010
0100
0000
0001
0000
1000
0001
0100
0000
0010
0000
0001
1000
,
0010
0000
0100
0000
0001
1000
0100
0000
0001
0000
0100
0000
0001
0000
1000
0000
,
0100
0000
0001
1000
0010
0000
0001
0000
1000
0001
0100
0000
0010
0000
0001
0000
,
0100
0000
0010
0001
1000
0000
0100
0000
0010
0000
0001
0000
1000
0000
0010
0000
,
0100
0000
1000
0010
1000
0000
0001
0000
1000
0001
0010
0000
0100
0000
1000
0000
,
0100
0000
0010
0000
0001
0000
1000
0001
1000
0000
0001
0000
1000
0100
0010
0001
,
2000
0010
0100
0001
0100
0010
0100
0001
,
0010
0100
0010
0001
3020
0230
2300
3002
,
2003
0010
0001
0010
,
0001
0000
0010
0000
3002
0203
0320
2030
,
3002
1000
0100
1000
,
0100
0000
0023
0230
2300
0000
3020
0230
,
0302
0000
0003
2000
0010
0000
0100
0000
,
3200
0320
0032
0203
,
1302
0000
0023
0230
,
2320
0030
3002
0000
2003
0000
0000
0000
,
3202
0300
0023
0000
0230
0000
0000
0000
,
2000
0000
0000
0000
,
3320
0000
0230
2300
,
3202
0300
2003
0000
3020
0000
0000
0000
,
2032
3000
0203
0000
0320
0000
0000
0000
,
2000
0000
0000
0000
,
3131
1000
0100
0010
0001
1000
0001
0100
,
0010
0000
0100
0000
1000
0100
0010
0001
1000
0000
0010
0000
0100
0000
0001
0000
,
0010
0100
1000
0100
0010
0001
1000
0010
,
0100
0000
0001
0000
0010
0100
0001
1000
0001
0000
0010
0000
0100
0000
1000
0000
,
0010
0100
0001
0010
0100
1000
0001
0010
,
0001
0100
0010
1000
0010
0100
0001
1000
,
0020
0032
0023
2030
3200
0320
0032
0203
,
2300
3002
0023
0032
2003
3020
0032
0023
,
1031
0100
0010
0001
1000
0010
0100
0001
,
0010
0000
1000
0001
0100
0000
1000
0000
0001
0000
0100
0000
0010
0000
1000
0000
,
0100
0010
0001
1000
0001
0100
0010
1000
0100
0010
0001
0010
0100
1000
0010
1000
,
0001
0100
0010
1000
0100
0010
0001
1000
0010
0100
0001
1000
0010
1000
0100
0010
,
0001
0010
0100
1000
0001
0100
0010
1000
0100
0010
0001
0100
0010
1000
0001
0010
,
0100
1000
0001
1000
0010
0100
0001
0010
0100
1000
0010
0100
0001
1000
0100
0010
,
0002
0000
0000
0000
1000
0000
0000
0000
1000
0000
0013
0100
2000
0000
3002
0000
,
0203
0302
2003
3020
0130
0001
0010
0100
,
1100
1000
0100
0010
0001
0100
0001
1000
,
0010
0100
0001
0100
1010
0010
0100
0001
,
1100
0100
0001
0100
0010
1000
0100
0010
,
0001
0010
0100
1000
0011
0100
1000
0001
,
0101
0010
1000
0010
0001
0010
0100
1000
,
0010
0001
1000
0010
1001
0010
0100
0001
,
1100
1002
0100
0010
,
1000
0100
1000
0010
,
1003
0100
0010
0001
0100
1000
0001
0010
,
1000
0100
0010
0001
0100
1000
0010
0100
,
0001
0010
1000
0001
0100
1000
0100
0001
,
0010
0000
0100
0000
0001
0000
1000
0100
0010
0000
0100
0000
0001
0000
0010
0000
,
0110
1000
0001
1000
0010
0001
1000
0010
,
1000
0001
0010
0001
1000
0100
0010
0001
,
0220
0000
2330
3002
,
0203
0000
0000
0010
0000
0000
0301
0000
1000
0010
0100
0001
,
2000
0000
3200
0320
,
0032
2003
3020
0000
,
0230
0000
0302
0023
,
2030
0000
3001
0100
0001
1000
0010
0000
1000
0001
0100
0010
,
2000
0001
3002
0203
,
2300
0001
3200
2300
,
3002
2003
3200
0010
,
0302
0000
1000
0000
0203
0320
2030
3002
,
0023
1000
0032
0203
,
2300
3020
0230
0001
,
2300
0010
3020
2030
,
3020
0001
0032
0203
,
2300
0001
3020
2030
,
3002
0010
2003
3200
,
0310
1000
0100
0010
0001
1000
0001
0100
0010
1000
0100
0010
0001
0100
0010
1000
,
0001
1000
0001
1000
0001
1000
0001
1000
0001
1000
0001
1000
0001
1000
0001
1000
0001
1000
0001
1000
0001
1000
0001
1000
,
0001
0000
1000
0000
0010
0000
1000
0000
0001
0000
0100
0000
0001
0000
1000
0100
,
0001
0000
1000
0000
0010
0000
0001
0000
1000
0000
0010
0000
0100
0000
0010
0001
,
1000
0000
0010
0000
0100
0000
0001
0000
1000
0000
0100
0000
1000
0000
0010
0001
,
0100
0001
0100
1000
0010
0001
1000
0100
,
0001
0000
0010
0000
1000
0000
0001
0000
0010
0000
0100
0000
0001
0000
1000
0100
,
0001
0000
0100
0000
0010
0000
0001
0000
0100
0000
1000
0000
0001
0000
0010
0001
,
1000
0000
0010
0000
0100
0000
0010
0000
0001
0000
0100
0000
0001
0000
1000
0010
,
0001
1000
0010
0001
1000
0010
0001
0100
,
1000
0000
0001
0000
0010
0000
0100
0000
1000
0000
0001
0000
0100
0000
1000
0100
,
0001
0000
1000
0000
0010
0000
0001
0000
1000
0000
0010
0000
0100
0000
0010
0001
,
1000
0000
0001
0000
0100
0000
0001
0000
0010
0000
1000
0000
0001
0000
0010
0001
,
1000
0001
0100
1000
0001
0001
1000
0100
,
0001
0000
0010
0000
1000
0000
0001
0000
0010
0000
1000
0000
0001
0000
1000
0100
,
0001
0000
0100
0000
1000
0000
0001
0000
0010
0000
1000
0000
0001
0000
0010
0001
,
1000
0000
0010
0000
0100
0000
1000
0000
0010
0000
0001
0000
0100
0000
1000
0010
,
0001
1000
0100
0001
1000
0010
0001
0100
,
1000
0000
0001
0000
0010
0000
0001
0000
1000
0000
0100
0000
0010
0000
0001
0100
,
1000
0000
0010
0000
0100
0000
0001
0000
1000
0000
0010
0000
0100
0000
0010
0001
,
1000
0000
0001
0000
0100
0000
0001
0000
1000
0000
0010
0000
0100
0000
0010
1000
,
0100
0001
0010
1000
0010
0001
0010
0100
,
0001
0000
0010
0000
1000
0000
0001
0000
0100
0000
1000
0000
0010
0000
1000
0100
,
0001
0000
0100
0000
0010
0000
0001
0000
0100
0000
1000
0000
0001
0000
0010
0001
,
1000
0000
0010
0000
0100
0000
0001
0000
0100
0000
0010
0000
0100
0000
1000
0010
,
0001
1000
0010
0001
1000
0010
0001
0100
,
1000
0000
0001
0000
0010
0000
0100
0000
1000
0000
0001
0000
0100
0000
0010
0001
,
1000
0000
0001
0000
0100
0000
0001
0000
1000
0000
0010
0000
0100
0000
0010
0001
,
1000
0000
0001
0000
0100
0000
0001
0000
1000
0000
0010
0000
0100
0000
0010
0001
,
1000
0000
0000
0100
0000
0000
0010
0001
1000
0001
0100
0010
,
2000
3020
0230
0302
,
2003
0000
0000
3020
,
0032
2003
3200
0320
,
1032
0000
2003
0000
,
3200
0000
0300
0000
0020
0000
0230
0000
0301
0000
0100
0001
1000
0000
0010
0000
,
1000
0100
0010
0000
0001
0000
1000
0001
0100
0000
1000
0000
0100
0001
1000
0000
,
0010
0000
0001
0000
1000
0000
0100
0000
0010
0000
0001
1000
0001
0000
0100
0000
,
1000
0010
1000
0000
0001
0000
0010
0100
0010
0000
1000
0000
0010
0100
0001
0000
,
1000
0000
0100
0000
0010
0000
0001
0000
0010
0000
1000
0010
0100
0000
0001
0000
,
0010
0100
0001
0000
1000
0000
0100
0010
0001
0000
1000
0000
0001
1000
0001
0000
,
0010
0000
0100
0000
1000
0000
0010
0000
0001
0000
0010
0100
1000
0000
0001
0000
,
1000
0001
1000
0000
0010
0000
0001
1000
0001
0000
1000
0000
0001
0100
0010
0000
,
1000
0000
0001
0000
0100
0000
0010
0000
1000
0000
0001
1000
0001
0000
0100
0000
,
0010
1000
0010
0000
0001
0000
1000
0001
1000
0000
0010
0000
1000
0100
1000
0000
,
0001
0000
0010
0000
1000
0000
0010
0000
0001
0000
1000
0010
0100
0000
0001
0000
,
1000
0001
0100
0000
0010
0000
0001
1000
0010
0000
0100
0000
0001
1000
0100
0000
,
0001
0000
0100
0000
0001
0000
1000
0000
0100
0000
0001
1000
0010
0000
0001
0000
,
1000
0001
0100
0000
0010
0000
0001
0000
0100
0000
0010
0001
1000
0000
0100
0000
,
0010
0000
0001
0000
1000
0000
0010
0000
0100
0000
1000
0010
1000
0000
0001
0000
,
1000
0001
0010
0000
0100
0000
1000
0000
0100
0000
0010
0000
0001
0000
1000
0001
,
1000
0000
0001
0000
1000
0100
0010
0001
2000
0000
0010
0000
0100
0000
0001
0000
,
0100
0010
0100
0001
0010
0100
0010
0001
,
3020
0230
2300
3002
2003
0000
0010
0000
,
0001
0010
0001
0010
,
3002
0203
0320
2030
3002
0000
1000
0000
,
0100
0000
1000
0000
0100
0000
0023
0230
,
2300
0000
3020
0230
0302
0000
0003
2000
,
0010
0100
3200
0320
,
0032
0203
1302
0000
,
0003
0000
0000
0000
;

//---------------dance-single - ----------------
#NOTES:
     dance-single:
     :
     Challenge:
     13:
     1.000,1.000,1.000,0.756,0.393,1111.000,310.000,155.000,0.000,53.000:
0000
0000
0000
0000
,
0000
0000
0000
0000
,
0000
0000
0000
0000
,
0000
0000
0000
0000
,
0000
0000
0000
0000
,
1001
0000
0100
0001
1000
0000
0110
0000
1000
0100
0010
0000
0101
0000
1000
0001
,
0100
0000
1010
0000
0100
0001
1000
0000
0011
0000
0001
0000
1001
0000
1000
0000
,
1010
0000
0001
1000
0001
0000
0110
0000
1000
0010
1000
0000
0101
0000
0010
0100
,
0010
0000
1001
0000
0010
0100
0001
0000
1100
0000
0100
0000
0110
0000
0010
0000
,
0011
0000
1000
0010
0100
0000
0101
0000
0010
0100
0001
0000
1001
0000
0100
0010
,
0001
0000
1010
0000
0001
1000
0001
0000
0110
0000
0100
0000
1100
0000
1000
0000
,
1001
0000
0010
0100
1000
0000
0011
0000
1000
0001
1000
0000
0110
0000
0001
1000
,
0001
0000
1100
0000
0001
0100
0010
0000
1001
0000
0001
0000
0101
0000
0100
0000
,
0110
0000
0001
1000
0001
0000
1100
0000
0010
1000
0010
0000
0101
0000
1000
0001
,
1000
0000
0110
0000
1000
0100
1000
0000
0011
0000
0010
0000
1100
0000
0010
0000
,
0101
0000
1000
0010
0100
0000
1001
0000
1000
0001
0100
0000
0110
0000
0001
1000
,
0010
0000
1100
0000
0001
1000
0100
0000
0011
0000
0010
0000
0110
0000
0100
0000
,
1100
0000
0001
1000
0010
0000
0101
0000
1000
0001
0100
0000
0110
0000
0001
0000
,
1100
0000
0010
0001
1000
0000
0100
0000
0011
0000
1000
0000
1100
0000
0010
0000
,
1001
0000
1000
0010
1000
0000
0101
0000
1000
0001
0010
0000
0110
0000
0100
0000
,
1100
0000
0110
0000
0011
0000
1000
0001
1000
0000
0101
0000
1000
0100
0010
0001
,
2000
0010
0100
0001
0100
0010
0100
0001
,
0010
0100
0010
0001
3020
0230
2300
3002
,
2003
0100
0010
0100
0001
0100
0010
0100
,
0001
0100
0010
0100
3002
0203
0320
2030
,
3012
0010
1000
0100
0100
0010
1000
0010
,
0100
1000
0023
0230
2300
0001
3020
0230
,
1302
1000
0113
2100
0010
0001
0100
0001
,
3200
0001
0320
1000
0032
0010
0203
1000
,
1302
0000
0023
0230
,
2320
0030
3002
0000
2003
0000
0000
0000
,
3202
0300
0023
0000
0230
0000
0000
0000
,
2000
0000
0000
0000
,
3321
0000
0230
2300
,
3202
0300
2003
0000
3020
0000
0000
0000
,
2032
3000
0203
0000
0320
0000
0000
0000
,
2000
0000
0000
0000
,
3131
1000
0110
0001
1100
0010
1001
0100
,
0110
0000
0001
0000
1000
0100
0010
0001
1000
0000
0010
0000
0110
0000
1000
0000
,
0011
0100
1001
0100
1010
0001
0110
1000
,
0101
0000
1000
0000
0010
0100
0001
1000
0001
0000
0010
0000
1100
0000
0001
0000
,
0110
1000
0011
0100
1001
0100
1010
0001
,
0110
1000
0101
0010
1001
0010
0101
0100
,
1020
0032
0123
2030
3201
0320
1032
0203
,
2310
3002
0123
0032
2103
3020
0132
0023
,
1031
1000
0100
0011
1000
0010
1001
0010
,
0101
0000
1000
0001
0100
0000
0001
0000
1001
0000
1000
0000
1010
0000
1000
0000
,
0100
0010
0001
1000
0001
0100
0010
1000
0100
0010
0001
0010
0100
1000
0010
1000
,
0001
0100
0010
1000
0100
0010
0001
1000
0010
0100
0001
1000
0010
1000
0100
0010
,
0001
0010
0100
1000
0001
0100
0010
1000
0100
0010
0001
0100
0010
1000
0001
0010
,
0100
1000
0001
1000
0010
0100
0001
0010
0100
1000
0010
0100
0001
1000
0100
0010
,
0002
0000
0000
0000
1000
0000
0000
0000
1000
0000
0013
0100
2000
0000
3002
0000
,
0203
0302
2003
3020
0131
0001
1010
0100
,
1001
0010
1100
0001
0110
0100
1001
0010
,
0101
1000
0110
0001
1010
0110
0101
1001
,
1100
0100
0011
0100
1010
0001
0110
1000
,
1001
0010
1100
1000
0011
0110
1100
1001
,
0101
0010
1100
0010
0101
0010
0110
1000
,
0011
0001
1100
0110
1001
0010
0101
0110
,
1100
0010
1002
0000
0100
0000
0010
0000
,
1000
0000
0100
0000
1000
0100
0010
0100
,
1003
0100
0010
0001
0110
1000
0101
0010
,
1001
0100
1010
0001
0110
1000
0010
0100
,
1001
0010
0100
0001
1100
1000
0110
0001
,
0011
0000
0100
0000
0001
0000
1000
0100
0010
0000
0100
0000
1001
0000
0010
0000
,
0101
1000
0001
1000
0110
0001
1100
0010
,
1001
0100
1000
0001
0110
1000
0011
0001
,
0220
0000
2330
3002
,
0203
0000
0000
0010
0000
0000
0301
0000
1000
0010
0100
0001
,
2001
0000
3200
0320
,
0032
2003
3020
0000
,
0230
0000
0302
0023
,
2030
0000
3001
0100
0001
1000
0010
0000
0001
1000
0100
0010
,
2001
0001
3102
0213
,
2310
0001
3201
2310
,
3012
2103
3210
0010
,
0312
0000
1000
0000
0203
0320
2030
3002
,
0123
1000
0132
1203
,
2301
3120
0231
0001
,
2310
0010
3120
2130
,
3021
0001
0132
0213
,
2310
0001
3120
2130
,
3012
0010
2103
3201
,
0310
1000
0100
0010
0001
1000
0001
0100
0010
1000
0100
0010
0001
0100
0010
1000
,
0001
0010
0100
1000
0100
0010
0001
1000
0010
1000
0001
0100
0010
1000
0100
0010
0001
0100
0001
0010
0100
1000
0010
0100
,
1001
0000
0001
0000
0110
0000
1100
0000
0001
0000
1000
0000
0101
0000
1000
0100
,
0001
0000
1000
0000
0110
0000
0001
0000
1100
0000
0010
0000
0101
0000
0010
0001
,
1000
0000
0001
0000
0110
0000
0001
0000
1010
0000
0010
0000
0101
0000
0010
0001
,
0100
0001
0110
1000
0011
0001
1010
0100
,
1001
0000
0010
0000
1000
0000
0101
0000
0010
0000
1000
0000
0011
0000
1000
0100
,
0001
0000
0100
0000
1010
0000
0001
0000
0110
0000
1000
0000
1001
0000
0010
0001
,
1000
0000
0010
0000
1100
0000
1000
0000
0011
0000
1000
0000
0101
0000
1000
0010
,
0001
1000
0110
0001
1100
0010
0101
0100
,
1010
0000
0001
0000
0010
0000
0101
0000
1000
0000
0001
0000
1100
0000
1000
0100
,
0001
0000
1000
0000
0110
0000
0001
0000
1100
0000
0010
0000
0101
0000
0010
0001
,
1000
0000
0001
0000
0110
0000
0001
0000
1010
0000
0010
0000
0101
0000
0010
0001
,
1000
0001
0110
1000
0011
0001
1010
0100
,
1001
0000
0010
0000
1000
0000
0101
0000
0010
0000
1000
0000
0011
0000
1000
0100
,
0001
0000
0100
0000
1010
0000
0001
0000
0110
0000
1000
0000
1001
0000
0010
0001
,
1000
0000
0010
0000
1100
0000
1000
0000
0011
0000
1000
0000
0101
0000
1000
0010
,
0001
1000
0110
0001
1100
0010
0101
0100
,
1010
0000
0001
0000
0010
0000
0011
0000
1000
0000
0100
0000
0101
0000
0001
0100
,
1000
0000
0010
0000
0110
0000
0001
0000
1100
0000
0010
0000
0101
0000
0010
0001
,
1000
0000
0001
0000
0110
0000
0001
0000
1010
0000
0010
0000
0101
0000
0010
1000
,
0100
0001
0110
1000
0011
0001
1010
0100
,
1001
0000
0010
0000
1000
0000
0101
0000
0010
0000
1000
0000
0011
0000
1000
0100
,
0001
0000
0100
0000
1010
0000
0001
0000
0110
0000
1000
0000
1001
0000
0010
0001
,
1000
0000
0010
0000
1100
0000
1000
0000
0011
0000
1000
0000
0101
0000
1000
0010
,
0001
1000
0110
0001
1100
0010
0101
0100
,
1010
0000
0001
0000
0010
0000
0101
0000
1000
0000
0001
0000
1100
0000
0010
0001
,
1000
0000
0001
0000
0110
0000
0001
0000
1100
0000
0010
0000
0101
0000
0010
0001
,
1000
0000
0001
0000
0110
0000
0001
0000
1010
0000
0010
0000
0101
0000
0010
0001
,
1000
0000
0000
0100
0000
0000
0010
0001
1000
0001
0100
0010
,
2000
3020
0230
0302
,
2003
0000
0000
3020
,
0032
2003
3200
0320
,
1032
0000
2003
0000
,
3200
0000
0300
0000
0020
0000
0230
0000
1301
0000
0100
0001
1000
0000
0110
0000
,
1000
0100
0010
0000
0101
0000
1000
0001
0100
0000
1010
0000
0100
0001
1000
0000
,
0101
0000
0001
0000
0011
0000
0010
0000
1010
0000
0001
1000
0001
0000
0110
0000
,
1000
0010
1000
0000
0101
0000
0010
0100
0010
0000
1001
0000
0010
0100
0001
0000
,
1100
0000
0100
0000
0110
0000
0010
0000
0011
0000
1000
0010
0100
0000
0101
0000
,
0010
0100
0001
0000
1001
0000
0100
0010
0001
0000
1010
0000
0001
1000
0001
0000
,
0110
0000
0100
0000
1100
0000
1000
0000
1001
0000
0010
0100
1000
0000
0011
0000
,
1000
0001
1000
0000
0110
0000
0001
1000
0001
0000
1100
0000
0001
0100
0010
0000
,
1001
0000
0001
0000
0101
0000
0100
0000
0110
0000
0001
1000
0001
0000
1100
0000
,
0010
1000
0010
0000
0101
0000
1000
0001
1000
0000
0110
0000
1000
0100
1000
0000
,
0011
0000
0010
0000
1100
0000
0010
0000
0101
0000
1000
0010
0100
0000
1001
0000
,
1000
0001
0100
0000
0110
0000
0001
1000
0010
0000
1100
0000
0001
1000
0100
0000
,
0011
0000
0010
0000
0110
0000
0100
0000
1100
0000
0001
1000
0010
0000
0101
0000
,
1000
0001
0100
0000
0110
0000
0001
0000
1100
0000
0010
0001
1000
0000
0100
0000
,
0011
0000
1000
0000
1100
0000
0010
0000
1001
0000
1000
0010
1000
0000
0101
0000
,
1000
0001
0010
0000
0110
0000
0100
0000
1100
0000
0110
0000
0011
0000
1000
0001
,
1000
0000
0101
0000
1000
0100
0010
0001
2000
0000
0010
0000
0100
0000
0001
0000
,
0100
0010
0100
0001
0010
0100
0010
0001
,
3020
0230
2300
3002
2003
0100
0010
0100
,
0001
0100
0010
0100
0001
0100
0010
0100
,
3002
0203
0320
2030
3012
0010
1000
0100
,
0100
0010
1000
0010
0100
1000
0023
0230
,
2300
0000
3020
0230
1302
1000
0113
2100
,
0010
0001
0100
0001
3200
0001
0320
1000
,
0032
0010
0203
1000
1302
0000
0000
0000
,
0003
0000
0000
0000
;
