#TITLE:Summer;
#SUBTITLE:;
#ARTIST:Smiley;
#TITLETRANSLIT:;
#SUBTITLETRANSLIT:;
#ARTISTTRANSLIT:;
#CREDIT:;
#BANNER:Summer-bn.bmp;
#BACKGROUND:Summer-bg.bmp;
#LYRICSPATH:;
#CDTITLE:chicky_cdtitle.PNG;
#MUSIC:Summer.mp3;
#OFFSET:0.000;
#SAMPLESTART:14.980;
#SAMPLELENGTH:11.820;
#SELECTABLE:YES;
#BPMS:0.000=160.000;
#STOPS:;
#BGCHANGES:;
// cache tags:
#FIRSTBEAT:0.000;
#LASTBEAT:281.000;
#SONGFILENAME:Songs/cedric step/Summer/06 Summer.sm;
#HASMUSIC:1;
#HASBANNER:1;
#MUSICLENGTH:107.168;
// end cache tags

//---------------dance-single - Copied from----------------
#NOTES:
     dance-single:
     Copied from:
     Hard:
     8:
     0.675,0.656,0.243,0.308,0.527,445.000,26.000,33.000,0.000,1.000:
1000
0000
0100
0000
1000
0000
0100
0000
1000
0000
0000
1000
0100
0000
0000
0000
,
0100
0000
0010
0000
0100
0000
0010
0000
0100
0000
0000
0100
0001
0000
0000
0000
,
0001
0000
0010
0000
0001
0000
0010
0000
0001
0000
0000
0001
0010
0000
0000
0000
,
0010
0000
1000
0000
0010
0000
1000
0000
0010
0000
0000
0010
1000
0000
0000
0000
,
1000
0000
0100
0000
0010
0000
0001
0000
0100
0000
0000
0100
0001
0000
0000
0000
,
0001
0000
0010
0000
0100
0000
1000
0000
0010
0000
0000
0100
1000
0000
0000
0000
,
0010
0000
0100
0000
0010
0000
1000
0000
0001
0000
0000
1000
0001
0000
0000
0000
,
0001
0000
1000
0000
0001
0000
0000
0010
0100
0000
0000
0010
0100
0000
0000
0000
,
0100
0000
1000
0000
0010
0000
0100
0000
0110
0000
0000
0100
0010
0000
0000
0000
,
0010
0000
0100
0000
0001
0000
0010
0000
0011
0000
0000
0010
0001
0000
0000
0000
,
0001
0000
0010
0000
1000
0000
0100
0000
1100
0000
0000
1000
0100
0000
0000
0000
,
0010
0000
0100
0000
0001
0000
1000
0000
1001
0000
0000
1000
0001
0000
0000
0000
,
0100
0000
1000
0000
0010
0000
0001
0000
0011
0000
0000
0010
1000
0000
0000
0000
,
1000
0000
0100
0000
0001
0000
0010
0000
1100
0000
0000
0100
1000
0000
0000
0000
,
0001
0000
1000
0000
0010
0000
0001
0000
0011
0000
0000
0100
0010
0000
0000
0000
,
0100
0000
1000
0000
0010
0000
0100
0000
0110
0000
0000
0100
0010
0000
0000
0000
,
1000
0000
0000
1000
0000
0000
2000
0000
0000
0000
0000
0000
3100
0000
0100
0000
,
0001
0000
0000
0001
0000
0000
0002
0000
0000
0000
0000
0000
1003
0000
1000
0000
,
0100
0000
0000
0100
0000
0000
0200
0000
0000
0000
0000
0000
0300
0000
0100
0000
,
0010
0100
0001
0010
0110
0000
0000
0000
,
0001
0000
0000
0001
0010
0000
0000
0010
0100
0000
0000
0100
1000
0000
0000
1000
,
0100
0000
0000
0100
0010
0000
0000
0010
0001
0000
0000
0001
0010
0000
0000
0010
,
0100
0000
0000
0100
1000
0000
0000
1000
0010
0000
0000
0010
0001
0000
0000
0001
,
0100
0000
0000
0100
1000
0000
0000
1000
0010
0000
0000
0010
0100
0000
0000
0100
,
0001
0000
0000
0001
1000
0000
0000
1000
0010
0000
0000
0010
0100
0000
0000
0100
,
1000
0000
0000
1000
0100
0000
0000
0100
0001
0000
0000
0001
0010
0000
0000
0010
,
0001
0000
0000
0001
0100
0000
0000
0100
1000
0000
0000
1000
0010
0000
0000
0010
,
0100
0000
0000
0100
0001
0000
0000
0001
0010
0000
0000
0000
0000
0000
0000
0000
,
1001
1000
0010
0100
0001
0010
1010
0000
,
1000
0000
0100
0000
1000
0000
0001
0000
0010
0000
0000
0010
1000
0000
0000
0000
,
0100
0000
0010
0000
0100
0000
0001
0000
1000
0000
0000
1000
0100
0000
0000
0000
,
1000
0000
0100
0000
1000
0000
0100
0000
0010
0000
0000
1000
0010
0000
0000
0000
,
0001
0000
0010
0000
0001
0000
1000
0000
0010
0000
0000
0001
0010
0000
0000
0000
,
0010
0000
0100
0000
0001
0000
0010
0000
1000
0000
0000
0010
0100
0000
0000
0000
,
0100
0000
0010
0000
0001
0000
1000
0000
0010
0000
0000
0100
1000
0000
0000
0000
,
1000
0000
0010
0000
0100
0000
0001
0000
0010
0000
0000
0001
0010
0000
0000
0000
,
0100
0000
0010
0000
0100
0000
1000
0000
0010
0100
0000
0100
0010
0000
0000
0000
,
2000
0000
3200
0000
0302
0000
1003
1000
,
0000
0000
0000
0001
0000
0000
0000
0001
0000
0010
0000
0000
0110
0000
0000
0000
,
0020
0000
0230
0000
0320
0000
0031
0001
,
0000
0001
0100
0010
1000
1000
0000
0000
,
2000
0000
3020
0000
0230
0000
0301
0001
,
0000
0000
0000
1000
0000
0000
0000
1000
0000
0100
0000
0000
0110
0000
0000
0000
,
0200
0000
0302
0000
2003
0000
3001
0001
,
0000
0001
0010
0100
2002
0000
0000
3003
,
0100
0000
0000
0100
0000
0000
0200
0000
0000
0000
0000
0000
0310
0000
0010
0000
,
1001
1001
1001
0110
,
0010
0000
0000
0010
0000
0000
0010
0000
0000
0000
1000
0000
0000
0000
1000
0000
,
0010
0000
0000
0000
0000
0100
0000
0000
0100
0000
0000
0100
0010
0100
0010
0000
,
0000
1000
0000
0000
1000
0000
0000
2000
0000
0000
0000
0000
3001
0000
0001
0000
,
0000
0010
0000
0000
0010
0000
0000
0020
0000
0000
0000
0030
0100
0000
0100
0000
,
0000
0001
0000
0000
0001
0000
0000
0001
0000
0000
0000
0000
0000
0000
0001
0000
,
0010
0100
1000
0100
0110
0000
0000
0000
,
1000
0000
0000
1000
0100
0000
0000
0100
0010
0000
0000
0010
0001
0000
0000
0001
,
0010
0000
0000
0010
0100
0000
0000
0100
1000
0000
0000
1000
0100
0000
0000
0100
,
0001
0000
0000
0001
0010
0000
0000
0010
0001
0000
0000
0001
1000
0000
0000
1000
,
0100
0000
0000
0100
0010
0000
0000
0010
0001
0000
0000
0001
0010
0000
0000
0010
,
0100
0000
0000
0100
1000
0000
0000
1000
0010
0000
0000
0010
0100
0000
0000
0100
,
0001
0000
0000
0001
1000
0000
0000
1000
0010
0000
0000
0010
0100
0000
0000
0100
,
0001
0000
0000
0001
0010
0000
0000
0010
0001
0000
0000
0001
0000
0000
0000
0000
,
0001
0010
0100
1111
,
0000
1000
0100
1000
0100
1000
0000
0000
0100
0001
0100
0001
0100
0001
0000
0000
,
2000
0000
3020
0000
0100
0000
1030
1000
,
0000
1001
0000
1000
0010
0000
0011
0000
,
0002
0000
0203
0000
2300
0000
3010
0010
,
0000
0100
0100
0100
1100
0000
0000
0000
,
2000
0000
3020
0000
0032
0000
1003
1000
,
0000
1001
0000
0010
0010
0000
1001
0000
,
2000
0000
3002
0000
2003
0000
3001
0001
,
0000
0000
0010
0000
0100
0000
0010
0000
0000
1000
0100
1000
0100
1000
0100
1000
,
2200
3300
0000
0000
;

//---------------dance-single - ----------------
#NOTES:
     dance-single:
     :
     Medium:
     5:
     0.547,0.588,0.849,0.168,0.000,301.000,91.000,18.000,0.000,0.000:
0010
1000
0001
1010
,
0100
0001
1000
0011
,
1000
0001
0100
1001
,
0100
0001
0100
1100
,
1000
0010
1000
1010
,
0100
0001
0100
0101
,
0010
0100
0010
0110
,
1000
0001
1001
1001
,
2001
0010
3001
0110
,
0012
0100
0013
1100
,
0012
1000
0103
0110
,
2100
0010
3001
1100
,
0012
1000
0013
1100
,
0021
1000
0031
1001
,
1200
0001
1300
0011
,
0210
0010
0310
0110
,
1000
0000
1000
0000
1000
0000
0100
0100
,
0010
0000
0010
0000
0010
0000
0001
0001
,
1000
0000
1000
0000
1000
0000
0000
0100
,
0010
1000
0010
0001
1100
0000
0000
0000
,
1100
0100
0100
0100
,
0110
0010
0010
0010
,
0011
0001
0001
0001
,
1001
1000
1000
1010
,
0010
0010
0010
0110
,
0100
0100
0100
0101
,
0001
0001
0001
1001
,
1000
1000
1000
1001
,
0100
0001
0100
1000
0100
0101
0101
0000
,
0102
0100
0103
1100
,
0021
0001
0031
1010
,
1200
1000
1300
0110
,
0210
0010
0310
1001
,
0102
0100
0103
1010
,
0021
0001
0031
1100
,
0120
0100
0130
1001
,
1020
1030
1001
1001
,
1001
0000
1000
0000
0010
0000
0100
1000
,
0000
1000
0000
0010
0100
0000
1100
0000
,
0100
0000
0001
0000
0100
0000
1000
0001
,
0000
1000
1000
1000
2000
0000
3000
0000
,
0010
0000
0110
0000
0001
0000
0010
0100
,
0000
0101
0000
0010
1000
0000
1001
0000
,
0001
0000
1001
0000
0100
0000
0100
1000
,
0000
0001
0001
0001
0002
0000
0003
0000
,
1000
0000
1000
0000
1000
0000
0010
0010
,
1010
0011
1010
0011
,
0010
0000
0010
0000
0010
0000
0000
1000
,
1000
0010
0100
0000
,
0101
0000
0101
0000
0101
0000
1000
1000
,
1000
0000
0010
0000
0100
0000
0010
0010
,
0110
0000
1100
0000
1010
0000
0000
0001
,
1000
0001
1000
0001
1001
0000
0000
0000
,
0011
0010
0010
0010
,
0110
0100
0100
0100
,
1100
1000
1000
1000
,
1001
0001
0001
0101
,
0100
0100
0100
0110
,
0010
0010
0010
1010
,
1000
1000
1000
1001
,
0001
0001
0001
1001
,
1000
0001
0010
0100
1000
0001
0100
0000
,
0010
0000
0100
0000
0001
0000
0001
1000
,
0000
1001
0000
1000
0010
0000
1001
0000
,
0110
0000
0110
0000
0110
0000
0100
0001
,
0000
0001
1000
0001
1001
0000
0000
0000
,
1000
0000
0100
0000
0001
0000
1000
0010
,
0000
0001
0000
0100
0001
0000
1001
0000
,
0010
0000
0100
0000
0010
0000
1000
0001
,
0000
1000
1100
0000
0110
0000
0110
0000
,
0110
0000
0000
0000
;

//---------------dance-single - ----------------
#NOTES:
     dance-single:
     :
     Easy:
     4:
     0.400,0.490,0.551,0.187,0.000,221.000,59.000,20.000,0.000,0.000:
1000
0010
1000
0000
,
0010
0100
0010
0000
,
1000
0001
1000
0000
,
0100
0001
0100
0000
,
0100
1000
0010
0000
,
0010
0001
0100
0000
,
0001
0100
0010
0000
,
1000
0010
0100
0000
,
0110
0110
0110
0000
,
1001
1001
1001
0000
,
0100
0100
0100
0000
,
0010
0010
0010
0000
,
0001
0001
0001
0000
,
1000
1000
1000
0000
,
0010
0010
0010
0000
,
1000
1000
1000
0000
,
1010
1010
1010
0000
,
0011
0011
0011
0000
,
0110
0110
0110
0000
,
0200
0000
0300
0000
,
0010
0010
0010
0010
,
0010
0010
0010
0010
,
0010
0010
0010
0010
,
0100
0100
0100
0100
,
0100
0100
0100
0100
,
0100
0100
0100
0100
,
0010
0010
0010
0010
,
0010
0010
0000
0000
,
2002
0000
0000
0000
0000
0000
0000
0000
0000
0000
0000
0000
0000
3003
0000
0000
,
0010
0001
0010
0000
,
0100
1000
0100
0000
,
0010
1000
0010
0000
,
0100
0001
0100
0000
,
0100
0010
0100
0000
,
0001
1000
0001
0000
,
0010
0100
0010
0000
,
1000
0001
1000
0000
,
0120
0100
0130
1000
,
0010
0100
1001
1001
,
0201
0001
0301
0020
,
1030
0200
0300
0000
,
1200
1000
1300
0010
,
0100
0110
0110
1100
,
1002
1000
1003
0200
,
0301
0020
0030
0000
,
0011
0011
0011
0000
,
1010
1010
1010
0000
,
1100
1100
1100
0000
,
1200
1000
1300
0000
,
0101
0101
0101
0000
,
1100
1100
1100
0000
,
0110
0110
0110
0000
,
0200
0000
0300
0000
,
0001
0001
0001
0001
,
0001
0001
0001
0001
,
0001
0001
0001
0001
,
1000
1000
1000
1000
,
1000
1000
1000
1000
,
1000
1000
1000
1000
,
0001
0001
0001
0001
,
0011
0110
1100
1001
,
0220
0000
0000
0000
0000
0000
0000
0000
0000
0000
0000
0000
0000
0330
0000
0000
,
1000
0010
0001
0000
,
0002
0103
0101
0101
,
0001
0010
1000
0200
,
0310
0110
0110
0000
,
1000
0100
0001
0000
,
0020
0031
0011
0011
,
0000
0220
0000
0000
,
0000
0330
1001
1001
,
1001
0000
0000
0000
;

//---------------dance-single - ----------------
#NOTES:
     dance-single:
     :
     Beginner:
     1:
     0.236,0.426,0.168,0.093,0.000,149.000,18.000,10.000,0.000,0.000:
0000
0000
0000
1000
,
0000
0000
0000
0001
,
0000
0000
0000
0100
,
0000
0000
0000
1000
,
0000
0000
0000
0010
,
0000
0000
0000
0001
,
0000
0000
0000
0100
,
0000
0000
1001
1001
,
0000
0000
0000
0010
,
0000
0000
0000
0100
,
0000
0000
0000
1000
,
0000
0000
0000
0100
,
0000
0000
0000
0001
,
0000
0000
0000
0010
,
0000
0000
0000
0100
,
0000
0000
0000
1000
,
1000
1000
1000
0000
,
0010
0010
0010
0000
,
0100
0100
0100
0000
,
0002
0000
0003
0000
,
1000
0000
0010
0010
,
0010
0000
0100
0100
,
0100
0000
0010
0010
,
0000
1000
1000
1000
,
1000
0000
0010
0010
,
0010
0000
0100
0100
,
0100
0000
1000
0000
,
0001
0000
1001
0000
,
0020
0000
0000
0030
,
0000
0000
0000
1000
,
0000
0000
0000
0100
,
0000
0000
0000
0001
,
0000
0000
0000
0010
,
0000
0000
0000
0100
,
0000
0000
0000
0010
,
0000
0000
0000
1000
,
0000
0000
0010
0010
,
0010
0010
0010
0000
,
1000
0000
1001
1001
,
0000
0001
0001
0000
,
0000
0200
0000
0300
,
0100
0100
0100
0000
,
1000
0000
0001
0001
,
0000
0100
0100
0000
,
0010
0020
0000
0030
,
0010
0010
0010
0000
,
1001
1001
1001
0000
,
0100
0100
0100
0000
,
0001
0001
0001
0000
,
1000
1000
1000
0000
,
0010
0010
0010
0000
,
0001
0001
0001
0000
,
0220
0000
0330
0000
,
0010
0000
0100
0100
,
0100
0000
0001
0001
,
0001
0000
0100
0100
,
0000
0010
0010
0010
,
0010
0000
0100
0100
,
0100
0000
0001
0001
,
0001
0000
1000
0000
,
0110
0110
0110
0110
,
0220
0000
0330
0000
,
1000
1000
1000
0000
,
0100
0100
0100
0100
,
0100
0000
1000
1000
,
1000
0000
1001
0000
,
0001
0001
0001
0000
,
1000
0000
0010
0010
,
0010
0000
1000
0000
,
0100
0000
0110
0110
,
0220
0330
0000
0000
;
