#TITLE:A Day at the Farm;
#SUBTITLE:;
#ARTIST:Prizm;
#TITLETRANSLIT:;
#SUBTITLETRANSLIT:;
#ARTISTTRANSLIT:;
#CREDIT:;
#BANNER:A Day at the Farm.png;
#BACKGROUND:A Day at the Farm-bg.png;
#LYRICSPATH:A Day at the Farm.lrc;
#CDTITLE:PrizmCD.png;
#MUSIC:A Day at the Farm.mp3;
#OFFSET:-7.123;
#SAMPLESTART:77.240;
#SAMPLELENGTH:30.000;
#SELECTABLE:YES;
#BPMS:0.000=103.960;
#STOPS:;
#BGCHANGES:;
// cache tags:
#FIRSTBEAT:0.000;
#LASTBEAT:109.000;
#SONGFILENAME:Songs/mongol/A Day at the Farm/A Day at the Farm.sm;
#HASMUSIC:1;
#HASBANNER:1;
#MUSICLENGTH:114.032;
// end cache tags

//---------------dance-single - BEGINNER----------------
#NOTES:
     dance-single:
     BEGINNER:
     Beginner:
     2:
     0.099,0.096,0.026,0.105,0.000,64.000,3.000,12.000,0.000,0.000:
2000
0000
3000
0000
,
0002
0000
0003
0000
,
1000
1000
1000
0000
,
0010
0000
0100
0000
,
0001
0100
0001
0000
,
1000
0000
0100
0000
,
0010
0010
2000
0000
,
3000
0000
0002
0000
,
0003
0000
0110
0000
,
0010
0010
0100
0100
,
0020
0000
0030
0000
,
1000
0100
1000
0000
,
0010
0001
0010
0000
,
0001
0000
0100
0000
,
1000
1000
0010
0000
,
1000
0001
0002
0000
,
0003
0000
1000
1000
,
0001
0001
2000
0000
,
3000
0010
0100
0000
,
1000
0000
0001
0001
,
0200
0300
0001
1000
,
0001
1000
0001
0000
,
0100
0010
0100
0000
,
0020
0030
1000
0002
,
0003
0000
0000
1000
,
1000
0000
0110
0000
,
0010
0100
2002
0000
,
0000
3003
0000
0000
;

//---------------dance-single - MANIAC----------------
#NOTES:
     dance-single:
     MANIAC:
     Hard:
     8:
     0.273,0.284,0.088,0.175,0.118,188.000,10.000,20.000,0.000,0.000:
1000
0100
0010
0001
1000
0100
1000
0010
,
1000
0100
0001
0100
1000
0010
0100
0001
,
0010
0001
0100
0001
0010
0001
0100
1000
,
0100
0000
0001
0100
0001
0000
0010
0000
0001
0000
1000
0010
1000
0000
0100
0000
,
0001
0000
0100
0000
1000
0000
0010
0000
0100
0000
0010
1000
0010
0000
0001
0000
,
0010
0000
1000
0100
0001
0000
0100
0000
1000
0000
1000
0010
0000
0010
1000
0000
,
1000
0100
0000
0100
0001
0000
0001
0000
0200
0000
0000
0000
2300
0000
0000
0000
,
3002
0000
0000
0000
0003
0000
0000
0000
1000
0001
1000
0000
0000
0000
0000
0000
,
1000
0010
0001
0010
1000
0100
0020
0000
0200
0000
0330
0000
0000
0000
0000
0000
,
1100
0101
0011
1010
1100
0000
0110
0000
,
2002
0000
3003
0000
0010
2000
0002
3000
,
0003
0000
0010
0001
0100
0001
0010
0001
,
1000
0010
1000
0001
1000
0100
1000
0000
2200
0000
0000
0000
3300
0000
0000
0000
,
2000
0000
0000
0000
3000
0000
0001
1000
0001
0000
0000
0000
0000
0000
0000
0000
,
1000
1000
0001
0001
0200
0000
0300
0000
,
0011
0000
0000
0000
0001
0010
0001
0010
0001
0010
0001
0010
0001
0000
0000
1000
,
0100
1000
0100
1000
0000
0000
0000
0000
0001
0000
0000
0000
0010
0000
1000
0000
,
0100
0000
0001
0010
0002
0000
0103
0000
,
0001
0100
0001
1000
0001
0100
0101
0000
,
1000
0000
1000
0000
0001
1000
0001
0000
1000
0000
1000
0000
0002
0000
0000
0000
,
0000
0003
1000
1000
0001
0000
0100
1000
,
0020
0030
1000
0100
0002
0003
0000
1000
,
0100
0001
0010
0001
0100
1000
0001
0100
,
1000
0010
1000
0100
0001
1000
0002
0000
,
0003
0000
0000
0000
1000
0000
0100
0000
0001
0000
0000
0100
1000
0000
0010
0000
,
1000
0100
0001
0010
1000
0100
0001
0100
,
0200
0000
0300
0000
1000
0010
1000
0010
0200
0000
0000
0000
0000
0000
0000
0000
,
0300
0000
0000
0000
;

//---------------dance-single - BASIC----------------
#NOTES:
     dance-single:
     BASIC:
     Easy:
     3:
     0.142,0.143,0.053,0.158,0.000,89.000,6.000,18.000,0.000,0.000:
0020
0000
0030
0000
,
1000
0100
0100
1000
,
0010
0010
1000
0100
,
0010
0001
0100
0100
,
2000
3000
0001
0000
,
2000
3000
0100
0001
,
0100
1000
2000
0001
,
3001
1001
0002
1000
,
1003
1001
0110
0000
,
0010
0010
0100
0100
,
0020
0100
0130
0000
,
0001
0010
0001
0100
,
0010
0001
0020
0030
,
0001
0000
0100
0000
,
1000
1000
0010
1000
,
0100
0001
0002
0003
,
0100
1000
1000
1000
,
0001
1001
2000
0100
,
3100
0010
0200
0300
,
0001
0000
0001
0001
,
0220
0330
0001
0100
,
1000
0010
0002
0003
,
1000
0100
0001
0010
,
2000
3000
0001
2000
,
3001
0000
1000
0000
1000
0000
0001
0100
,
0001
0000
0200
0000
,
0010
0310
2002
0000
,
0000
3003
0000
0000
;

//---------------dance-single - ANOTHER----------------
#NOTES:
     dance-single:
     ANOTHER:
     Medium:
     5:
     0.180,0.155,0.053,0.140,0.000,122.000,6.000,16.000,0.000,0.000:
0001
0100
0001
0100
,
0010
0000
1000
0000
0010
0000
1000
0100
,
1000
0000
0001
0000
1000
0000
0100
0010
,
0200
0300
1000
1000
,
0001
1000
0100
0000
0001
0000
1000
0000
,
0010
1000
0100
0000
2001
0000
0001
0000
,
0100
0000
3010
0000
1000
0100
0001
0000
,
0001
0100
1000
0000
0002
0000
1003
0000
,
1000
0010
0100
0000
0110
0000
0000
0000
,
0010
1000
0010
1000
0100
1000
0100
0000
,
2000
0000
3100
1000
,
0001
0010
0001
0000
0100
0000
0010
0000
,
0100
0100
0100
0000
0020
0000
0030
0000
,
1001
0000
0100
0001
,
1000
0001
1000
0001
2000
0000
0000
0000
,
3100
0000
0001
0001
0002
0000
0003
0000
,
1000
0000
0100
0000
0100
0000
1000
0001
,
0100
0000
0010
1000
0200
0000
1000
0000
,
1300
0010
0002
0003
,
0010
1000
0100
0001
,
0202
0000
0303
0000
0001
0000
0001
0100
,
1000
0000
0001
0010
2000
0000
3000
0000
,
0010
0000
0100
0001
0100
0000
0010
0000
,
0001
0010
0001
0000
0001
0000
2000
3000
,
1001
0000
1000
0001
1000
0000
0001
0100
,
0001
0010
0001
0100
0002
0000
0000
0000
,
0100
0100
0103
0000
2002
0000
0000
0000
,
0000
3003
0000
0000
;
