#TITLE:Genocide;
#SUBTITLE:;
#ARTIST:Dj Killer;
#TITLETRANSLIT:;
#SUBTITLETRANSLIT:;
#ARTISTTRANSLIT:;
#CREDIT:;
#BANNER:Genocide-bn.png;
#BACKGROUND:Genocide-bg.png;
#LYRICSPATH:;
#CDTITLE:!reachTitle.png;
#MUSIC:Beatmania IIDX RED 11th Style - [Drum & Bass] DJ Killer - GENOCIDE.mp3;
#OFFSET:-0.300;
#SAMPLESTART:71.005;
#SAMPLELENGTH:12.000;
#SELECTABLE:YES;
#BPMS:0.000=175.000;
#STOPS:;
#BGCHANGES:;
// cache tags:
#FIRSTBEAT:0.000;
#LASTBEAT:278.000;
#SONGFILENAME:Songs/Community Keyboard Megapack - Volume 1/(Reach) Genocide/Genocide.sm;
#HASMUSIC:1;
#HASBANNER:1;
#MUSICLENGTH:98.096;
// end cache tags

//---------------dance-single - ----------------
#NOTES:
     dance-single:
     :
     Challenge:
     14:
     1.000,1.000,1.000,0.102,1.000,953.000,178.000,10.000,0.000,0.000:  // measure 1
1100
0001
0010
0100
1001
0010
0100
0001
0010
0100
0001
0010
0100
1000
0100
0010
,  // measure 2
0001
0010
0100
1000
0100
0010
1000
0010
0001
1000
0100
0010
0001
0010
0100
1000
,  // measure 3
0001
0010
0100
0001
1000
0100
0010
1000
0010
0001
1000
0100
0010
0001
0010
0100
,  // measure 4
1000
0010
0100
0001
1000
0100
0010
1000
0010
0001
1000
0100
0010
0001
0010
0100
,  // measure 5
1001
0010
0100
0001
1100
0010
0001
1000
0100
0001
1000
0100
0010
0001
0010
0100
,  // measure 6
1000
0010
0100
0001
1000
0010
0001
1000
0100
0001
1000
0100
0010
0001
0010
0100
,  // measure 7
1000
0100
0010
1000
0001
0010
0100
0001
0100
1000
0001
0010
1000
0100
0010
0001
,  // measure 8
2000
0010
0010
0000
0000
0000
0000
0000
0000
0000
0000
0000
0000
0000
0000
0000
,  // measure 9
3001
0000
1001
0000
0100
0000
1000
0000
0011
1100
0011
0000
1000
0000
0010
0000
,  // measure 10
1001
0000
1001
0000
0100
0000
1001
0000
0010
0100
1000
0000
0010
0000
0100
0000
,  // measure 11
1001
0000
1001
0000
0100
0000
0010
0000
1001
0110
1001
0000
0100
0000
0010
0000
,  // measure 12
1100
0000
1100
0000
0010
0000
1001
0000
0100
0010
0001
0000
0100
0000
0010
0000
,  // measure 13
1100
0000
1100
0000
0001
0000
0010
0000
1010
0101
1010
0000
0100
0000
0001
0000
,  // measure 14
1010
0000
1010
0000
0001
0000
1001
0000
0100
0001
0100
0000
0010
0000
1000
0000
,  // measure 15
0011
0000
0011
0000
1000
0000
0001
0000
0110
1001
0110
0000
1000
0000
0010
0000
,  // measure 16
1100
0010
0100
0001
1100
0010
0100
0001
1100
0010
1100
0010
0101
0010
0101
0010
,  // measure 17
1001
0000
0100
0000
1000
0010
1000
0001
1100
0011
1100
0000
0010
0000
0001
0000
,  // measure 18
1000
0010
0100
0001
0010
0001
1000
0010
1000
0010
0001
1000
0100
1000
0010
0100
,  // measure 19
1001
0000
0110
0000
1000
0010
0100
0001
1100
0011
1100
0000
0010
0000
0001
0000
,  // measure 20
1000
0010
0100
0001
1000
0100
1000
0001
0010
0001
1000
0010
0100
0001
1000
0100
,  // measure 21
1001
0000
1100
0000
0001
0100
0001
0010
1001
0110
1001
0000
0010
0000
0100
0000
,  // measure 22
0001
0100
0010
1000
0001
0010
1000
0010
0001
0010
0001
1000
0001
0010
1000
0010
,  // measure 23
1001
0000
0110
0000
1000
0010
0100
0001
1010
0101
1010
0000
0100
0000
0011
0000
,  // measure 24
1100
0000
0000
0000
1100
0000
0000
0000
1001
0000
0110
0000
0000
0000
0000
0000
0001
0000
0010
0000
0100
0000
1000
0000
0001
0010
0100
1000
0001
0010
0100
1000
,  // measure 25
0011
0100
0010
1000
0010
0100
0001
1000
0011
1000
0010
0100
0001
1000
0010
0100
,  // measure 26
1001
0100
0010
0001
1000
0010
0100
0001
1100
0001
0100
0010
1000
0001
0010
0100
,  // measure 27
1001
0010
0100
0010
1000
0010
0100
0010
1001
0100
0010
0100
0001
0100
0010
0100
,  // measure 28
1001
0010
0100
1000
0100
0010
0001
0010
1001
0100
0010
0001
0010
0100
1000
0100
,  // measure 29
1001
0010
0100
0010
1001
0100
0010
0100
1001
0010
0001
0010
1001
0100
1000
0100
,  // measure 30
1001
0100
0010
0001
1100
0001
0010
0100
0011
1000
0100
0010
1100
0001
0010
0100
,  // measure 31
1001
0100
0010
0100
1001
0010
0100
0010
1001
0010
0001
0010
1001
0100
0010
0100
,  // measure 32
1001
0010
0100
1000
0011
1000
0100
0010
1100
0001
0010
0100
0011
1000
0100
0010
,  // measure 33
1001
0010
1000
0010
0001
0100
1000
0100
0011
0100
1001
0100
0001
0010
1000
0010
,  // measure 34
1001
0010
1000
0010
0001
0100
1000
0100
0001
0010
1000
0010
0001
0100
1000
0100
,  // measure 35
1001
0010
0001
0010
1000
0001
1000
0010
1100
0010
1100
0001
1000
0010
0100
0010
,  // measure 36
1001
0100
0010
0100
0001
0100
0010
0100
1001
0010
0100
0010
1000
0010
0100
0010
,  // measure 37
1001
0010
0100
1000
0001
0010
0100
0001
1010
0100
0011
1000
0010
0100
0001
0010
,  // measure 38
1100
0010
0001
0010
1100
0001
0010
0001
1010
0100
0001
0100
1010
0100
0001
0100
,  // measure 39
1001
0010
0100
1000
0011
0100
0010
0001
1100
0010
0100
1000
0011
0100
0010
0100
,  // measure 40
1001
0000
1000
0000
0010
0100
1000
0100
0010
0001
1100
0010
1100
0010
0101
0010
,  // measure 41
1001
0000
0000
0000
1000
0000
0000
0000
0001
0010
0001
0000
1000
0000
0000
0000
,  // measure 42
0020
0230
0300
0000
0002
2003
3000
0000
,  // measure 43
0110
0000
0000
0000
1001
0000
0000
0000
0001
0010
0001
0000
1000
0000
0000
0000
,  // measure 44
0020
0230
0300
0000
0002
2003
3000
0000
,  // measure 45
0101
0010
0101
0000
1100
0010
0100
0001
1100
0010
1100
0000
1001
0000
0110
0000
,  // measure 46
1010
0100
1010
0000
0011
0100
0010
1000
0011
0100
0011
0000
1001
0000
0110
0000
,  // measure 47
1100
0010
1100
0000
0101
0010
1000
0010
1100
0001
1100
0000
0011
0000
1100
0000
,  // measure 48
0011
0100
0011
0000
1001
0100
0010
0100
1001
0010
1001
0000
1100
0000
0101
0000
,  // measure 49
1010
0100
1010
0000
0110
0001
0100
0010
1100
0010
0101
0000
1010
0000
0110
0000
,  // measure 50
1001
0010
1001
0000
0110
1000
0010
0100
0011
0100
0011
0000
0100
0000
1010
0000
,  // measure 51
1001
0010
1001
0000
1100
0010
1100
0000
0011
0100
0011
0000
1100
0010
1100
0000
,  // measure 52
0001
0000
0000
0000
0001
0000
0000
0000
0001
0000
0000
0000
0001
0000
0000
0000
0001
0010
0100
1000
0001
0010
0100
1000
0001
0010
0100
1000
0001
0010
0100
1000
,  // measure 53
0001
0010
0100
1000
0001
0010
0100
1000
0011
0100
0011
1000
0100
0010
0001
1000
,  // measure 54
0010
0100
1000
0100
0010
0001
0010
0100
1000
0001
0010
1000
0010
0001
0100
1000
,  // measure 55
0100
0010
0100
1000
0100
0010
0001
0010
1100
0010
1100
0010
0100
1000
0010
0100
,  // measure 56
1000
0100
0010
0001
0010
0100
0010
0001
0100
0010
0100
0001
0010
0100
1000
0001
,  // measure 57
1100
0010
0001
0010
0100
1000
0010
0100
0011
0100
0011
1000
0100
0010
0001
1000
,  // measure 58
0001
0010
0100
0010
0001
1000
0100
0010
0001
0010
0001
0010
0100
1000
0100
0010
,  // measure 59
0001
0010
0100
0010
0001
1000
0100
0010
1001
0100
1001
0010
0001
0010
0100
1000
,  // measure 60
0001
0010
0100
1000
0001
0100
0010
1000
0001
0010
0100
1000
0100
0010
0001
1000
,  // measure 61
0001
0010
0001
0100
0001
1000
0001
0100
0011
1000
0011
0100
0010
1000
0100
1000
,  // measure 62
0001
1000
0010
1000
0001
1000
0010
0100
0010
1000
0010
0100
0001
0010
0001
1000
,  // measure 63
0001
0010
0001
1000
0001
0100
0001
0010
1100
0010
1100
0001
0100
0010
1000
0010
,  // measure 64
0100
0010
1000
0010
1000
0001
0100
0001
1000
0100
0010
0001
1000
0010
0100
0001
,  // measure 65
1100
0010
1000
0100
1000
0001
1000
0010
1100
0001
1100
0010
1000
0010
1000
0001
,  // measure 66
0100
0001
0010
0001
1000
0001
0010
0001
1000
0100
0010
0001
0010
0100
1000
0010
,  // measure 67
1000
0100
0010
0001
0010
0100
1000
0001
0010
0100
1000
0001
0100
0010
1000
0100
,  // measure 68
0001
0010
0100
1000
0001
0010
0100
1000
0001
0010
0100
1000
0001
0010
0100
1000
0001
0010
0100
1000
0001
0010
0100
1000
0001
0010
0100
1000
0001
0010
0100
1000
,  // measure 69
0002
0000
0000
0000
,  // measure 70
0000
0000
0003
0000
;
