#TITLE:Kuusou Mesorogii;
#SUBTITLE:;
#ARTIST:Yousei Teikoku;
#TITLETRANSLIT:;
#SUBTITLETRANSLIT:;
#ARTISTTRANSLIT:;
#CREDIT:;
#BANNER:bn.jpg;
#BACKGROUND:bg.jpg;
#LYRICSPATH:;
#CDTITLE:bombastik.png;
#MUSIC:Kuusou Mesorogii.mp3;
#OFFSET:-0.520;
#SAMPLESTART:30.781;
#SAMPLELENGTH:12.000;
#SELECTABLE:YES;
#BPMS:0.000=115.000,16.000=230.000,244.000=460.000,247.000=230.000;
#STOPS:244.000=0.240
,245.000=0.200
,246.000=0.200
;
#BGCHANGES:;
// cache tags:
#FIRSTBEAT:0.000;
#LASTBEAT:347.500;
#SONGFILENAME:Songs/FUCK ANIME PACK/Kuusou Mesorogii/Kuusou Mesorogii.sm;
#HASMUSIC:1;
#HASBANNER:1;
#MUSICLENGTH:95.817;
// end cache tags

//---------------dance-single - Blank----------------
#NOTES:
     dance-single:
     Blank:
     Beginner:
     13:
     1.000,1.000,1.000,1.000,0.464,621.000,371.000,117.000,0.000,188.000:

1000
0010
1000
0010
1000
0100
0001
0100
2000
0000
3000
0000
0110
0000
0001
0010
,
0200
0000
0000
0000
0001
0300
0100
0000
0002
0000
0003
0000
0200
0000
0300
0000
,
2020
0000
0000
3030
,
0022
0000
0000
0000
0000
0000
0000
0000
0000
0000
0000
0000
0133
0000
0000
0000
0000
0000
1000
0000
0000
0000
0000
0000
0010
0100
0000
0000
0000
0000
0001
0010
0000
0000
0000
0000
1000
0100
0000
0000
0000
0000
0010
0002
0000
0000
0003
0000
,
1110
0100
1010
0100
0111
1000
0110
0010
,
1110
0022
0033
0220
0330
1100
0202
0303
,
1110
0100
1100
0001
1101
0010
1010
0100
,
0222
0333
0000
0000
2220
3330
0202
0303
1000
0001
0010
0100
2022
3033
0000
0000
,
2220
3330
0001
0000
1010
0000
0100
0000
1011
0000
1000
0000
0011
0000
0100
0000
,
1101
0220
0330
0022
0033
1100
0222
0333
,
1100
0011
1100
0011
1100
0000
0000
0000
0000
0000
0101
0000
0000
0000
0010
0000
,
2202
3303
0000
0000
1010
0000
0110
0000
0011
1100
0011
1100
0022
0033
0000
0000
,
1110
1101
0111
1110
,
1011
0110
0000
1100
0101
0010
1101
0100
,
1110
1011
1110
1011
,
1110
0011
0000
0000
0111
1100
0000
0000
,
1011
0100
0011
0010
1110
0100
1010
0001
,
1110
0000
0222
0333
0000
0000
0220
0000
0330
0000
0000
0000
2200
0000
3300
0000
,
1011
0100
1001
0001
1110
0100
0101
0010
,
1110
0011
0000
0000
0111
1100
0000
0000
,
1101
0000
0110
0000
0011
0000
1100
0000
0011
1000
0100
0010
0100
1000
0100
0010
,
1100
0110
1001
1100
0101
1001
0110
0101
,
1110
0010
1101
1000
1011
0010
0111
0100
,
1110
1110
0111
2011
,
0101
0010
0011
0100
0110
0010
0101
0010
,
0011
0101
3110
1001
,
0111
0111
1110
1011
,
1101
1110
0111
2011
,
0101
0010
0011
0001
3110
1000
1010
0100
,
1011
0000
0100
0000
1101
0000
0010
0000
1011
0000
1000
0000
1001
0010
0100
0001
,
1110
0001
1011
0010
1110
0001
1101
0100
,
1111
0000
0010
0000
1011
0000
1000
0000
1110
0000
0001
0000
1001
0010
0100
1000
,
0111
0000
0010
0000
1101
0000
0100
0000
0111
0000
1000
0000
0110
1001
0110
1001
,
0110
1000
1011
0100
1110
0010
1101
1000
,
0111
0001
1110
0100
1011
1000
0111
0010
,
1110
1110
0011
1110
1100
0010
1011
0100
,
1101
1000
0111
0001
1011
0100
1110
0110
,
0111
0000
1100
0011
0110
0000
1100
0000
,
0011
0110
1001
1100
,
0111
1100
1001
0110
1001
0000
1010
0000
,
0011
0110
1001
1100
0101
0110
1100
0011
,
1110
0000
0011
1100
0110
0000
1001
0000
,
1100
0000
1010
1100
0011
0000
1100
0000
,
0011
0000
0110
1001
0011
0000
1100
0110
,
1002
0000
0100
0000
0010
0000
1000
0000
0110
0000
1000
0000
0010
0000
0100
0003
,
2220
0000
0000
0000
0000
0000
0000
0000
3332
0000
0000
0000
0000
0000
0000
0003
,
1101
0010
1110
0001
1011
0100
0222
0333
,
0000
1011
0111
1011
,
1110
0110
1001
1110
0110
1100
0222
0000
,
0333
0000
0111
1110
,
1110
0000
0100
0000
1101
0000
0001
0000
0111
0000
1000
0000
2022
0000
0000
3033
,
0000
1110
1110
0111
,
1101
0010
0111
1000
1011
0001
2220
3330
,
0000
0111
0111
1110
,
0111
0100
1110
0001
1011
1000
1101
0100
,
1110
0001
0111
0100
1101
0000
1011
0000
,
1110
1000
0111
0001
1011
0100
1101
0010
,
0111
1000
1101
0010
0111
0001
1011
1000
,
1101
0110
1100
0011
0000
0110
1100
0011
,
2002
3003
0000
0110
0000
0000
1100
0000
,
0222
0000
0000
0000
0000
0000
0000
0000
0000
0000
0000
0000
0000
0333
0000
0000
,
1110
0000
0000
0000
0111
0000
0000
0000
1101
0000
0000
0000
1100
0010
0100
0001
,
1100
0010
1000
0100
0011
1000
0010
0100
0011
1000
0010
0001
1100
0010
0100
0001
,
1100
0010
0001
0100
0011
1000
0010
0100
0011
1000
0010
0001
1100
0010
0100
0001
,
1100
0010
0100
1000
0011
0100
0010
1000
0011
0100
0010
0001
1100
0010
0100
0001
,
1110
0000
0000
0000
0111
0000
0000
0000
1110
0000
0000
0000
0111
1000
0010
0100
,
0011
1000
0100
0010
1100
0001
0100
0010
1100
0001
0100
1000
0011
0100
0010
1000
,
0011
0100
0010
0001
1100
0010
0100
0001
1100
0010
0100
1000
0011
0100
0010
1000
,
0011
0100
0010
0001
1100
0010
0100
0001
1100
0010
0001
0100
0011
1000
0010
0100
,
0011
1000
0010
0001
1100
0010
0100
0001
1100
0010
0100
0001
1110
0000
0100
0000
,
0111
0001
1101
1000
1011
0010
1110
0022
,
0033
0000
2200
0000
3300
0000
0110
0000
2002
0000
3003
0000
1100
0011
1100
0011
,
1100
0010
0111
1000
1101
0001
2220
3330
,
0111
0000
2200
0000
3300
0000
1110
0000
0022
0033
0000
0000
1001
0110
1001
0110
,
1001
0100
1110
0001
1101
1000
0111
0202
,
0303
0000
2200
0000
3300
0000
0110
0000
0022
0000
0033
0000
1100
0011
1100
0011
,
2200
3300
0000
0220
0330
1100
0022
0033
,
1110
0022
0033
1100
0220
0330
1110
0100
,
1011
0001
1101
1000
0111
0001
1110
0220
,
0330
1100
0000
0000
1110
0000
1101
1000
,
1110
0001
0111
0100
1011
0100
1011
2200
,
3300
0000
1110
0022
0033
0000
0111
0100
,
1101
1000
1011
0010
1110
1000
1101
0022
,
0033
1100
0000
0000
0011
0000
1110
1000
,
1101
0010
0111
0100
1011
0000
1110
0220
,
0330
0000
0111
0220
0330
0000
1111
1111
,
0100
0100
1111
1111
0010
0010
2222
3333
;
