#TITLE:Geragerageragera;
#SUBTITLE:;
#ARTIST:t+pazolite;
#TITLETRANSLIT:;
#SUBTITLETRANSLIT:;
#ARTISTTRANSLIT:;
#CREDIT:;
#BANNER:geragerageragera bn.png;
#BACKGROUND:geragerageragera bg.png;
#LYRICSPATH:;
#CDTITLE:;
#MUSIC:Geragerageragera.ogg;
#OFFSET:0.012;
#SAMPLESTART:24.927;
#SAMPLELENGTH:12.929;
#SELECTABLE:YES;
#DISPLAYBPM:260.000;
#BPMS:0.000=260.000,224.000=130.000,280.000=130.000,364.000=260.000,588.000=130.000,644.000=130.000;
#STOPS:;
#BGCHANGES:;
// cache tags:
#FIRSTBEAT:28.000;
#LASTBEAT:592.000;
#SONGFILENAME:Songs/SPEEEDCOOOORE 3/Geragerageragera - [Tyler]/Geragerageragera.sm;
#HASMUSIC:1;
#HASBANNER:1;
#MUSICLENGTH:171.172;
// end cache tags

//---------------dance-single - T. Moore----------------
#NOTES:
     dance-single:
     T. Moore:
     Challenge:
     12:
     0.996,1.000,0.298,0.765,0.497,1011.000,51.000,131.000,5.000,0.000:
0000
0000
0000
0000
,
0000
0000
0000
0000
,
0000
0000
0000
0000
,
0000
0000
0000
0000
,
0000
0000
0000
0000
,
0000
0000
0000
0000
,
0000
0000
0000
0000
,
1000
0000
0000
0100
0000
0000
1000
0000
,
0010
0100
0001
1000
,
0000
0100
0000
0000
1000
0000
0010
0000
,
0100
0000
0001
0000
0010
0000
0000
0100
,
0000
0010
0001
1000
,
0010
0000
0100
0000
0000
0010
0000
0000
,
1000
0100
0010
0001
,
2002
3003
0000
1000
0000
0000
0010
0000
,
0100
0010
1000
0100
,
0000
0010
0000
0000
0100
0000
1000
0000
,
0001
0000
0202
0303
2020
3030
0000
1000
,
0000
0001
0010
0100
,
0010
0000
0001
0000
0000
0100
0000
0000
,
0001
0000
0010
0000
0100
0000
2200
3300
,
2002
3003
0001
0000
0000
0000
1000
0000
,
0010
0000
0000
0000
0100
0000
0000
0000
0010
0000
1000
0010
0200
0000
0300
0000
,
0001
0000
0000
0000
1000
0000
0100
1000
,
0001
0000
0001
0000
0100
0000
0001
0100
0020
0000
0030
0000
1000
0000
0000
0000
,
0010
1000
0001
0000
1000
0100
1000
0001
,
0100
0000
0001
0100
0010
0000
0000
0000
1000
0000
0010
0000
0100
0000
0001
0000
,
0100
0010
1000
0000
0001
0000
0001
0000
0010
0000
0010
0000
0100
0000
0100
0000
,
2000
0000
3000
0000
2000
0000
3000
0000
0001
0000
0100
0010
1000
0000
0002
0000
,
0003
0000
0000
0000
1000
0000
0000
0000
0100
0000
0010
0000
0002
0003
0000
0000
1000
0000
0000
0000
0001
0000
0010
0000
0200
0000
0000
0000
0300
0000
0000
0000
,
1000
0000
0002
0000
0003
0000
1000
0000
0010
0000
1000
0000
0002
0003
0000
0000
,
2002
3003
1000
1000
0200
0300
0200
0300
,
0010
0000
0001
1000
0001
0000
0200
0000
0300
0000
0010
0000
1000
0001
0020
0030
,
0100
0000
1000
0001
0200
0000
0300
0000
0010
0000
2000
0000
3000
0000
0001
0000
,
1000
0000
0100
0000
0020
0030
0000
0000
2002
0000
3003
0000
1000
0000
1000
0000
,
0020
0000
0030
0000
0020
0000
0030
0000
0100
0000
0010
1000
0001
0000
0020
0000
,
0030
0000
0000
0000
0100
0000
0000
0000
0010
0000
0001
0000
2000
3000
0000
0000
0100
0000
0000
0000
0010
0000
0001
0000
2000
0000
0000
0000
3000
0000
0000
0000
,
0001
0000
0200
0000
0300
0000
0001
0000
0010
0000
0100
0000
2000
3000
0000
0000
,
2002
0000
3003
0000
1000
0100
0010
0001
2000
0000
3000
0000
2000
0000
3010
0000
,
0100
0000
0000
0000
0001
0000
1000
0000
0100
0000
0000
0000
0020
0000
0000
0000
0030
0000
0000
0000
0001
0000
0000
0000
1000
0000
0010
0000
0200
0300
0000
0000
,
0001
0000
1000
0100
0020
0000
0030
0000
0001
0000
2000
0000
3000
0000
0001
0000
,
0000
0100
M000
0000
000M
0000
0M00
0000
,
2002
0000
3003
0000
2002
0000
3003
0000
1000
0000
0100
0010
0001
0000
2000
0000
,
3000
0000
0001
0000
0100
0010
2000
3000
0001
0000
1000
0100
0020
0000
0030
0000
,
0001
0000
2000
0000
3000
0000
0001
0000
0000
0000
1000
0000
0020
0030
0000
0000
,
0202
0303
0001
0001
2000
3000
2000
3000
,
0100
0000
0010
0001
1000
0000
0200
0000
0300
0000
1000
0000
0001
0010
0200
0300
,
1000
0000
0001
0100
0020
0000
0030
0000
1000
0000
0002
0000
0003
0000
1000
0000
,
0000
0100
0010
0000
0011
0000
0001
1000
,
0020
0000
0030
0000
0020
0000
0030
0000
0100
0000
0001
1000
0100
0000
0020
0000
,
0030
0000
0001
0000
1000
0001
0200
0300
0010
0000
1000
0001
0200
0000
0300
0000
,
0010
0200
0300
0001
0000
1000
0100
0000
,
0022
0000
0033
0000
0001
0010
0100
1000
0002
0000
0003
0000
0002
0000
0003
0000
,
1000
0000
0010
0100
0001
0000
2000
0000
3001
0000
0100
0010
1000
0000
0002
0003
,
1000
0000
0100
0010
0002
0000
0003
0000
1000
0000
0020
0000
0030
0000
0100
0000
,
0000
0001
1000
1000
0100
0100
0010
0010
,
0002
0003
0000
0000
,
0000
0000
0000
0000
,
0000
0000
0000
0000
,
0000
0000
0000
0000
1000
0010
0100
0001
,
1000
0100
1000
0010
0100
0001
0010
0100
,
1000
0001
0100
0010
0100
0001
1000
0100
,
1000
0010
0100
0001
0010
0100
1000
0001
,
0202
0303
0000
0000
0000
0000
0202
0303
1000
0000
0000
0000
2200
3300
0000
0000
,
0000
0000
2200
3300
0010
0000
0000
0000
0022
0033
0000
0000
2002
3003
0000
0000
,
0000
0000
2002
3003
1000
0000
0000
0000
2020
3030
0000
0000
0000
0000
2020
3030
,
0100
0000
0000
0000
0202
0303
0000
0000
2002
3003
0000
0000
2200
3300
0000
0000
,
0220
0330
0000
0000
0022
0033
0000
0000
2002
3003
0000
0000
2020
3030
0000
0000
,
0220
0330
0100
0000
0101
0000
1001
0000
1100
0000
0110
0000
0011
0000
1001
0000
,
1010
0000
0010
0100
0001
1000
0100
0010
0001
0100
0010
1000
0100
0000
0010
0000
,
1002
0000
0000
0000
0000
0000
0100
0003
0020
0000
0000
0000
1030
0000
0000
0000
,
0001
0000
0010
0000
0100
0000
1000
0000
0000
0100
0000
0000
0010
0000
0001
0000
1000
0000
0001
0000
0000
1000
0000
0000
0001
0000
0100
0000
0010
0000
1000
0000
0000
0001
0000
0000
2000
0000
0000
0000
0000
0000
0000
0000
0000
0000
0000
0000
,
0000
0000
0010
3000
0200
0000
0000
0000
0301
1000
0100
1000
0010
0100
0001
0100
,
0010
1000
0100
1000
0010
0100
0001
1000
0200
0000
0000
0000
0000
0000
0010
0300
,
0002
0000
0000
0000
0000
0000
0000
0000
0000
0000
0000
0000
1003
0000
0000
0000
0000
0000
0000
0000
0000
0000
0000
0000
0001
0000
0100
0000
0010
0000
1000
0000
0000
0010
0000
0000
1000
0000
0010
0000
0100
0000
0001
0000
0000
1000
0000
0000
,
0001
0000
1000
0000
0100
0000
0010
0000
0000
0001
0000
0000
0200
0000
0000
0000
0000
0000
0301
0000
0000
0000
0000
0000
1000
0000
0000
0000
0000
0000
0100
0000
0000
0000
0000
0000
1000
0000
0000
0000
0000
0000
0010
0000
0000
0000
0000
0000
,
0100
0001
1000
1100
0100
0010
1001
0000
,
0201
0000
0000
0000
0000
0000
0010
0300
2000
0000
0000
0000
3001
0000
0000
0000
,
1000
0000
0100
0000
0010
0000
0001
0000
0000
1000
0000
0000
0001
0000
0010
0000
0100
0000
1000
0000
0000
0001
0000
0000
1000
0000
0010
0000
0100
0000
0001
0000
0000
1000
0000
0000
0200
0000
0000
0000
0000
0000
0000
0000
0000
0000
0000
0000
,
0000
0000
0010
0300
0002
0000
0000
0000
0103
0001
1000
0001
0010
0100
1000
0100
,
0010
0001
0100
0010
1000
0001
0010
0100
2000
0000
0000
0000
0000
0000
0001
3000
,
0200
0000
0000
0000
0000
0000
0000
0000
0000
0000
0000
0000
0310
0000
0000
0000
0000
0000
0000
0000
0000
0000
0000
0000
1000
0000
0010
0000
0100
0000
0001
0000
0000
1000
0000
0000
0001
0000
1000
0000
0100
0000
0010
0000
0000
0001
0000
0000
,
0100
0000
0010
0000
1000
0000
0001
0000
0000
1000
0000
0000
0200
0000
0000
0000
0000
0000
0310
0000
0000
0000
0000
0000
0100
0000
0000
0000
0000
0000
1100
0000
0000
0000
0000
0000
1000
0000
0000
0000
0000
0000
0001
0000
0000
0000
0000
0000
,
0101
0100
0010
1010
1000
0100
0110
0010
,
1001
0000
0000
0000
0000
0000
1000
0001
0000
0000
1000
0000
0000
1000
0000
1000
,
0001
0100
0000
0000
0010
1000
0000
0010
1000
0000
0001
0000
1000
0100
0000
0000
,
0000
0000
0010
0001
0000
0000
0010
0000
0000
0010
0000
0010
0001
1000
0000
0000
,
0001
1000
0000
0001
1000
0000
0010
0000
0110
0000
0000
0000
0000
0000
0100
0001
,
0000
0000
0100
0000
0000
0100
0000
0100
0001
1000
0000
0000
0001
0010
0000
0001
,
0010
0000
0100
0000
1000
0001
0000
0000
0000
0000
1000
0001
0000
0000
1000
0000
,
0000
1000
0000
1000
0001
0100
0000
0000
0010
1000
0000
0010
1000
0000
0001
0000
,
1MM0
0100
0000
0100
0000
1000
0001
0000
,
0100
0000
0010
0000
1000
0000
0001
0010
,
0000
0010
0000
0001
1000
0000
0010
0000
,
0100
0000
0001
0000
1000
0100
0000
0100
,
0000
1000
0001
0000
0100
0000
0010
0000
,
0100
0000
0001
1000
0000
1000
0000
1000
,
0100
0010
0001
0100
,
0101
0001
0100
0001
0100
0010
1000
0001
,
1000
0100
0010
0100
1000
0001
0101
0100
,
0001
0100
0001
1000
0010
1000
0100
0010
,
0100
1000
0010
0100
0101
0001
0100
0001
,
0100
0010
1000
0001
0010
0001
0100
0001
,
1000
0001
0010
0100
1000
0100
1000
0100
,
0010
0001
0100
0010
1000
0001
0010
0000
,
1001
0000
0001
0000
0010
0100
1000
0100
0010
0001
1000
0000
0001
0000
1000
0000
,
0010
0000
0000
0000
0100
0000
0001
0000
0010
0000
0100
0000
1000
0100
0010
0001
,
1000
0000
1000
0000
0001
0000
1000
0010
0100
0000
0100
0000
0002
0000
1000
0003
,
0002
0000
0100
0003
0002
0000
0010
0003
0100
0000
0100
0000
1000
0000
0001
1000
,
0001
0010
0100
0000
1000
0001
0100
0000
0010
0000
0000
0000
0100
0000
0001
0000
,
1000
0100
1000
0100
0010
0001
0010
0001
1000
0000
0001
1000
0001
0000
1000
0001
,
0100
0001
1000
0100
1000
0010
0100
0001
,
1000
0000
1000
0000
0100
0000
0010
0001
0010
0100
1000
0000
0001
0000
1000
0000
,
0010
0000
0000
0000
0100
0000
0010
0000
1000
0000
0001
0000
1000
0100
0010
0001
,
1000
0000
0001
1000
0010
0000
0100
0001
1000
0000
1000
0000
0002
0000
0000
0003
,
0010
0000
0001
0010
0200
0000
0000
0300
1000
0000
1000
0000
0001
0000
1000
0001
,
1000
0010
0100
0000
0001
0000
0100
0000
0010
0000
1000
0000
0001
0000
0010
0000
,
0100
1000
0100
1000
0001
0000
1000
0000
0010
0000
1000
0001
0010
0000
0001
1000
,
0100
0000
0000
0000
,
1000
0100
1000
0001
0010
0001
1000
0001
,
0100
0010
0100
0001
1000
0100
0010
0001
,
0010
0000
0100
0000
1000
0000
0100
0000
0010
0000
0001
0000
0100
0000
0010
1000
,
0001
0000
1000
0010
0100
0000
0001
0000
1000
0000
0100
0000
1000
0000
0001
0000
,
0010
0001
1000
0001
0100
0010
0100
0001
,
1000
0000
1000
0000
0001
0000
0100
0000
0001
0000
0010
0100
1000
0000
0100
0010
,
0001
0000
1000
0000
0010
0000
0100
0001
1000
0000
0001
0100
0010
0000
0100
0001
,
1000
0001
1000
0100
0010
0100
1000
0001
,
0100
0010
1000
0001
0010
0100
1000
0001
,
1000
0000
0010
0000
0100
0000
0010
0000
1000
0000
0100
0000
0010
0000
0001
1000
,
0001
0000
0010
0100
1000
0000
0001
1000
0001
0000
0100
0000
0001
0000
1000
0000
,
0010
1000
0001
0010
0100
0010
0001
0001
,
1000
0000
1000
0000
0010
0100
0001
0000
1000
0000
1000
0000
1000
0000
0100
0000
,
0010
0100
1000
0001
0100
0000
0001
0000
,
1000
0100
0010
0100
1000
0001
0100
0010
,
0100
0001
0010
0100
1000
0100
0010
0001
,
0100
0000
0010
0000
1000
0000
0100
0000
1000
0000
0001
0000
0010
0000
0001
1000
,
0001
0000
1000
0010
0100
0000
0010
1000
0001
0000
0100
0000
0001
0000
1000
0000
,
0100
0010
0001
0100
0010
1000
0100
1000
,
0001
0000
0001
0000
0100
0000
0001
0000
0100
0000
0010
1000
0001
0000
1000
0001
,
0010
0000
0001
0000
1000
0000
0001
0010
0100
0000
1000
0001
0100
0000
0010
1000
,
0001
0100
0001
0010
0100
0010
0001
0100
,
0010
1000
0100
0010
0100
1000
0001
0100
,
0010
0000
0100
0000
0001
0000
1000
0000
0100
0000
1000
0000
0001
0000
0100
0010
,
1000
0000
0010
0100
0001
0000
1000
0001
1000
0000
0100
0000
1000
0000
0100
0000
,
0010
0000
0001
0000
0010
0000
0001
0000
1000
0001
1000
0001
1000
0000
0001
0000
,
1000
0000
0010
0000
0100
0001
1000
0000
0100
0000
0010
0000
0001
0000
0000
0000
,
1000
0000
0000
0000
0001
0000
0100
0000
0010
1000
0001
1000
0100
0000
0010
0000
,
0002
0000
0000
0000
,
0003
0000
0000
0000
;
