#TITLE:Together As One;
#SUBTITLE:;
#ARTIST:DJ Sharpnel;
#TITLETRANSLIT:;
#SUBTITLETRANSLIT:;
#ARTISTTRANSLIT:;
#CREDIT:;
#BANNER:together as one bn.png;
#BACKGROUND:together as one bg.png;
#LYRICSPATH:;
#CDTITLE:;
#MUSIC:TOGETHER AS ONE.ogg;
#OFFSET:-1.310;
#SAMPLESTART:152.898;
#SAMPLELENGTH:20.209;
#SELECTABLE:YES;
#BPMS:0.000=190.000;
#STOPS:;
#BGCHANGES:;
// cache tags:
#FIRSTBEAT:20.000;
#LASTBEAT:591.000;
#SONGFILENAME:Songs/SHARPNELSTREAMZ v2/Together As One/TOGETHER AS ONE.sm;
#HASMUSIC:1;
#HASBANNER:1;
#MUSICLENGTH:188.290;
// end cache tags

//---------------dance-single - 15 (CTalon)----------------
#NOTES:
     dance-single:
     15 (CTalon):
     Challenge:
     15:
     1.000,1.000,0.064,0.101,1.000,1644.000,12.000,19.000,21.000,0.000:
0000
0000
0000
0000
,
0000
0000
0000
0000
,
0000
0000
0000
0000
,
0000
0000
0000
0000
,
0000
0000
0000
0000
,
0001
0000
1000
0000
0010
0000
0100
0001
1000
0001
1000
0100
0010
0000
0001
0000
,
1000
0000
0010
0000
1000
0000
0100
0010
0001
0010
0100
1000
0001
0000
1000
0000
,
0010
0000
1000
0000
0001
0000
0100
0010
0100
0010
1000
0001
1000
0000
0100
0000
,
0010
0000
0100
0000
1000
0000
0001
0100
0010
1000
0001
0010
0100
0000
0010
0000
,
0001
0000
1000
0000
0100
0000
1000
0001
0100
0001
1000
0001
0100
0000
0010
0000
,
1000
0000
0100
0000
0010
0000
0001
0010
0100
1000
0001
0010
0100
0000
0010
0000
,
0001
0000
1000
0000
0010
0000
0100
0001
0100
0010
1000
0001
1000
0000
0100
0000
,
1000
0000
0100
0000
0010
0000
0001
1000
0010
0100
0001
1000
0100
0000
0010
0000
,
0001
0000
1000
0000
0010
0000
1000
0001
0010
0100
1000
0100
1000
0000
0001
0000
,
0100
0000
0010
0000
1000
0000
0001
0100
0001
0100
0010
1000
0001
0000
0010
0000
,
0100
0000
1000
0000
0001
0000
0100
0010
1000
0001
1000
0001
0010
0000
0100
0000
,
1000
0000
0001
0000
0010
0000
0100
1000
0100
0010
0001
1000
0001
0000
0100
0000
,
0010
0000
1000
0000
0001
0000
0010
0100
1000
0100
0010
0001
1000
0000
0001
0000
,
0100
0000
0010
0000
1000
0000
0001
0010
0100
1000
0100
1000
0001
0000
0100
0000
,
0010
0000
1000
0000
0001
0000
0100
0001
0100
0010
0100
0001
1000
0000
0001
0000
,
0010
0001
1000
0001
0100
0010
1000
0001
0010
0100
1000
0001
1000
0100
0010
0001
,
1000
0001
1000
0000
0010
0000
1000
0000
0001
0100
0010
0000
1000
0100
0010
0001
,
1000
0000
0010
0000
0100
0000
0001
0000
1000
0010
1000
0000
0100
0010
0100
1000
,
0001
0100
0010
0000
1000
0000
0010
0000
1000
0100
0010
0000
0100
1000
0001
0100
,
0001
0000
0010
0000
0001
0000
1000
0000
0010
0100
0010
0000
1000
0001
0010
0100
,
0010
0001
1000
0000
0010
0000
0100
0000
0001
0010
0100
0000
0010
0001
1000
0001
,
0100
0000
0010
0000
1000
0000
0010
0000
1000
0100
0010
0000
0001
0100
0010
1000
,
0001
0010
0100
0000
0010
0000
0001
0000
1000
0010
0100
0000
0010
1000
0001
1000
,
0001
0000
0010
0000
0100
0000
1000
0000
0001
0000
0100
0001
0000
1000
0100
0000
,
1000
0100
0010
0001
1000
0001
0100
0010
1000
0100
0010
0001
1000
0001
0100
0010
,
1000
0100
0010
0001
1000
0001
0100
0010
1000
0001
0010
0100
1000
0001
1000
0001
,
1000
0100
0010
0001
1000
0001
0100
0010
1000
0100
0010
0001
1000
0001
0100
0010
,
1000
0100
0010
0001
1000
0001
0100
0010
1000
0001
0010
0100
1000
0001
1000
0001
,
1000
0010
0100
0001
1000
0001
0010
0100
1000
0010
0100
0001
1000
0001
0010
0100
,
1000
0010
0100
0001
1000
0001
0010
0100
1000
0001
0100
0010
1000
0001
1000
0001
,
1000
0010
0100
0001
1000
0001
0010
0100
1000
0010
0100
0001
1000
0001
0010
0100
,
1000
0010
0100
0001
1000
0001
0010
0100
1000
0100
1000
0010
0100
0001
0010
0001
,
1000
0100
0010
0001
1000
0001
0100
0010
1000
0100
0010
0001
1000
0001
0100
0010
,
1000
0100
0010
0001
1000
0001
0100
0010
1000
0001
0010
0100
1000
0001
1000
0001
,
1000
0100
0010
0001
1000
0001
0100
0010
1000
0100
0010
0001
1000
0001
0100
0010
,
1000
0100
0010
0001
1000
0001
0100
0010
1000
0001
0010
0100
1000
0001
1000
0001
,
1000
0010
0100
0001
1000
0001
0010
0100
1000
0010
0100
0001
1000
0001
0010
0100
,
1000
0010
0100
0001
1000
0001
0010
0100
1000
0001
0100
0010
1000
0001
1000
0001
,
1000
0010
0100
0001
1000
0001
0010
0100
1000
0010
0100
0001
1000
0001
0010
0100
,
1000
0010
0100
0001
1000
0001
0010
0100
1000
0100
1000
0010
0100
0001
0010
0001
,
1000
0100
0010
0001
1000
0001
0100
0010
1000
0100
0010
0001
1000
0001
0100
0010
,
1000
0100
0010
0001
1000
0001
0100
0010
1000
0001
0010
0100
1000
0001
1000
0001
,
1000
0100
0010
0001
1000
0001
0100
0010
1000
0100
0010
0001
1000
0001
0100
0010
,
1000
0100
0010
0001
1000
0001
0100
0010
1000
0001
0010
0100
1000
0001
1000
0001
,
1000
0010
0100
0001
1000
0001
0010
0100
1000
0010
0100
0001
1000
0001
0010
0100
,
1000
0010
0100
0001
1000
0001
0010
0100
1000
0001
0100
0010
1000
0001
1000
0001
,
1000
0010
0100
0001
1000
0001
0010
0100
1000
0010
0100
0001
1000
0001
0010
0100
,
1000
0000
0000
0000
0000
0000
0000
0000
0001
0000
0100
0001
0000
1000
0001
0000
,
1001
1000
1000
1000
,
1010
1000
1000
1000
,
1100
1000
1000
1000
,
1001
0000
1000
0010
1000
0000
1000
0000
,
1100
1000
1000
1000
,
1001
1000
1000
1000
,
1010
1000
1000
1000
,
1100
0000
1000
0001
1000
0000
1000
0000
,
0001
0000
0010
0000
0001
0000
1000
0010
0100
0001
1000
0100
0010
0000
0001
0000
,
1000
0000
0010
0000
1000
0000
0001
0100
0010
1000
0001
0010
0100
0000
0010
0000
,
0001
0000
1000
0000
0010
0000
0100
0001
0100
0010
1000
0001
1000
0000
0100
0000
,
0010
0000
0001
0000
1000
0000
0010
0100
0010
1000
0001
1000
0001
0000
0010
0000
,
0100
0000
1000
0000
0001
0000
0100
0010
1000
0010
0100
0001
1000
0000
0001
0000
,
0010
0000
0100
0000
1000
0000
0001
0100
0010
1000
0001
1000
0100
0000
0010
0000
,
0001
1000
0010
1000
0001
1000
0100
0010
0100
1000
0001
0100
0010
1000
0001
0010
,
0100
1000
0100
0010
0001
1000
0001
0100
0001
1000
0001
0010
0001
1000
0010
0100
,
0020
0000
0000
0000
,
1030
0001
1000
0000
0010
0000
1000
0000
0001
0100
0010
0000
1000
0100
0010
0001
,
1000
0000
0010
0000
0100
0000
0001
0000
1000
0010
1000
0000
0100
0010
0100
1000
,
0001
0100
0010
0000
1000
0000
0010
0000
1000
0100
0010
0000
0100
1000
0001
0100
,
0001
0000
0010
0000
0001
0000
1000
0000
0010
0100
0010
0000
1000
0001
0010
0100
,
0010
0001
1000
0000
0010
0000
0100
0000
0001
0010
0100
0000
0010
0001
1000
0001
,
0100
0000
0010
0000
1000
0000
0010
0000
1000
0100
0010
0000
0001
0100
0010
1000
,
0001
0010
0100
0000
0010
0000
0001
0000
1000
0010
0100
0000
0010
1000
0001
1000
,
0001
0000
0010
0000
0100
0000
1000
0000
0001
0000
0100
0001
0000
1000
0100
0000
,
1000
0001
1000
0000
0100
0000
1000
0000
0001
0010
0100
0000
1000
0010
0100
0001
,
1000
0000
0100
0000
0010
0000
0001
0000
1000
0100
1000
0000
0010
0100
0010
1000
,
0001
0010
0100
0000
1000
0000
0100
0000
1000
0010
0100
0000
0010
1000
0001
0010
,
0001
0000
0100
0000
0001
0000
1000
0000
0100
0010
0100
0000
1000
0001
0100
0010
,
0100
0001
1000
0000
0100
0000
0010
0000
0001
0100
0010
0000
0100
0001
1000
0001
,
0010
0000
0100
0000
1000
0000
0100
0000
1000
0010
0100
0000
0001
0010
0100
1000
,
0001
1000
0001
1000
0010
0100
0001
1000
0001
0010
0100
1000
0001
0010
0001
1000
,
0010
0100
0001
1000
0001
0010
0100
0010
0001
1000
0001
0100
0010
1000
0001
0010
,
0100
0000
0000
0000
,
0000
0000
0000
0000
,
1000
0100
0010
0001
1000
0001
0100
0010
1000
0100
0010
0001
1000
0001
0100
0010
,
1000
0100
0010
0001
1000
0001
0100
0010
1000
0001
0010
0100
1000
0001
1000
0001
,
1000
0100
0010
0001
1000
0001
0100
0010
1000
0100
0010
0001
1000
0001
0100
0010
,
1000
0100
0010
0001
1000
0001
0100
0010
1000
0001
0010
0100
1000
0001
1000
0001
,
1000
0010
0100
0001
1000
0001
0010
0100
1000
0010
0100
0001
1000
0001
0010
0100
,
1000
0010
0100
0001
1000
0001
0010
0100
1000
0001
0100
0010
1000
0001
1000
0001
,
1000
0010
0100
0001
1000
0001
0010
0100
1000
0010
0100
0001
1000
0001
0010
0100
,
1000
0010
0100
0001
1000
0001
0010
0100
1000
0100
1000
0010
0100
0001
0010
0001
,
1000
0100
0010
0001
1000
0001
0100
0010
1000
0100
0010
0001
1000
0001
0100
0010
,
1000
0100
0010
0001
1000
0001
0100
0010
1000
0001
0010
0100
1000
0001
1000
0001
,
1000
0100
0010
0001
1000
0001
0100
0010
1000
0100
0010
0001
1000
0001
0100
0010
,
1000
0100
0010
0001
1000
0001
0100
0010
1000
0001
0010
0100
1000
0001
1000
0001
,
1000
0010
0100
0001
1000
0001
0010
0100
1000
0010
0100
0001
1000
0001
0010
0100
,
1000
0010
0100
0001
1000
0001
0010
0100
1000
0001
0100
0010
1000
0001
1000
0001
,
1000
0010
0100
0001
1000
0001
0010
0100
1000
0010
0100
0001
1000
0001
0010
0100
,
1000
0000
0000
0000
0000
0000
0000
0000
0001
0000
1000
0010
0000
0100
0001
0000
,
2000
0000
3020
0000
0230
0000
0301
0010
,
0200
0000
1300
0001
0200
0000
0310
1000
,
0002
0023
0230
0320
,
0032
0000
0003
0000
,
2000
0000
3020
0000
0230
0000
0301
0010
,
0200
0000
1300
0001
0200
0000
0310
1000
,
0001
0010
0100
1000
0200
0000
1300
0002
,
0000
0000
0103
1001
,
0001
0010
0100
0010
0001
1000
0100
0010
0001
1000
0010
0100
0010
1000
0100
1000
,
0001
0010
0001
1000
0010
1000
0100
1000
0001
0010
0001
1000
0010
1000
0100
1000
,
0001
0010
0001
0010
0100
1000
0100
1000
0001
0100
0001
0100
0010
0100
0010
0100
,
0001
1000
0100
1000
0001
1000
0100
1000
0001
0010
0100
1000
0001
0010
0100
1000
,
0001
0100
0010
1000
0001
0100
0010
0100
0001
1000
0001
1000
0100
1000
0010
1000
,
0001
0100
0001
1000
0100
1000
0010
1000
0001
0100
0001
1000
0100
1000
0010
1000
,
0001
0010
0001
1000
0001
0100
0001
1000
0100
0010
0001
1000
0010
1000
0100
1000
,
0100
1000
0001
1000
0010
1000
0001
1000
0100
0010
0001
0000
1000
0000
0010
0000
,
1000
0100
0010
0100
1000
0001
0010
0100
1000
0001
0100
0010
0100
0001
0010
0001
,
1000
0100
1000
0001
0100
0001
0010
0001
1000
0100
1000
0001
0100
0001
0010
0001
,
1000
0100
1000
0100
0010
0001
0010
0001
1000
0010
1000
0010
0100
0010
0100
0010
,
1000
0001
0010
0001
1000
0001
0010
0001
1000
0100
0010
0001
1000
0100
0010
0001
,
1000
0010
0100
0001
1000
0010
0100
0010
1000
0001
1000
0001
0010
0001
0100
0001
,
1000
0010
1000
0001
0010
0001
0100
0001
1000
0010
1000
0001
0010
0001
0100
0001
,
1000
0100
1000
0001
1000
0010
1000
0001
0010
0100
1000
0001
0100
0001
0010
0001
,
0010
0001
1000
0001
0100
0001
1000
0001
0010
0100
1000
0000
0001
0000
0100
0000
,
0001
0010
0100
0010
0001
1000
0100
0010
0001
1000
0010
0100
0010
1000
0100
1000
,
0001
0010
0001
1000
0010
1000
0100
1000
0001
0010
0001
1000
0010
1000
0100
1000
,
0001
0010
0001
0010
0100
1000
0100
1000
0001
0100
0001
0100
0010
0100
0010
0100
,
0001
1000
0100
1000
0001
1000
0100
1000
0001
0010
0100
1000
0001
0010
0100
1000
,
0001
0100
0010
1000
0010
0100
0001
1000
0001
0010
0001
0010
0100
1000
0100
0010
,
0001
1000
0001
0100
0010
1000
0100
0010
0001
1000
0001
0100
0010
1000
0100
0010
,
0001
1000
0001
0100
0010
1000
0100
0010
0001
1000
0001
0100
0010
1000
0100
0010
,
0001
0010
0100
1000
0001
0100
0010
1000
0001
0010
0001
0100
0010
1000
0100
1000
,
0002
0000
0000
0000
0000
0000
0000
1000
,
1003
0000
0000
0100
0010
0000
0001
0000
,
1001
0000
0000
1100
0000
0100
0000
0000
,
0011
0000
0000
0001
1000
0010
1000
0000
,
000M
0000
0000
0000
0000
0000
0000
0000
0000
0000
0000
0000
0000
0000
0000
0000
0000
0000
0000
0000
0000
0000
0000
00M0
0000
0000
0000
0000
0000
0000
0000
0000
0000
0000
0000
0000
0000
0000
0000
0000
0000
0000
0000
0000
0000
0000
0M00
0000
0000
0000
0000
0000
0000
0000
0000
0000
0000
0000
0000
0000
0000
0000
0000
0000
0000
0000
0000
0000
0000
M000
0000
0000
0000
0000
0000
0000
0000
0000
0000
0000
0000
0000
0000
0000
0000
0000
0000
0000
0000
0000
0000
0000
00M0
0000
0000
0000
0000
0000
0000
0000
0000
0000
0000
0000
0000
0000
0000
0000
0000
0000
0000
0000
0000
0000
0000
0M00
0000
0000
0000
0000
0000
0000
0000
0000
0000
0000
0000
0000
0000
0000
0000
0000
0000
0000
0000
0000
0000
0000
000M
0000
0000
0000
0000
0000
0000
0000
0000
0000
0000
0000
0000
0000
0000
0000
0000
0000
0000
0000
0000
0000
0000
M000
0000
0000
0000
0000
0000
0000
0000
0000
0000
0000
0000
0000
0000
0000
0000
0000
0000
0000
0000
0000
0000
0000
0000
0000
0000
0000
0000
0000
0000
0000
,
0000
MMMM
0000
0000
0000
0000
0000
0000
,
0000
0000
0000
0000
,
0000
0000
0000
0000
,
0000
0000
0000
0000
,
0000
0000
0000
0000
0000
0000
0000
0000
0000
0000
0000
0000
0000
0000
0000
0000
0000
0000
0000
0000
0000
0000
0000
0000
0000
0000
0000
0000
0000
0000
0000
0000
0000
0000
0000
0000
0000
0000
0000
0000
0000
0000
0000
0000
0000
0000
0000
0000
0000
0000
0000
0000
0000
0000
0000
0000
0000
0000
0000
0000
0000
0000
0000
0000
0000
0000
0000
0000
0000
0000
0000
0000
0000
0000
0000
0000
0000
0000
0000
0000
0000
0000
0000
0000
0000
0000
0000
0000
0000
0000
0000
0000
0000
0000
0000
0000
0000
0000
0000
0000
0000
0000
0000
0000
0000
0000
0000
0000
0000
0000
0000
0000
0000
0000
0000
0000
0000
0000
0000
0000
0000
0000
0000
0000
0000
0000
0000
0000
0000
0000
0000
0000
M000
0000
0000
0000
0000
0000
0000
0000
0000
0000
0000
0000
0000
0000
0000
0000
0000
0000
0000
0000
0000
0000
0000
0000
0000
0000
0000
0000
0000
0000
0000
0000
0000
0000
0000
0000
0000
0000
0000
0000
0000
0000
0000
0000
0000
0000
0000
0000
0000
0000
M000
0000
0000
0000
0000
0000
0000
0000
0000
0000
,
0000
0000
0000
0000
0000
0000
0000
0000
0000
0000
0000
0000
0000
0000
0000
0000
0000
0000
0000
0000
0000
0000
0000
0000
0000
0000
0000
0000
0000
0000
0000
0000
0000
0000
0000
0000
0000
0000
0000
M000
0000
0000
0000
0000
0000
0000
0000
0000
0000
0000
0000
0000
0000
0000
0000
0000
0000
0000
0000
0000
0000
0000
0000
0000
0000
0000
0000
0000
0000
0000
0000
0000
0000
0000
0000
0000
0000
0000
0000
0000
0000
0000
0000
0000
0000
0000
0000
0000
0000
M000
0000
0000
0000
0000
0000
0000
0000
0000
0000
0000
0000
0000
0000
0000
0000
0000
0000
0000
0000
0000
0000
0000
0000
0000
0000
0000
0000
0000
0000
0000
0000
0000
0000
0000
0000
0000
0000
0000
0000
0000
0000
0000
0000
0000
0000
0000
0000
0000
M000
0000
0000
0000
0000
0000
0000
0000
0000
0000
0000
0000
0000
0000
0000
0000
0000
0000
0000
0000
0000
0000
0000
0000
0000
0000
0000
0000
0000
0000
0000
0000
0000
0000
0000
0000
0000
0000
0000
0000
0000
0000
0000
0000
0000
0000
0000
0000
0000
0000
M000
0000
0000
0000
,
0000
0000
0000
0000
0000
0000
0000
0000
0000
0000
0000
0000
0000
0000
0000
0000
0000
0000
0000
0000
0000
0000
0000
0000
0000
0000
0000
0000
0000
0000
0000
0000
0000
0000
0000
0000
0000
0000
0000
0000
0000
0000
0000
0000
0000
M000
0000
0000
0000
0000
0000
0000
0000
0000
0000
0000
0000
0000
0000
0000
0000
0000
0000
0000
0000
0000
0000
0000
0000
0000
0000
0000
0000
0000
0000
0000
0000
0000
0000
0000
0000
0000
0000
0000
0000
0000
0000
0000
0000
0000
0000
0000
0000
0000
0000
M000
0000
0000
0000
0000
0000
0000
0000
0000
0000
0000
0000
0000
0000
0000
0000
0000
0000
0000
0000
0000
0000
0000
0000
0000
0000
0000
0000
0000
0000
0000
0000
0000
0000
0000
0000
0000
0000
0000
0000
0000
0000
0000
0000
0000
0000
0000
0000
0000
M000
0000
0000
0000
0000
0000
0000
0000
0000
0000
0000
0000
0000
0000
0000
0000
0000
0000
0000
0000
0000
0000
0000
0000
0000
0000
0000
0000
0000
0000
0000
0000
0000
0000
0000
0000
0000
0000
0000
0000
0000
0000
0000
0000
0000
0000
0000
0000
;
