#TITLE:Sepia;
#SUBTITLE:;
#ARTIST:Shiki/-45;
#TITLETRANSLIT:;
#SUBTITLETRANSLIT:;
#ARTISTTRANSLIT:;
#CREDIT:;
#BANNER:Sepia-bn.png;
#BACKGROUND:Sepia-bg.png;
#LYRICSPATH:;
#CDTITLE:;
#MUSIC:shiki-sepia.mp3;
#OFFSET:-0.570;
#SAMPLESTART:50.000;
#SAMPLELENGTH:12.000;
#SELECTABLE:YES;
#BPMS:0.000=142.000,122.000=142.000;
#STOPS:;
#BGCHANGES:;
// cache tags:
#FIRSTBEAT:0.000;
#LASTBEAT:294.000;
#SONGFILENAME:Songs/StepmaniaFreak's Favorites/Sepia/sepia.sm;
#HASMUSIC:1;
#HASBANNER:1;
#MUSICLENGTH:135.061;
// end cache tags

//---------------dance-single - Copied from----------------
#NOTES:
     dance-single:
     Copied from:
     Challenge:
     11:
     0.741,0.898,0.511,0.030,0.789,628.000,69.000,4.000,0.000,0.000:
1000
0100
0001
0000
1000
0000
0100
0000
0010
0000
0000
0000
0000
0000
0100
0000
,
0000
1001
0100
0010
0001
0000
1000
0000
,
0010
1000
0100
0010
0001
0000
0000
0000
,
0000
1100
0000
0000
0000
1001
0000
0000
,
1000
0100
0001
0000
1000
0000
0100
0000
0010
0000
0000
0000
0000
0000
0100
0000
,
0000
1001
0100
0010
0001
0000
0010
0000
,
0010
1100
0100
0010
0001
0000
0000
0000
,
0000
0000
0000
0000
,
0000
0000
0000
0000
,
1000
0100
0001
0000
1000
0000
0110
0000
0001
0000
1000
0000
0010
0000
1100
0000
,
0001
0000
0110
0000
0010
0000
1100
0000
0001
0000
1000
0100
0000
0010
0001
0000
,
1000
0001
1000
0110
0001
0100
0001
1100
,
0001
0010
0100
0000
1000
0000
0110
0000
0001
0010
0100
1000
0000
0010
0001
0000
,
1000
0100
0001
0000
1000
0000
0110
0000
0001
0000
1000
0000
0001
0000
1100
0000
,
0001
0000
1010
0000
0010
0000
1000
0000
0001
0000
0010
0100
0000
1000
0100
0000
,
0001
1100
0000
0110
0000
1000
0000
0101
,
0000
0000
0010
0000
0000
0000
1100
0000
0000
0000
0001
0010
0000
0100
1000
0000
,
1000
0100
0001
0000
1000
0000
0110
0000
1000
0000
0010
0000
0100
0000
0011
0000
,
0100
0000
1010
0000
0100
0000
0011
0000
1000
0000
0001
0100
0000
1000
0010
0000
,
1000
0110
0001
1010
1000
0010
0100
0011
,
1000
0100
0010
0000
0100
0000
1010
0000
1000
0100
0010
0001
0000
0001
0010
0000
,
1000
0100
0001
0000
1000
0000
0110
0000
0001
0000
1000
0000
0010
0000
1100
0000
,
0001
1100
0010
1001
0100
0010
1001
0100
,
1001
0110
0000
0010
0000
0010
0000
0010
,
0000
0000
0000
0000
0000
0000
1000
0000
0000
0000
0000
0000
0010
0000
0000
0001
0000
0000
1000
0000
0000
0100
0000
0000
0010
0000
0000
0001
0000
0000
1000
0000
0100
0000
0010
0000
0001
0000
0000
1000
0000
0000
0100
0000
0010
0000
0001
0000
,
1000
0100
0021
0000
0000
0000
0000
0000
0000
0000
0030
0000
0000
0000
1000
0000
,
0000
0100
0000
0000
0000
0000
0010
0000
,
0100
0010
0000
0001
0000
0000
0000
0000
,
0000
0200
0000
0000
0000
0000
0300
0000
,
1000
0100
0001
0000
0000
0000
0000
0000
0000
0000
0000
0000
0000
0000
0010
0000
,
0000
0100
0000
0000
0000
0000
0100
0000
,
0100
0010
0000
0001
0000
0000
0000
0000
,
0000
0000
0000
0000
,
0000
0000
1000
0100
0010
0000
0001
0010
0000
0100
1000
0000
1000
0100
0000
0010
,
0001
0000
0010
0100
1000
0000
1000
0100
0000
0100
0010
0000
0001
1000
0000
0100
,
0010
0000
0100
0000
0001
0010
0100
0000
1000
0100
0000
0100
0010
0000
0010
0001
,
0000
0001
0010
0100
1000
0000
0100
0000
0100
0010
0000
0010
0001
0000
0011
1000
,
0100
0000
0001
1000
0001
1000
0001
1000
0001
1000
0010
0100
0010
0100
0010
0100
,
0010
0100
0001
1000
0001
1000
0001
1000
0001
1000
0010
0100
0010
0100
0010
0100
,
0010
0100
0001
1000
0001
1000
0001
1000
0001
1000
0010
0100
0010
0100
0010
0100
,
0010
0100
1001
0010
1100
0000
0000
0000
1001
0000
0000
0000
1100
0000
0000
0000
,
1001
0000
0010
0000
1000
0010
1000
0100
0010
0001
0010
0001
0100
0001
1000
0010
,
0100
0000
0000
0001
0000
0000
0010
0000
0000
0001
0000
0000
0100
0000
0000
0001
0000
0000
1000
0000
0000
0010
0000
0000
0100
0000
0000
0001
0000
0000
0010
0000
0000
0000
0000
0000
1000
0000
0100
0000
0010
0000
0100
0000
0000
0000
0000
0000
,
0010
0000
0000
0000
0000
0000
0100
0000
0000
1000
0000
0000
0001
0000
0000
1000
0000
0000
0010
0000
0000
1000
0000
0000
0001
0000
0000
0100
0000
0000
0001
0000
0000
0000
0000
0000
0010
0000
0100
0000
0001
0000
0000
0000
0000
0000
0000
0000
,
0010
0000
0000
0000
0000
0000
0001
0000
0000
0100
0000
0000
0001
0000
0000
0000
0000
0000
1000
0000
0000
0000
0000
0000
0100
0000
0000
0010
0000
0000
0000
0000
0000
0001
0000
0000
0010
0000
0000
0100
0000
0000
1000
0000
0100
0000
0010
0000
,
0001
0000
0010
0000
0100
0000
1000
0000
0000
0000
0000
0000
0010
0000
0000
0001
0000
0000
1000
0000
0000
0001
0000
0000
0100
0000
0000
0001
0000
0000
0010
0000
0000
0100
0000
0000
1000
0000
0000
0010
0000
0000
1000
0000
0000
0001
0000
0000
,
1000
0000
0000
0100
0000
0000
1000
0000
0000
0010
0000
0000
0100
0000
0000
0001
0000
0000
0010
0000
0000
0100
0000
0000
1000
0000
0000
0010
0000
0000
0100
0000
0000
0000
0000
0000
0001
0000
0010
0000
0100
0000
0010
0000
0000
0000
0000
0000
,
0100
0000
0000
0000
0000
0000
0010
0000
0000
0001
0000
0000
0100
0000
0000
0001
0000
0000
0010
0000
0000
0001
0000
0000
1000
0000
0000
0010
0000
0000
0100
0000
0000
0000
0000
0000
1000
0000
0010
0000
0100
0000
0000
0000
0000
0000
0000
0000
,
0001
0000
0000
0000
0000
0000
1000
0000
0000
0010
0000
0000
1000
0000
0000
0000
0000
0000
0010
0000
0000
0000
0000
0000
0100
0000
0000
0001
0000
0000
0000
0000
0000
0001
0000
0000
0010
0000
0000
0100
0000
0000
1000
0000
0100
0000
0010
0000
,
0001
0000
0010
0000
0100
0000
1000
0000
0000
0000
0000
0000
0010
0000
0000
0100
0000
0000
0001
0000
0000
0010
0000
0000
0001
0000
0000
1000
0000
0000
0010
0000
0000
0100
0000
0000
0001
0000
0000
1000
0000
0000
0100
0000
0000
1000
0000
0000
,
0001
0000
0000
0100
0000
0000
0001
0000
0000
0010
0000
0000
0001
0000
0000
0100
0000
0000
0010
0000
0000
1000
0000
0000
0100
0000
0000
0010
0000
0000
0001
0000
0000
0000
0000
0000
1000
0000
0100
0000
0010
0000
0100
0000
0000
0000
0000
0000
,
1000
0000
0000
0000
0000
0000
0010
0000
0000
0100
0000
0000
0001
0000
0000
1000
0000
0000
0010
0000
0000
1000
0000
0000
0100
0000
0000
1000
0000
0000
0001
0000
0000
0000
0000
0000
0100
0000
0010
0000
1000
0000
0000
0000
0000
0000
0000
0000
,
0100
0000
0000
0000
0000
0000
0001
0000
0000
0100
0000
0000
0001
0000
0000
0000
0000
0000
0010
0000
0000
0000
0000
0000
0100
0000
0000
1000
0000
0000
0000
0000
0000
1000
0000
0000
0100
0000
0000
0010
0000
0000
0001
0000
0010
0000
0100
0000
,
1000
0000
0100
0000
0010
0000
0001
0000
0000
0000
0000
0000
0010
0000
0000
0100
0000
0000
0001
0000
0000
1000
0000
0000
0100
0000
0000
1000
0000
0000
0001
0000
0000
1000
0000
0000
0010
0000
0000
0100
0000
0000
0001
0000
0000
0010
0000
0000
,
0001
0000
0000
0100
0000
0000
0001
0000
0000
0010
0000
0000
0001
0000
0000
1000
0000
0000
0010
0000
0000
1000
0000
0000
0001
0000
0000
0100
0000
0000
0010
0000
0000
0000
0000
0000
0001
0000
0010
0000
0100
0000
0010
0000
0000
0000
0000
0000
,
0100
0000
0000
0000
0000
0000
1000
0000
0000
0010
0000
0000
1000
0000
0000
0001
0000
0000
0010
0000
0000
0001
0000
0000
1000
0000
0000
0010
0000
0000
0100
0000
0000
0000
0000
0000
0001
0000
0100
0000
0010
0000
0000
0000
0000
0000
0000
0000
,
1000
0000
0000
0000
0000
0000
0100
0000
0000
0001
0000
0000
0010
0000
0000
0000
0000
0000
0100
0000
0000
0000
0000
0000
1000
0000
0000
0100
0000
0000
0000
0000
0000
0010
0000
0000
0001
0000
0000
0010
0000
0000
0100
0000
1000
0000
0010
0000
,
0100
0001
0010
0100
0000
0000
0000
0000
0000
0100
0000
0000
0000
0000
0000
0001
0000
0000
0000
0000
0000
1100
0000
0000
,
0000
0000
1001
0000
0000
0000
0100
0000
0000
0000
0001
0010
0000
1000
0100
0000
,
0001
1100
0000
1001
0000
0100
0000
0011
,
0000
0000
0100
0000
0000
0000
1001
0000
0000
0000
0100
1000
0000
1000
0100
0000
,
1000
0100
0001
0000
0000
0000
1100
0000
0000
0000
0010
0000
0000
0000
1001
0000
,
0000
0000
1100
0000
0000
0000
0110
0000
0000
0000
1000
0100
0000
0010
0001
0000
,
1000
0101
0000
1100
0000
0100
0000
0011
,
0000
0000
0000
0000
0000
0000
1000
0000
0000
0000
0000
0000
0010
0000
0000
0001
0000
0000
1000
0000
0000
0100
0000
0000
0010
0000
0000
0001
0000
0000
1000
0000
0100
0000
0010
0000
0001
0000
0000
1000
0000
0000
0100
0000
0010
0000
0001
0000
,
1000
0100
0011
0000
0000
0000
1100
0000
0000
0000
0001
0000
0000
0000
1100
0000
,
0000
0000
1001
0000
0000
0000
0100
0000
0000
0000
0100
1000
0000
0001
0010
0000
,
0100
1100
0000
1001
0000
0010
0000
0101
,
0000
0000
1000
0000
0000
0000
0011
0000
0000
0000
1000
0100
0000
0100
0010
0000
,
1000
0100
0001
0000
0000
0000
1100
0000
0000
0000
0010
0000
0000
0000
1001
0000
,
0000
0000
0110
0000
0000
0000
1000
0000
0000
0000
0001
0010
0000
0010
0100
0000
,
1000
1001
0000
0010
0000
1001
0000
0010
,
0000
0000
1000
0100
0010
0000
1001
0000
0010
0100
0000
0100
0010
0001
1000
0001
,
1000
0001
2200
0000
0000
0000
0000
0000
3300
0000
0000
0000
0000
0000
0000
0000
;
