#TITLE:Bubblegloop Swamp;
#SUBTITLE:Banjo-Kazooie;
#ARTIST:Rareware;
#TITLETRANSLIT:;
#SUBTITLETRANSLIT:;
#ARTISTTRANSLIT:;
#CREDIT:;
#BANNER:bgs.png;
#BACKGROUND:bubble-bg.png;
#LYRICSPATH:;
#CDTITLE:kyka06.png;
#MUSIC:BubblegloopSwamp.mp3;
#OFFSET:1.920;
#SAMPLESTART:59.647;
#SAMPLELENGTH:12.500;
#SELECTABLE:YES;
#BPMS:0.000=67.445,14.000=134.890,146.000=137.890,154.000=134.890;
#STOPS:;
#BGCHANGES:;
// cache tags:
#FIRSTBEAT:2.250;
#LASTBEAT:262.000;
#SONGFILENAME:Songs/new/BK - Bubblegloop Swamp/bgs.sm;
#HASMUSIC:1;
#HASBANNER:1;
#MUSICLENGTH:132.057;
// end cache tags

//---------------dance-single - ----------------
#NOTES:
     dance-single:
     :
     Hard:
     9:
     0.587,0.645,0.098,0.053,0.587,523.000,13.000,7.000,0.000,0.000:
0000
0000
0000
0000
0000
0000
0000
0000
0000
0000
0000
0000
0000
0000
0000
0000
0000
0000
1001
0000
0000
0000
0000
0000
1000
0001
0000
0000
0001
1000
0000
0000
,
0000
0000
0000
0000
0000
0000
0000
0000
1000
0010
0000
0000
1000
0010
0000
0000
0100
0001
1000
0000
0000
0000
0000
0000
1000
0010
1000
0000
0001
0100
0001
0000
,
0000
0000
0000
0000
0000
0000
0000
0000
1000
0100
1000
0000
0001
0100
0001
0000
0100
0010
0100
0000
0000
0000
0000
0000
0001
1000
0001
0000
0100
0010
0100
0000
,
0000
0000
0000
0000
0000
0000
0000
0000
1000
0100
1000
0000
0010
0100
0010
0000
0001
0000
0000
0000
0000
0000
0100
0000
0010
0000
0000
0000
0100
0000
0000
0000
,
0001
0000
1000
0000
0010
0000
1000
0000
0100
0000
0000
1000
0010
0000
0100
0000
,
0001
0000
1000
0000
0010
0000
1000
0000
0100
0000
0000
1000
0010
0000
0100
0000
,
0001
0000
0000
0000
0001
0010
0001
0010
0100
0000
1000
0010
0100
0000
0001
0000
,
0010
0100
0010
0100
0010
0100
0010
0100
0010
0000
0000
1000
0100
0000
0010
0000
,
0001
0000
0100
0000
0010
0000
1000
0000
0100
0000
0000
0010
0001
0000
0100
0000
,
0010
0000
0000
0000
1000
0100
0010
0001
0100
0000
0010
1000
0100
0000
0010
0000
,
0101
0000
0000
0000
0000
0000
0000
0000
0001
0100
0010
0100
0001
0000
0010
0000
,
0100
0000
0001
0000
0010
0000
0100
0000
1000
0000
0000
0010
0100
0000
0001
0000
,
0010
0000
0100
1000
0010
0100
0001
0000
0010
0000
0000
0100
1000
0000
0010
0000
,
0100
0000
0001
0010
0100
1000
0010
0000
0100
0000
0000
0001
0010
0000
0100
0000
,
1000
0000
0010
0000
0100
0000
0001
0000
0010
0000
0000
0100
1000
0000
0010
0000
,
0100
0000
0001
0000
0010
0000
0100
0000
1000
0000
0000
0001
0000
0100
0010
0000
,
1000
0000
0100
0000
0010
0000
0001
0000
0100
0000
0000
0010
1000
0000
0100
0000
,
2000
0000
0000
0000
0000
0000
0000
3000
0001
0000
0000
0010
0100
0000
1000
0000
,
0010
0100
0001
0010
0100
0000
1001
0000
,
0110
0000
0000
0000
0011
0000
0000
0000
0100
0000
0000
0010
0100
0000
0001
0000
,
0020
0000
0000
0000
0000
0000
0000
0000
0130
0000
0000
1000
0001
0000
0100
0000
,
0020
0000
0000
0000
0000
0000
0000
0030
0100
0000
0000
0001
0010
0000
0100
0000
,
1000
0000
0000
0000
0010
0100
0001
0010
0100
0000
1000
0010
0100
0000
0001
0000
,
0010
0001
0010
0100
1000
0001
0010
0100
1000
0000
0000
0010
0100
0000
0001
0000
,
0020
0000
0000
0000
0000
0000
0030
0000
0100
0000
0000
1000
0010
0000
0100
0000
,
0002
0000
0000
0000
0013
0100
1000
0010
0100
0000
0001
0010
0100
0000
1000
0000
,
0020
0000
0000
0000
0000
0000
0030
0000
0100
0001
0100
0001
0010
0000
0100
0000
,
1000
0000
0000
0010
0000
0000
0100
0000
0000
0001
0000
0000
0010
0000
0100
0000
1000
0000
0010
0000
0100
0000
0001
0000
,
0010
0100
1000
0010
1000
0100
1000
0010
0100
0001
0010
0100
,
1000
0010
0100
0001
0010
0100
1000
0010
0100
0001
0010
0100
,
1000
0010
1000
0100
1000
0010
0100
0001
0010
0100
1000
0010
,
0100
0001
0010
0100
1000
0010
1000
0100
1000
0010
0100
0001
,
0010
1000
0001
0100
1000
0010
0100
0001
0010
0100
1000
0010
,
0100
0000
0000
0000
0001
0000
0000
0000
0010
0000
0000
0000
0100
0000
0000
0000
1000
0000
0000
0000
0010
0000
0000
0000
1001
0000
0000
0000
0000
0000
0000
0000
0000
1000
0000
0000
0100
0000
0000
0000
0000
0000
0010
0000
0000
0000
0000
0000
,
0001
0000
0000
0000
0000
0000
0000
0000
1000
0000
0000
0100
0010
0000
0001
0000
,
0100
0000
0000
0000
0000
0000
0000
0000
0010
0000
0000
1000
0100
0000
0010
0000
,
0001
0000
0000
0000
0100
0010
0100
0010
0100
0000
0001
0010
0100
0000
1000
0000
,
0010
1000
0001
0100
0001
1000
0010
1000
0001
0000
0000
0010
0100
0000
1000
0000
,
0010
0000
0000
0000
0000
0000
0000
0000
0100
0000
0000
1000
0010
0000
0100
0000
,
0001
0000
0000
0000
0010
0001
0100
1000
0010
0000
0100
0001
0010
0000
0100
0000
,
1000
0000
0000
0000
0000
0000
0000
0000
0010
0100
0001
0010
0100
0000
1000
0000
,
0010
0000
0100
0000
0001
0000
0010
0000
0100
0000
0000
1000
0010
0000
0100
0000
,
0001
0000
0010
0100
1000
0010
0100
0000
0001
0000
0000
0010
0100
0000
1000
0000
,
0010
0000
0100
1000
0010
1000
0010
0000
0001
0000
0000
0010
0100
0000
1000
0000
,
0010
0000
0100
0000
0001
0000
0010
0000
1000
0000
0000
0001
0100
0000
1000
0000
,
0010
0000
0100
0000
0001
0000
0010
0000
0100
0000
0000
1000
0010
0000
0100
0000
,
0001
0000
0010
0000
0100
0000
1000
0000
0010
0000
0000
1000
0100
0000
0010
0000
,
0002
0000
0000
0000
0000
0000
0000
0003
1000
0000
0000
0100
0010
0000
0010
0000
,
0100
0001
0010
0100
1000
0000
0010
0000
,
0100
0000
0000
0000
0001
0000
0000
0000
0010
0000
0000
0000
0100
0000
0000
1000
,
0010
0100
0001
0010
0100
0000
1000
0010
,
1000
0000
0000
0000
0100
0000
0000
0000
0010
0000
0000
0000
0001
0000
0000
0100
,
0010
1000
0100
0010
0001
0000
1000
0100
,
1000
0000
0000
0000
1001
0000
0000
0000
0000
0000
0000
0000
0011
0000
0000
0100
,
1000
0010
0100
0001
0010
0000
0100
1000
,
0010
0000
0000
0000
0100
0000
0000
0000
0001
0000
0000
0000
1000
0000
0000
0010
,
0100
0001
1000
0010
1000
0000
0001
0010
,
0001
0000
0000
0000
0110
0000
0000
0000
1001
0000
0000
0000
1000
0000
0000
0100
,
0010
0001
0100
0010
1000
0000
0100
0010
,
0001
0000
0000
0000
0100
0000
0000
0000
0010
0000
0000
0000
1000
0000
0000
0100
,
0010
0001
0100
0010
1000
0000
0100
0010
,
0001
0000
0000
0000
1001
0000
0000
0000
0000
0000
0000
0000
0011
0000
0000
0100
,
1000
0010
0100
0100
1000
0000
0100
0010
,
0001
0000
0000
0000
0100
0000
0000
0000
0010
0000
0000
0000
1000
0000
0000
0100
,
0010
0001
0100
0010
1000
0000
0100
1000
,
0010
0100
1001
0000
;

//---------------dance-single - ----------------
#NOTES:
     dance-single:
     :
     Medium:
     6:
     0.408,0.620,0.121,0.015,0.042,359.000,16.000,2.000,0.000,0.000:
0000
0000
0000
0000
0000
0000
0000
0000
0000
0100
0000
0000
1001
0000
1100
0000
,
0000
0000
0000
0000
0101
0000
1001
0000
1001
0001
0000
0000
1100
0100
0110
0010
,
0000
0000
0000
0000
1001
0001
1100
0100
1001
1000
0000
0000
1010
0010
0110
0100
,
0000
0000
0000
0000
1001
0001
1100
0100
1000
0000
0000
0000
0100
0000
0010
0000
,
0001
0000
0000
0000
1000
0000
0001
1000
,
0001
0000
0000
0000
0100
0000
0010
1000
,
0010
0000
1000
0100
1000
0000
0001
0010
,
0001
0000
0100
0000
0010
0000
1000
0100
,
0010
0000
0000
0000
0001
0000
0100
0010
,
1000
0000
0000
0000
1000
0000
0100
0010
,
0001
0000
0000
0000
1000
0001
1000
0000
,
0010
0100
0010
0100
0010
0000
1000
0000
,
0100
0010
0001
0000
0100
0000
0010
0000
,
1000
0100
0001
0000
1000
0000
0010
0000
,
0001
0100
0001
0010
0001
0000
0100
0000
,
0010
1000
0100
1000
0010
0000
0100
0000
,
0001
0010
0001
1000
0010
0000
0100
0001
,
0010
0000
1000
0100
,
0010
0001
0100
0010
1000
0000
0100
0000
,
0010
0000
0001
0000
1000
0000
0100
0010
,
0001
0000
0000
0000
0100
0000
0010
1000
,
0100
0000
0000
0000
0010
0000
0001
0100
,
0010
0000
1000
0100
0001
0100
1000
0010
,
1000
0100
1000
0010
1000
0000
0001
0100
,
0001
0000
0000
0000
0010
0000
0100
1000
,
0001
0000
0010
0001
1000
0010
0100
0001
,
0010
0000
0000
0000
1000
0100
1000
0010
,
0100
0001
0010
0001
1000
0001
1000
0001
,
0100
0010
0100
0010
1000
0100
1000
0100
,
1000
0010
0100
0010
0100
0010
1000
0001
,
0010
0001
0100
0010
1000
0100
0001
1000
,
0010
0001
0100
0010
1000
0010
0100
0001
,
0010
0001
0100
0010
1000
0100
0010
0001
,
0100
0010
1000
0100
0010
0000
0001
0100
,
0010
0000
0000
0000
1000
0000
0100
0010
,
0001
0000
0100
0000
,
0000
0000
1000
0100
0010
0000
0000
0000
,
0100
0000
0000
0000
1000
0000
0100
0010
,
0001
0000
0000
0000
0100
0000
0010
1000
,
0100
0000
0010
0001
0100
0010
1000
0100
,
0010
0000
0000
0000
1000
0001
1000
0001
,
0010
0100
0010
0100
1000
0000
0010
0000
,
0100
0001
0010
0001
0100
0000
0010
0000
,
1000
0100
0001
1000
0010
0000
0001
0000
,
0100
0010
1000
0100
0010
0000
0001
0000
,
0100
0010
1000
0100
0010
0000
0001
0000
,
0010
0100
1000
0010
0100
0000
0001
0010
,
0002
0000
0000
0003
1000
0000
0100
0010
,
0001
0100
0010
1000
0100
0000
0010
0000
,
0001
0100
0010
1000
,
0100
0010
0001
0100
0010
0000
1000
0100
,
0010
0001
0100
0010
,
1000
0100
1000
0100
0010
0000
0001
0010
,
0001
0000
0200
0000
0000
0300
0010
0000
,
1000
0100
0010
0001
0100
0000
0010
1000
,
0100
1000
0010
0100
,
0001
0010
0001
0100
0010
0000
1000
0001
,
0100
0010
1001
0010
,
0100
0010
1000
0100
,
0010
0001
0100
0010
,
1000
0100
1000
0010
,
0100
0001
0010
0001
,
1000
0010
0100
0001
,
0010
0100
1000
0010
,
0100
0000
0001
0000
0010
0001
0010
0100
,
1000
0010
0100
0001
1001
0000
0000
0000
;

//---------------dance-single - ----------------
#NOTES:
     dance-single:
     :
     Challenge:
     10:
     0.600,0.670,0.098,0.053,0.629,535.000,13.000,7.000,0.000,0.000:
0000
0000
0000
0000
0000
0000
0000
0000
0000
0000
0000
0000
0000
0000
0000
0000
0000
0000
1001
0000
0000
0000
0000
0000
1000
1000
0000
0000
0100
0100
0000
0000
,
0000
0000
0000
0000
0000
0000
0000
0000
1000
1000
0000
0000
0001
0001
0000
0000
0100
0100
0001
0000
0000
0000
0000
0000
0001
0001
1000
0000
0010
0010
0100
0000
,
0000
0000
0000
0000
0000
0000
0000
0000
1000
1000
0010
0000
1000
1000
0010
0000
0001
0001
0100
0000
0000
0000
0000
0000
0001
0001
1000
0000
0010
0010
0001
0000
,
0000
0000
0000
0000
0000
0000
0000
0000
0001
0001
0100
0000
1000
1000
0010
0000
0100
0000
0000
0000
0000
0000
1000
0000
0001
0000
0000
0000
1000
0000
0000
0000
,
0100
0000
0010
0000
0001
0000
0010
0000
1000
0000
0000
0010
0001
0000
1000
0000
,
0100
0000
0010
0000
0001
0000
0010
0000
1000
0000
0000
0010
0001
0000
1000
0000
,
0100
0000
0000
0000
0100
0001
0100
0001
1000
0000
0010
0001
1000
0000
0100
0000
,
0001
0000
1000
0000
0001
0000
1000
0000
0001
0000
1000
0000
0001
0000
1000
0000
0001
0000
1000
0000
0001
0000
1000
0000
0001
0000
0000
0000
0000
0000
0000
0000
0000
0010
0000
0000
1000
0000
0000
0000
0000
0000
0001
0000
0000
0000
0000
0000
,
0100
0000
1000
0000
0001
0000
0010
0000
1000
0000
0000
0001
0100
0000
1000
0000
,
0001
0000
0000
0000
0010
1000
0001
0100
1000
0000
0001
0010
1000
0000
0001
0000
,
1100
0000
0000
0000
0000
0000
0000
0000
0100
1000
0001
1000
0100
0000
0001
0000
,
1000
0000
0100
0000
0001
0000
1000
0000
0010
0000
0000
0001
1000
0000
0100
0000
,
0001
0000
1000
0010
0001
1000
0100
0000
0001
0000
0000
1000
0010
0000
0001
0000
,
1000
0000
0100
0001
1000
0010
0001
0000
1000
0000
0000
0100
0001
0000
1000
0000
,
0010
0000
0001
0000
1000
0000
0100
0000
0001
0000
0000
1000
0010
0000
0001
0000
,
1000
0000
0100
0000
0001
0000
1000
0000
0010
0000
0000
0100
1000
0000
0001
0000
,
0010
0000
1000
0000
0001
0000
0100
0000
1000
0000
0000
0001
0010
0000
1000
0000
,
0020
0000
0000
0000
0000
0000
0000
0030
0100
0000
0000
0001
1000
0000
0010
0000
,
0001
1000
0100
0001
1000
0000
0110
0000
,
1001
0000
0000
0000
0101
0000
0000
0000
1000
0000
0000
0001
1000
0000
0100
0000
,
0002
0000
0000
0000
0000
0000
0000
0000
1003
0000
0000
0010
0100
0000
1000
0000
,
0002
0000
0000
0000
0000
0000
0000
0003
1000
0000
0000
0100
0001
0000
1000
0000
,
0010
0000
0000
0000
0001
1000
0100
0001
1000
0000
0010
0001
1000
0000
0100
0000
,
0001
0000
0100
0000
0001
0000
0100
0000
0001
0000
0100
0000
0001
0000
1000
0000
0010
0000
0100
0000
0001
0000
1000
0000
0010
0000
0000
0000
0000
0000
0000
0000
0000
0001
0000
0000
1000
0000
0000
0000
0000
0000
0100
0000
0000
0000
0000
0000
,
0002
0000
0000
0000
0000
0000
0003
0000
1000
0000
0000
0010
0001
0000
1000
0000
,
0200
0000
0000
0000
0301
1000
0010
0001
1000
0000
0100
0001
1000
0000
0010
0000
,
0002
0000
0000
0000
0000
0000
0003
0000
1000
0100
1000
0100
0001
0000
1000
0000
,
0010
0000
0000
0001
0000
0000
1000
0000
0000
0100
0000
0000
0001
0000
1000
0000
0010
0000
0001
0000
1000
0000
0100
0000
,
0001
1000
0010
0001
0010
1000
0010
0001
1000
0100
0001
1000
,
0010
0001
1000
0100
0001
1000
0010
0001
1000
0100
0001
1000
,
0010
0001
0010
1000
0010
0001
1000
0100
0001
1000
0010
0001
,
1000
0100
0001
1000
0010
0001
0010
1000
0010
0001
1000
0100
,
0001
0010
0100
1000
0010
0001
1000
0100
0001
1000
0010
0001
,
1000
0000
0000
0000
0100
0000
0000
0000
0001
0000
0000
0000
1000
0000
0000
0000
0010
0000
0000
0000
0001
0000
0000
0000
0110
0000
0000
0000
0000
0000
0000
0000
0000
0010
0000
0000
1000
0000
0000
0000
0000
0000
0001
0000
0000
0000
0000
0000
,
0100
0000
0000
0000
0000
0000
0000
0000
0010
0000
0000
1000
0001
0000
0100
0000
,
1000
0000
0000
0000
0000
0000
0000
0000
0001
0000
0000
0010
1000
0000
0001
0000
,
0100
0000
0000
0000
1000
0001
1000
0001
1000
0000
0100
0001
1000
0000
0010
0000
,
0001
0000
1000
0000
0100
0000
1000
0000
0001
0000
0010
0000
0001
0000
1000
0000
0100
0000
1000
0000
0001
0000
0010
0000
0100
0000
0000
0000
0000
0000
0000
0000
0000
0001
0000
0000
1000
0000
0000
0000
0000
0000
0010
0000
0000
0000
0000
0000
,
0001
0000
0000
0000
0000
0000
0000
0000
1000
0000
0000
0010
0001
0000
1000
0000
,
0100
0000
0000
0000
0001
0100
1000
0010
0001
0000
1000
0100
0001
0000
1000
0000
,
0010
0000
0000
0000
0000
0000
0000
0000
0001
1000
0100
0001
1000
0000
0010
0000
,
0001
0000
1000
0000
0100
0000
0001
0000
1000
0000
0000
0010
0001
0000
1000
0000
,
0100
0000
0001
1000
0010
0001
1000
0000
0100
0000
0000
0001
1000
0000
0010
0000
,
0001
0000
1000
0010
0001
0010
0001
0000
0100
0000
0000
0001
1000
0000
0010
0000
,
0001
0000
1000
0000
0100
0000
0001
0000
0010
0000
0000
0100
1000
0000
0010
0000
,
0001
0000
1000
0000
0100
0000
0001
0000
1000
0000
0000
0010
0001
0000
1000
0000
,
0100
0000
0001
0000
1000
0000
0010
0000
0001
0000
0000
0010
1000
0000
0001
0000
,
0200
0000
0000
0000
0000
0000
0000
0300
0010
0000
0000
1000
0001
0000
0001
0000
,
1000
0100
0001
1000
0010
0000
0001
0000
,
1000
0000
0000
0000
0100
0000
0000
0000
0001
0000
0000
0000
1000
0000
0000
0010
,
0001
1000
0100
0001
1000
0000
0010
0001
,
0010
0000
0000
0000
1000
0000
0000
0000
0001
0000
0000
0000
0100
0000
0000
1000
,
0001
0010
1000
0001
0100
0000
0010
1000
,
0010
0000
0000
0000
0110
0000
0000
0000
0000
0000
0000
0000
0101
0000
0000
1000
,
0010
0001
1000
0100
0001
0000
1000
0010
,
0001
0000
0000
0000
1000
0000
0000
0000
0100
0000
0000
0000
0010
0000
0000
0001
,
1000
0100
0010
0001
0010
0000
0100
0001
,
0100
0000
0000
0000
1001
0000
0000
0000
0110
0000
0000
0000
0010
0000
0000
1000
,
0001
0100
1000
0001
0010
0000
1000
0001
,
0100
0000
0000
0000
1000
0000
0000
0000
0001
0000
0000
0000
0010
0000
0000
1000
,
0001
0100
1000
0001
0010
0000
1000
0001
,
0100
0000
0000
0000
0110
0000
0000
0000
0000
0000
0000
0000
0101
0000
0000
1000
,
0010
0001
1000
1000
0010
0000
1000
0001
,
0100
0000
0000
0000
1000
0000
0000
0000
0001
0000
0000
0000
0010
0000
0000
1000
,
0001
0100
1000
0001
0010
0000
1000
0010
,
0001
1000
0110
0000
;

//---------------dance-single - ----------------
#NOTES:
     dance-single:
     :
     Easy:
     3:
     0.279,0.422,0.015,0.015,0.042,254.000,2.000,2.000,0.000,0.000:
0000
0000
0000
0000
0000
0000
0000
0000
0000
1000
0000
0000
1000
0000
0001
0000
,
0000
0000
0000
0000
0100
0000
0001
0000
1000
0100
0000
0000
0001
0100
0010
1000
,
0000
0000
0000
0000
1000
0001
0100
0001
1000
0010
0000
0000
1000
0100
1000
0010
,
0000
0000
0000
0000
0001
1000
0001
1000
0010
0000
0000
0000
1000
0000
0000
0000
,
0001
0000
0010
0001
,
0001
0000
1000
0100
,
0100
0010
0010
0001
,
0001
1000
0100
0010
,
0100
0000
0001
1000
,
0010
0000
0010
1000
,
0001
0000
0010
0010
,
0100
0100
0100
0010
,
1000
0001
1000
0100
,
0010
0001
0010
0100
,
0001
0001
0001
1000
,
0100
1000
0100
1000
,
0001
0001
0100
1000
,
0100
0000
0010
1000
,
0100
1000
0010
1000
,
0100
0001
0010
1000
,
0001
0000
1000
0100
,
1000
0000
0100
0001
,
0100
0010
0001
0010
,
0010
0010
0010
0001
,
0001
0000
0100
1000
,
0001
0100
0010
1000
,
0100
0000
0010
0010
,
1000
0100
0010
0010
,
1000
1000
0010
0010
,
0010
1000
1000
0010
,
0100
1000
0010
0001
,
0100
1000
0010
1000
,
0100
1000
0010
0100
,
1000
0010
0100
0001
,
0100
0000
0010
1000
,
0001
0000
1000
0000
,
0000
0010
0100
0000
,
1000
0000
0010
1000
,
0001
0000
1000
0100
,
1000
0100
1000
0010
,
0100
0000
0010
0010
,
0100
0100
0010
0100
,
1000
0100
1000
0100
,
0010
0001
0100
0001
,
1000
0010
0100
0001
,
1000
0010
0100
0001
,
0100
0010
1000
0001
,
0002
0000
0000
0003
0010
0000
1000
0000
,
0001
0100
1000
0100
,
0001
1000
0100
0010
,
1000
0001
0100
0010
,
0100
0001
1000
0100
,
0010
0010
0100
0001
,
0001
0000
2000
0000
0000
3000
0100
0000
,
0010
0100
1000
0100
,
1000
0010
0100
1000
,
0001
0001
0100
0010
,
1000
0100
0011
0100
,
1000
0100
0010
1000
,
0100
0001
1000
0100
,
0010
1000
0010
0100
,
1000
0001
0100
0001
,
0010
0100
1000
0001
,
0100
1000
0010
0100
,
1000
0001
0100
0100
,
0010
1000
0011
0000
;
