#TITLE:Icecap Zone - Act 1;
#SUBTITLE:- Sonic 3;
#ARTIST:Sonic Team;
#TITLETRANSLIT:;
#SUBTITLETRANSLIT:;
#ARTISTTRANSLIT:;
#CREDIT:;
#BANNER:Icecap Zone - Banner.PNG;
#BACKGROUND:Icecap Zone - Background.PNG;
#LYRICSPATH:;
#CDTITLE:;
#MUSIC:Sonic 3 - Icecap Zone - Act 1.mp3;
#OFFSET:0.654;
#SAMPLESTART:43.459;
#SAMPLELENGTH:12.000;
#SELECTABLE:YES;
#BPMS:0.000=138.060;
#STOPS:;
#BGCHANGES:;
// cache tags:
#FIRSTBEAT:2.000;
#LASTBEAT:214.000;
#SONGFILENAME:Songs/new cc/Sonic 3 - Icecap Zone - Act 1 (Crazylegz Edit)/Sonic 3 - Icecap Zone - Act1.sm;
#HASMUSIC:1;
#HASBANNER:1;
#MUSICLENGTH:95.169;
// end cache tags

//---------------dance-single - ----------------
#NOTES:
     dance-single:
     :
     Hard:
     9:
     0.636,0.646,0.189,0.515,0.536,357.000,18.000,49.000,0.000,0.000:
0000
0000
0000
0000
0000
0000
0000
0000
1000
0000
1000
0000
0000
0000
0001
0100
,
0001
0000
0100
0000
0000
0000
1000
0100
1000
0000
0100
0000
0000
0000
0010
0100
,
0010
0000
0100
0000
0000
0000
0001
0100
0001
0000
0010
0000
0000
0000
1000
0100
,
1000
0000
0010
0000
0000
0000
1000
0001
0100
0000
0100
0000
0000
0000
0001
1000
,
0100
0000
0100
0000
0000
0000
1000
0000
0001
0000
0001
0000
0000
0000
1000
0100
,
0010
0000
0010
0000
0000
0000
0001
0010
0100
0000
0100
0000
0000
0000
1000
0100
,
0010
0000
0010
0000
0000
0000
0001
0100
0010
0000
0010
0000
0000
0000
1000
0010
,
0100
0000
0100
0000
0000
0000
0001
0010
0100
0000
0100
0000
0000
0000
1000
0010
,
0100
0000
0100
0000
0000
0000
0001
0000
1000
0000
0100
0000
1000
0100
0000
1000
,
0000
1000
0000
0000
0000
0000
0001
0000
0100
0000
0001
0000
0100
0001
0000
0100
,
0000
0100
0000
0000
0000
0000
1000
0000
0010
0000
1000
0000
0010
0100
0000
0001
,
0000
0001
0000
0000
0000
0000
0010
0000
0100
0000
1000
0000
0100
0010
0000
0001
,
0000
1000
0000
0000
0000
0000
0010
0000
0100
0000
0001
0000
0100
0001
0000
0100
,
0000
0001
0000
0000
0000
0000
0010
0000
0100
0000
1000
0000
0100
1000
0000
0100
,
0000
1000
0000
0000
0000
0000
0010
0000
0100
0000
0010
0000
1000
0010
0000
0100
,
0000
0100
0000
0000
0000
0000
0001
0000
0010
0000
0100
0000
1000
0100
0000
1000
,
0000
1000
0000
0000
0000
0000
0010
0000
0200
0000
0000
0000
0302
0000
0000
0000
,
0023
0000
0000
0000
0130
0000
0000
0000
0010
0000
0000
0001
0000
0000
1000
0000
,
0010
0000
0000
0000
1000
0010
1000
0000
0020
0000
0000
0000
0230
0000
0000
0000
,
0320
0000
1030
1000
2000
0000
3000
0000
,
0001
0010
0100
1000
0100
0010
0100
0010
0002
0000
0000
0000
2003
0000
0000
0000
,
3020
0000
0000
0000
0130
0000
0000
0000
0001
0000
0000
0011
0000
0000
1000
0000
,
1100
0010
0200
0302
,
2003
3020
0200
0330
,
1000
0100
0010
0001
0010
0100
1000
0100
0010
0000
0001
0000
0001
0010
0000
0100
,
0000
2000
0000
0000
3001
0000
0000
0000
1000
0000
0010
0000
0100
0001
0000
0010
,
0000
0020
0000
0000
0031
0000
0000
0000
0010
0000
0100
0000
1000
0100
0000
1000
,
0000
0020
0000
0000
0130
0000
0000
0000
0001
0000
0010
0000
0100
0010
0000
0100
,
0000
2000
0000
0000
3001
0000
0000
0000
0100
0000
0001
0000
0100
0001
0000
0100
,
0000
0001
0000
0000
0000
0000
0100
0000
1000
0000
0100
0000
1000
0100
0000
1000
,
0000
0100
0000
0000
0000
0000
0001
0000
1000
0000
0001
0000
1000
0001
0000
1000
,
0000
0001
0000
0000
0000
0000
0000
0000
2002
0000
0000
0000
0000
0000
3003
0000
,
0020
0000
0200
0030
0301
0010
0100
1000
,
0100
0000
0010
0000
0001
0010
0001
0000
0010
0000
0100
0000
0010
0000
0001
0000
,
1000
0000
0010
0000
0100
0010
0100
0000
0010
0000
1000
0000
0001
0000
0010
0000
,
0001
0000
1000
0000
0010
1000
0001
0000
0202
0000
0000
0000
0303
0000
0000
0000
,
0001
0010
0100
1000
0010
0100
0001
0010
0100
0000
1000
0000
0100
0000
0010
0000
,
0001
0000
1000
0000
0010
0100
0010
0000
1000
0000
0001
0000
1000
0000
0100
0000
,
1000
0000
0010
0000
1000
0100
1000
0000
0010
0000
0100
0000
0001
0000
0010
0000
,
0001
0000
0100
0000
0001
0010
0001
0000
2200
0000
0000
0000
3300
0000
0000
0000
,
0010
0100
0010
1000
0010
0100
0010
1000
0020
0000
0000
0000
0230
0000
0000
0000
,
0302
0000
0000
0000
1003
0000
0000
0000
0011
0000
0000
0110
0000
0000
1100
0000
,
1100
1010
0002
0203
,
0320
1030
2002
3003
,
1000
0001
1000
0001
1000
0001
1000
0001
2000
0000
0000
0000
3020
0000
0000
0000
,
0230
0000
0000
0000
0301
0000
0000
0000
1010
0000
0000
0110
0000
0000
0101
0000
,
0101
0011
2000
3002
,
0023
0031
0022
0033
,
0001
0000
1000
0000
0001
0000
0010
0000
0001
0000
1000
0000
0100
1000
0000
0100
,
0000
0200
0000
0000
1300
0000
0000
0000
0010
0000
0100
0000
0001
0100
0000
0001
,
0000
0002
0000
0000
1003
0000
0000
0000
0001
0000
1000
0000
0010
0100
0000
0010
,
0000
0020
0000
0000
1030
0000
0000
0000
0001
0000
0100
0000
0001
0100
0000
0001
,
0000
0002
0000
0000
1003
0000
0000
0000
2002
0000
0000
0000
0000
0000
0000
0000
,
0000
0000
3003
0000
;

//---------------dance-single - Copied from----------------
#NOTES:
     dance-single:
     Copied from:
     Challenge:
     11:
     0.857,0.928,0.147,0.284,1.000,530.000,14.000,27.000,0.000,0.000:
0000
0000
0000
0000
0000
0000
0000
0000
1000
0000
1000
0000
0000
0000
0001
0100
,
0001
0000
0100
0000
0000
0000
1000
0100
1000
0000
0100
0000
0000
0000
0010
0100
,
0010
0000
0100
0000
0000
0000
0001
0100
0001
0000
0010
0000
0000
0000
1000
0100
,
1000
0000
0010
0000
0000
0000
1000
0001
0100
0000
0100
0000
0000
0000
0001
1000
,
0100
0000
0100
0000
0000
0000
1000
0000
0001
0000
0001
0000
0000
0000
1000
0100
,
0010
0000
0010
0000
0000
0000
0001
0010
0100
0000
0100
0000
0000
0000
1000
0100
,
0010
0000
0010
0000
0000
0000
0001
0100
0010
0000
0010
0000
0000
0000
1000
0010
,
0100
0000
0100
0000
0000
0000
0001
0010
0100
0000
0100
0000
0000
0000
1000
0010
,
0100
0000
0100
0000
0000
0000
0001
0000
1000
0000
0100
0000
0000
0000
1000
0100
,
1000
0000
0010
0000
0000
0000
0100
0001
0010
0000
0010
0000
0000
0000
0100
1000
,
0010
0000
0010
0000
0000
0000
1000
0100
1000
0000
0001
0000
0000
0000
0001
0100
,
0001
0000
1000
0000
0000
0000
0010
0100
0010
0000
1000
0000
0000
0000
0010
0100
,
0010
0000
0010
0000
0000
0000
1000
0000
0100
0000
0010
0000
0000
0000
0001
0010
,
0100
0000
1000
0000
0000
0000
0001
0100
0001
0000
0001
0000
0000
0000
1000
0100
,
1000
0000
1000
0000
0000
0000
0001
0010
0100
0000
0100
0000
0000
0000
1000
0100
,
0010
0000
0010
0000
0000
0000
0001
0100
0001
0000
0100
0000
0000
0000
1000
0100
,
1000
0000
0100
0000
0000
0000
0010
0000
0100
1000
0100
0010
0001
0010
0100
1000
,
0100
1000
0100
0010
0100
0010
0100
0010
0001
0010
0001
0010
0001
0010
0100
1000
,
0100
1000
0100
1000
0010
0100
0010
0100
0010
0100
0001
0010
0001
0010
0001
0100
,
0010
0100
0010
1000
0100
1000
0100
1000
0001
0100
0001
0100
0001
1000
0010
0100
,
0001
1000
0010
0100
0001
1000
0010
0100
0001
0010
0100
1000
0100
0010
0100
1000
,
0100
0010
0100
0010
0100
0010
0001
0010
0001
1000
0001
1000
0001
0100
0001
0100
,
0001
0100
0001
1000
0001
1000
0001
1000
0100
1000
0100
1000
0100
1000
0010
0100
,
0010
0100
0010
0100
0001
0100
0010
1000
0001
0100
0010
1000
0001
0100
0010
1000
,
0010
0100
0001
1000
0010
0100
0001
1000
0001
0000
0001
0000
0001
0010
0000
0100
,
0000
2000
0000
0000
3001
0000
0001
0000
1000
0000
0010
0000
0100
0001
0000
0010
,
0000
0020
0000
0000
0031
0000
0001
0000
0010
0000
0100
0000
1000
0100
0000
1000
,
0000
0020
0000
0000
0130
0000
0100
0000
0001
0000
0010
0000
0100
0010
0000
0100
,
0000
1000
0000
0000
0001
0100
0001
0000
0100
0000
0001
0000
0100
0001
0000
0100
,
0000
0002
0000
0000
1003
0000
0100
0000
1000
0000
0100
0000
1000
0100
0000
1000
,
0000
0200
0000
0000
1300
0000
0001
0000
1000
0000
0001
0000
1000
0001
0000
1000
,
0000
0001
0000
0000
1000
0100
0010
0001
0022
0000
0000
0000
0000
0000
0033
0000
,
0020
0000
0000
0000
0200
0000
0030
0000
0310
0001
0010
0100
1000
0100
0010
0001
,
0010
0001
0010
0001
1000
0001
1000
0001
0100
0001
0100
0001
0100
0001
1000
0100
,
1000
0100
1000
0100
1000
0010
0100
0010
0100
0010
0100
0001
0010
0001
0100
0010
,
0100
0010
0100
0001
0100
0001
0100
0001
1000
0010
0100
0001
1000
0010
0100
0001
,
1000
0010
0100
0001
0010
0100
1000
0001
0010
0100
1000
0001
0010
0100
0010
0001
,
1000
0100
0010
0100
1000
0100
1000
0100
1000
0010
0100
0001
0100
0010
1000
0010
,
0100
0001
0100
0010
1000
0001
0010
0100
0010
0100
0010
0100
1000
0100
1000
0100
,
1000
0001
1000
0001
1000
0001
0100
0001
0100
0001
0100
0001
0010
0001
0010
0001
,
0010
0001
1000
0010
0100
0001
1000
0010
0020
0000
0000
0000
0230
0000
0000
0000
,
0301
0000
0000
0000
1000
0100
0010
0000
0011
0000
0000
0110
0000
0000
1100
0000
,
1100
0010
1010
0000
0002
0000
0203
0000
,
0310
0000
0000
0000
1000
0001
1000
0000
2002
0000
0000
0000
3003
0000
0000
0000
,
1000
0001
1000
0010
1000
0100
1000
0001
2000
0000
0000
0000
3020
0000
0000
0000
,
0130
0000
0000
0000
0001
0100
0001
0000
1010
0000
0000
0110
0000
0000
0101
0000
,
0101
0001
0011
0000
2000
0000
3002
0000
,
0013
0000
0000
0000
1000
0100
0010
0001
0022
0000
0000
0000
0033
0000
0000
0000
,
0001
0100
0010
1000
0010
0100
0001
0010
0001
0000
1000
0000
0100
1000
0000
0100
,
0000
0200
0000
0000
1300
0000
1000
0000
0010
0000
0100
0000
0001
0100
0000
0001
,
0000
0002
0000
0000
1003
0000
1000
0000
0001
0000
1000
0000
0010
0100
0000
0010
,
0000
0020
0000
0000
1030
0000
0001
0000
0001
0000
0100
0000
0001
0100
0000
0001
,
0000
0002
0000
0000
1003
0000
0010
0000
2002
0000
0000
0000
0000
0000
0000
0000
,
0000
0000
3003
0000
;

//---------------dance-single - ----------------
#NOTES:
     dance-single:
     :
     Medium:
     5:
     0.401,0.386,0.420,0.210,0.016,207.000,40.000,20.000,0.000,0.000:
0000
0000
0000
0000
1000
0001
0000
0001
,
0100
0001
0000
1000
0100
1000
0000
0010
,
1000
0100
0000
0100
0010
0001
0000
0001
,
0010
0001
0000
0010
0100
1000
0000
1000
,
1000
1000
0000
0001
0100
0010
1000
0100
,
1000
0000
1000
0000
1000
0100
0010
0000
,
0001
0000
0001
0000
0001
0010
0100
1000
,
0100
0010
0001
1000
0001
0000
0010
0000
,
0010
1001
1001
0001
,
0101
0010
1010
0100
,
1100
1000
1001
0010
,
1001
0100
2001
0000
,
0001
0000
3001
0000
1000
0010
0100
0010
,
1000
0000
1000
0000
0001
0010
0100
1000
,
1000
0000
1000
0000
0010
0100
0001
0010
,
0001
0001
0220
0000
,
0000
0330
1001
0110
,
1001
0000
0000
0000
0000
0000
0000
0000
0001
0000
0000
0010
0000
0000
0100
0000
,
1000
0000
1001
0110
,
1001
0000
0002
0000
,
0000
0000
0000
0003
0101
0000
1001
0000
,
1010
0000
0000
0000
0000
0000
0000
0000
1000
0000
0000
0010
0000
0000
0100
0000
,
0001
0000
1010
1001
,
0101
0000
2000
0000
,
0000
0000
0000
0000
3001
0010
0100
1000
,
0100
0000
0100
0000
1000
0100
0010
0100
,
1000
0000
1000
0000
1000
0010
0100
0001
,
0010
0000
0010
0000
0100
0001
0010
0001
,
0100
0100
0010
1001
,
0100
1001
0010
0101
,
1000
0101
0001
0110
,
1000
1010
0100
0101
,
0010
0000
0010
0000
2000
0000
0200
3000
,
0020
0300
0000
0000
0001
0000
0001
0000
,
0031
0000
0000
0000
1000
0010
0100
0000
,
0001
0101
2001
0000
,
0000
0000
0000
3000
0020
0000
0200
0030
,
0002
0300
0000
0000
0010
0000
0010
0000
,
0013
0000
0000
0000
0001
0010
0100
0000
,
1000
1100
1002
0000
,
1000
1003
1000
0010
,
0100
0001
0010
0001
,
0100
0000
0010
1000
0100
0000
1000
0000
,
0001
1000
0001
0000
2002
0000
0000
0000
,
0000
0000
3003
0000
0001
1000
0020
0000
,
0130
0000
0000
0000
0001
0000
0000
0000
0010
0000
0000
0100
0000
0000
1000
0000
,
0100
0000
0000
0000
1000
0010
0100
0001
,
0010
0010
2002
0000
,
0000
3000
1003
0000
,
1010
0000
0101
0000
,
0011
0000
0110
0000
,
1100
0000
2002
0000
,
0000
0000
3003
0000
;

//---------------dance-single - ----------------
#NOTES:
     dance-single:
     :
     Easy:
     3:
     0.281,0.303,0.200,0.410,0.000,129.000,19.000,39.000,0.000,0.000:
0000
0000
2000
0000
,
3002
0000
0203
0000
,
0320
0000
2030
0000
,
3200
0000
0320
0000
,
0000
0000
0032
0000
,
2003
0000
3020
0000
,
0230
0000
0302
0000
,
0023
0000
0230
0000
,
0000
1000
2300
0001
,
3002
0100
0203
0010
,
0320
1000
2030
0100
,
3200
0010
0320
0000
,
0001
0031
1000
0010
,
0100
0101
0001
0010
,
0001
0011
0010
0100
,
1000
1001
2002
0000
,
0000
3003
0010
1000
,
0001
0000
0010
0100
,
1000
0000
0001
0001
,
1000
1000
0020
0000
,
0000
0000
0000
0030
0100
0000
0001
0000
,
1000
0000
0100
0010
,
0001
0000
0100
0010
,
1000
0001
2000
0000
,
0000
3000
1001
0000
,
1100
0000
0110
0000
,
0011
0000
0101
0000
,
0110
0000
2002
0000
,
0000
3003
1010
0000
,
0110
0000
0101
0000
,
0011
0000
0110
0000
,
1100
0000
2002
0000
,
0000
3003
0010
0010
,
0010
0000
1000
0001
,
0100
0000
0001
0001
,
0001
1000
1002
0000
,
0000
0000
0000
0003
1000
0000
1000
0000
,
1000
0000
0100
0100
,
0100
0000
0010
0001
,
0010
0100
2000
0000
,
0000
0000
3010
0000
,
0001
0000
0100
0000
,
0010
0000
1000
0000
,
0100
0000
0010
0001
,
1000
0010
0100
0100
,
0001
0000
0010
0010
,
0100
0000
1000
1000
,
0010
0100
0002
0000
,
0000
0000
2003
0000
,
3200
0000
0320
0000
,
0032
0000
0203
0000
,
0320
0000
2030
0000
,
0000
0000
3000
0000
;
