#TITLE:Maximizer;
#SUBTITLE:;
#ARTIST:Pory;
#TITLETRANSLIT:;
#SUBTITLETRANSLIT:;
#ARTISTTRANSLIT:;
#CREDIT:;
#BANNER:maximizer-bn.png;
#BACKGROUND:Maximizer-bg.png;
#LYRICSPATH:;
#CDTITLE:!reachTitle.png;
#MUSIC:[-=_ Pory _=-][Maximizer][Techno].mp3;
#OFFSET:-0.120;
#SAMPLESTART:29.999;
#SAMPLELENGTH:12.000;
#SELECTABLE:YES;
#BPMS:0.000=162.000;
#STOPS:;
#BGCHANGES:;
// cache tags:
#FIRSTBEAT:4.000;
#LASTBEAT:297.000;
#SONGFILENAME:Songs/Keyboard Collaboration II/Reach - Maximizer/Maximizer.sm;
#HASMUSIC:1;
#HASBANNER:1;
#MUSICLENGTH:112.543;
// end cache tags

//---------------dance-single - ----------------
#NOTES:
     dance-single:
     :
     Hard:
     13:
     1.000,1.000,1.000,0.018,1.000,858.000,159.000,2.000,0.000,0.000:  // measure 1
0000
0000
0000
0000
,  // measure 2
1000
0000
0001
0010
0000
0010
0100
0000
1000
0000
0100
0010
0000
0010
0001
0000
,  // measure 3
1000
0001
0000
1000
0000
0010
1000
0000
0001
0100
0000
1000
0000
0001
1000
0000
,  // measure 4
0001
0000
0010
0100
0000
0100
1000
0000
0001
0000
1000
0010
0000
0100
0001
0000
,  // measure 5
0010
0000
0100
0010
0000
0010
1000
0000
0001
0010
0000
1000
0000
0001
0010
0000
,  // measure 6
0100
0000
1000
0001
0000
0001
1000
0000
0010
0000
1000
0010
0000
0010
1000
0000
,  // measure 7
0001
0000
1000
0010
0000
0100
0001
0000
1000
0010
0000
0100
0000
0001
1000
0000
,  // measure 8
0100
0000
0100
0001
0000
0001
0100
0000
1000
0000
0010
0100
0000
0100
0001
0000
,  // measure 9
1000
0000
0100
0010
0000
0010
0001
0000
1000
0010
0000
0100
0000
0001
1000
0000
,  // measure 10
1100
0000
0001
0100
0000
0010
1000
0000
0100
0000
0010
0100
0000
0100
0001
0000
,  // measure 11
1000
0000
0010
1000
0000
0100
0001
0000
1000
0010
0000
1000
0000
0001
1000
0000
,  // measure 12
0110
0000
1000
0010
0000
0100
0001
0000
1010
0000
0100
0010
0000
0010
1000
0000
,  // measure 13
0110
0000
0001
1000
0000
0100
0001
0000
0100
1000
0000
0010
0000
0100
0001
0000
,  // measure 14
1010
0000
0001
0000
0110
0000
1000
0010
0100
0000
0010
0000
1001
0000
0100
1000
,  // measure 15
0100
0000
0010
0000
1001
0000
0100
0001
0100
0000
0010
0000
1100
0000
0001
1000
,  // measure 16
0001
0000
0010
0000
1100
0000
0010
1000
0010
0000
0100
0000
0101
0000
1000
0100
,  // measure 17
1001
0000
0001
0000
0001
0000
0001
0000
0110
0100
0010
1000
0110
1000
0001
0100
,  // measure 18
1001
0000
0100
1000
0000
0001
0100
0000
1010
0000
0100
0001
0100
0010
1000
0010
,  // measure 19
0101
0000
1000
0001
0000
0001
1000
0000
0110
0000
1000
0010
1000
0100
0001
0100
,  // measure 20
0011
0000
1000
0010
0000
0010
1000
0000
0011
0000
1000
0001
1000
0010
0100
0010
,  // measure 21
1001
0000
0010
0100
0000
0100
0010
0000
1100
0000
0010
0100
0001
0100
0010
0100
,  // measure 22
1001
0000
0100
0001
0000
0010
1000
0000
0110
0000
1000
0001
0100
0001
0010
0001
,  // measure 23
1100
0000
0000
0000
0000
0000
0010
0000
0000
0100
0000
0000
0000
0000
0000
1000
0000
0000
0001
0000
0000
0000
0000
0000
0101
0000
0000
0000
0000
0000
1000
0000
0000
0010
0000
0000
0100
0000
0000
0001
0000
0000
0010
0000
0100
0000
0010
0000
,  // measure 24
1001
0000
1000
0001
0000
0010
0100
0000
1010
0000
0001
1000
0001
1000
0001
1000
,  // measure 25
0110
0000
0000
1000
0000
0000
0001
0000
0000
0010
0000
0000
0010
0000
0000
0010
0000
0000
1000
0010
0100
0001
1000
0010
,  // measure 26
1001
0000
0001
0010
0000
0100
0001
0000
0001
0010
0000
0000
0100
0000
1000
0000
,  // measure 27
0001
0000
0001
0010
0000
1000
0001
0000
0001
0010
0000
0000
1000
0000
0100
0000
,  // measure 28
0001
0000
0001
0010
0000
0001
1000
0000
0001
0010
0000
0000
1000
0000
0100
0000
,  // measure 29
0001
0000
0001
0010
0000
0001
1000
0000
0001
0010
0000
0000
1000
0100
0010
0001
,  // measure 30
1000
0000
1000
0100
0000
0010
1000
0000
1000
0100
0000
0000
0010
0000
0100
0000
,  // measure 31
1000
0000
1000
0100
0000
0010
1000
0000
1000
0100
0000
0000
0010
0000
0100
0000
,  // measure 32
1000
0000
1000
0100
0000
1000
0010
0001
0010
1000
0100
1000
0010
0000
0100
0000
,  // measure 33
1001
0000
1000
0100
0000
0010
1000
0000
1000
0100
0000
0000
0010
0100
0001
1000
,  // measure 34
0101
0000
1000
0010
1100
0010
1100
0000
1001
0000
0010
1000
0001
0100
0001
1000
,  // measure 35
0101
0000
0010
1000
0101
0010
0101
0000
1010
0000
0001
0010
0100
1000
0100
0010
,  // measure 36
1001
0000
0100
0001
0110
1000
0110
0000
1001
0000
0010
1000
0001
0100
0010
0100
,  // measure 37
1001
0000
0000
0000
0000
0000
0100
0000
1000
0100
0010
0001
0010
0000
0000
0000
1100
0000
0000
0000
0001
0000
1000
0000
0010
0000
0100
0000
0001
0000
1000
0000
,  // measure 38
0110
0000
1000
0010
0101
0010
1100
0000
1001
0000
1000
0010
1000
0010
0100
0001
,  // measure 39
1010
0000
0000
0000
0001
0000
1000
0000
0101
0000
0010
0000
1100
0000
0000
0000
1001
0000
0000
0000
0010
0000
0100
0000
1000
0100
0010
0001
0100
0000
0010
0000
,  // measure 40
1001
0000
0010
0100
0011
1000
0101
0000
1010
0000
0100
0001
1000
0010
0100
0010
,  // measure 41
0001
0010
0100
1000
0100
0010
0001
0010
0100
0000
0000
0000
1010
0000
0000
0000
0101
0000
0000
0000
1100
0000
0000
0000
1000
0000
0001
0000
0100
0000
0010
0000
,  // measure 42
1001
0000
0000
0101
0000
0000
1010
0000
0101
0000
0000
1010
0000
0000
0011
0000
,  // measure 43
1100
0000
0000
1001
0000
0000
1001
0000
1100
0000
0001
0000
1000
0000
0010
0000
,  // measure 44
1001
0000
0000
1100
0000
0000
0011
0000
0110
0000
0000
1001
0000
0000
1100
0000
,  // measure 45
0101
0000
0000
1001
0000
0000
1100
0000
0011
0000
1000
0000
0010
0000
0100
0000
,  // measure 46
0101
0000
0000
1001
0000
0000
1100
0000
0110
0000
0000
1001
0000
0000
0011
0000
,  // measure 47
0110
0000
0000
1001
0000
0000
1010
0000
0110
0000
1000
0000
0010
0000
0100
0000
,  // measure 48
0011
0000
0000
0001
0000
0000
0001
0000
0010
0000
0000
0010
0000
0000
0010
0000
,  // measure 49
0100
0000
0000
0100
0000
0000
1000
0000
1000
0100
0010
0001
0010
0100
1000
0100
,  // measure 50
1001
0010
0100
1000
0100
0010
0001
0100
0010
1000
0100
0010
0001
1000
0001
0010
,  // measure 51
0100
1000
0100
0010
0001
0100
0010
1000
0100
0010
0001
0010
0100
1000
0010
0100
,  // measure 52
1001
0010
0100
1000
0100
0010
0001
0100
0010
1000
0100
0010
0001
0010
0100
1000
,  // measure 53
0010
0100
0001
0010
0100
0010
0001
1000
0010
0100
0001
0010
0100
1000
0010
0100
,  // measure 54
1001
0010
0100
1000
0100
0010
0001
0100
0010
1000
0100
0010
0001
1000
0001
0100
,  // measure 55
0010
0100
0001
0010
0100
0010
0001
1000
0100
0010
0100
1000
0001
1000
0010
0100
,  // measure 56
1001
0010
0100
1000
0001
0100
0001
0010
0001
0010
0100
1000
0010
0100
0001
1000
,  // measure 57
0100
0010
0001
0100
0010
1000
0010
0100
0001
1000
0001
0100
0010
1000
0001
0100
,  // measure 58
1001
0010
0001
0010
0001
0100
0001
0100
0001
0010
0001
1000
0001
1000
0001
1000
,  // measure 59
0101
0000
1000
0101
0000
0010
1100
0000
0110
0000
1001
0010
1000
0010
0100
0001
,  // measure 60
1010
0000
0101
0010
0000
1100
0010
0000
1001
0000
0010
1000
0001
0100
0010
0100
,  // measure 61
1001
0000
1000
0101
0000
0010
1100
0000
1001
0000
0110
1000
0001
0100
0010
0100
,  // measure 62
1001
0000
0000
0000
1100
0000
0010
0000
0000
0000
0001
0000
0010
0100
1000
0100
0010
0000
0000
0000
1001
0000
0100
0000
0010
0000
0100
0000
0001
0000
0100
0000
,  // measure 63
1001
0000
1000
0101
0000
0010
1001
0000
0110
0000
1100
0010
0100
0001
1000
0010
,  // measure 64
1001
0000
1100
0010
0000
0011
0100
0000
1001
0000
1100
0010
0100
0001
1000
0010
,  // measure 65
1001
0000
0000
0000
0000
0000
0001
0010
0100
1000
0100
0000
0000
0000
0001
0010
0100
1000
0100
0000
1000
0000
0001
0000
1000
0000
0010
0000
0100
0000
0010
0000
,  // measure 66
1001
0000
0000
0000
1000
0000
0100
0000
0010
0100
0010
0100
0000
0000
0001
0000
0000
0001
0000
0000
0000
0001
0000
0000
0000
0000
0001
0000
0000
0000
0001
0000
,  // measure 67
1001
0000
1000
0110
0000
0001
1010
0000
1001
0100
0000
1010
0100
0001
1000
0010
,  // measure 68
1001
0000
0011
0100
0000
1100
0010
0000
1001
0010
0000
1100
0010
0100
0001
1000
,  // measure 69
0110
0000
1001
0010
0000
1010
0100
0000
0101
0010
0000
1001
0100
0010
0100
0010
,  // measure 70
1001
0000
0010
0000
1000
0000
0010
0000
0100
0000
0010
0000
0100
0000
0001
0000
0010
0000
0100
0000
1000
0100
0010
0001
0010
0000
0100
0000
1000
0000
0100
0000
,  // measure 71
1001
0000
0010
1100
0000
0010
0101
0000
0010
1100
0000
0011
1000
0010
0100
0010
,  // measure 72
1001
0000
1100
0010
0000
0101
0010
0000
1100
0001
0000
1100
0010
0100
0001
0100
,  // measure 73
1001
0000
1000
0101
0000
0010
1100
0000
0010
1001
0000
0110
0001
1000
0010
0100
,  // measure 74
1001
0000
0100
1000
0010
0100
0010
0100
1001
0010
0001
1000
0010
0100
0010
1000
,  // measure 75
2002
3003
0000
0000
;
