#TITLE:Speedchip Slayer;
#SUBTITLE:;
#ARTIST:Bokusatsu Shoujo Koubou;
#TITLETRANSLIT:;
#SUBTITLETRANSLIT:;
#ARTISTTRANSLIT:;
#CREDIT:;
#BANNER:speedchipslayer-bn.png;
#BACKGROUND:speedchipslayer-bg.png;
#LYRICSPATH:;
#CDTITLE:;
#MUSIC:Speedchip Slayer.ogg;
#OFFSET:0.009;
#SAMPLESTART:69.996;
#SAMPLELENGTH:20.000;
#SELECTABLE:YES;
#BPMS:0.000=192.007;
#STOPS:;
#BGCHANGES:;
// cache tags:
#FIRSTBEAT:0.000;
#LASTBEAT:831.500;
#SONGFILENAME:Songs/SPEEEDCOOOORE 4/Speedchip Slayer - [Rynker]/speedchip slayer.sm;
#HASMUSIC:1;
#HASBANNER:1;
#MUSICLENGTH:261.615;
// end cache tags

//---------------dance-single - Rynker----------------
#NOTES:
     dance-single:
     Rynker:
     Challenge:
     17:
     1.000,1.000,0.000,0.011,1.000,2840.000,0.000,3.000,0.000,0.000:
0001
0000
0100
0000
0000
0010
0000
0000
1000
0000
0100
0000
0010
0000
0001
0000
,
1000
0000
0001
0000
0000
0100
0000
0000
0010
0000
1000
0000
0001
0000
0100
0000
,
0001
0000
1000
0000
0000
0100
0000
0000
0010
0000
0100
0000
1000
0000
0010
0000
,
0100
0000
0001
0000
0000
1000
0000
0000
0001
0000
0010
0000
0100
0000
1000
0000
,
0001
0000
0100
0000
0000
0010
0000
0000
1000
0000
0001
0000
0010
0000
0001
0000
,
1000
0000
0100
0000
0000
0010
0000
0000
0001
0000
1000
0000
0010
0000
0100
0000
,
0010
0000
1000
0000
0000
0100
0000
0000
0010
0000
0001
0000
1000
0000
0100
0000
,
0010
0000
0001
0000
0000
1000
0000
0000
0001
0000
0100
0000
0010
0000
1000
0000
,
0001
0000
0100
0001
0000
1000
0100
0000
0010
0000
0001
1000
0000
0001
0100
0000
,
0010
0000
1000
0010
0000
0100
0001
0000
1000
0000
0100
0010
0000
0001
0100
0010
,
1000
0000
0001
1000
0000
0010
1000
0000
0001
0000
0010
0100
0000
1000
0001
0000
,
1000
0000
0010
0100
0000
0010
1000
0000
0001
0000
0010
0001
0000
1000
0100
0010
,
0001
0000
1000
0001
0000
0100
0001
0000
1000
0000
0100
0010
0000
0100
1000
0000
,
0001
0000
0100
0010
0000
0100
0001
0000
1000
0000
0100
0010
0000
0100
1000
0010
,
0100
0000
0010
1000
0000
0001
0100
0000
0001
0000
1000
0010
0000
0100
0001
0000
,
1000
0100
0010
0001
1000
0100
0010
0100
1000
0001
1000
0001
1000
0001
0010
0001
,
0100
0010
1000
0001
1000
0100
0010
0100
1000
0001
1000
0010
0100
0001
0100
0001
,
0010
0100
1000
0001
0100
0001
1000
0010
1000
0001
0100
0001
1000
0010
0100
0010
,
1000
0100
0010
0001
1000
0100
0010
0001
1000
0010
1000
0100
0010
0001
0010
0001
,
0100
0010
1000
0001
0100
0010
1000
0001
1000
0100
0010
0001
1000
0010
0100
0010
,
1000
0100
0010
0001
0010
0100
1000
0001
1000
0001
0010
0100
1000
0001
0010
0001
,
0100
0010
1000
0001
1000
0001
0100
0010
0100
0001
1000
0001
0010
0100
1000
0100
,
1000
0010
0100
0001
0100
0010
1000
0001
0010
0100
1000
0001
0100
0010
1000
0010
,
1000
0100
0010
0001
0010
0100
1000
0010
0100
0001
0010
0100
1000
0000
0000
0000
,
0001
1000
0010
0100
0010
1000
0001
0010
0100
1000
0100
0010
0001
1000
0001
0100
,
0010
1000
0001
0100
0010
1000
0010
0100
0001
0010
0100
1000
0010
0100
0001
0100
,
0010
1000
0001
0010
0100
1000
0100
0010
0001
1000
0001
1000
0010
0100
0001
1000
,
0100
0010
0001
0100
0010
1000
0001
0010
0100
1000
0100
0010
0001
0010
0100
1000
,
0001
0100
0010
1000
0010
0100
0001
1000
0100
0010
0100
1000
0001
1000
0010
0100
,
0010
1000
0001
0010
0100
1000
0100
0010
0001
0100
0010
1000
0100
1000
0001
0010
,
0001
1000
0100
0010
0100
1000
0001
1000
0010
0100
0010
1000
0001
0100
0010
1000
,
0001
0010
0001
1000
0100
0010
0100
1000
0010
0100
0001
0010
0100
1000
0100
0010
,
0001
0100
0010
1000
0010
0100
0001
0010
0100
1000
0100
0010
0001
1000
0010
0100
,
0010
0100
0001
1000
0100
0010
0001
0100
0010
1000
0001
0010
0100
1000
0100
0010
,
0001
1000
0010
1000
0010
0100
0001
0010
0001
0010
0100
1000
0001
1000
0010
0100
,
0001
1000
0010
0100
0001
1000
0100
0010
0001
1000
0001
0100
0010
1000
0001
1000
,
0001
0010
0100
1000
0001
1000
0010
0100
0001
1000
0100
1000
0001
0010
0100
1000
,
0001
0100
0010
1000
0001
0100
0010
1000
0100
0010
0001
0100
0010
1000
0010
0100
,
0001
1000
0001
1000
0100
0010
0001
0010
0100
1000
0001
1000
0001
0100
0010
0100
,
0001
1000
0100
1000
0001
0010
0001
1000
0001
0100
0010
0100
0001
1000
0010
0100
,
0001
1000
0100
1000
0001
0010
0100
0010
0001
1000
0001
0100
0010
0100
0001
1000
,
0100
0010
0001
0010
0100
1000
0001
0100
0010
1000
0010
0100
0001
1000
0001
1000
,
0100
0010
0001
0010
0100
1000
0001
0100
0010
1000
0001
0100
0010
1000
0001
1000
,
0100
0010
0001
0010
0100
1000
0001
1000
0010
0100
0001
0100
0010
1000
0001
1000
,
0100
0010
0001
0010
0100
1000
0001
1000
0001
0100
0010
0100
0001
1000
0001
1000
,
0100
0010
0001
0010
0100
1000
0001
0100
0010
1000
0010
0100
0001
1000
0001
0010
,
0100
1000
0100
0010
0001
0010
0100
1000
0001
1000
0001
0100
0010
1000
0001
1000
,
0100
0010
0001
0010
0100
1000
0100
0000
1000
0001
1000
0001
0010
0100
1000
0001
,
1000
0001
0100
0010
0100
0001
1000
0001
0010
0100
0010
0001
1000
0001
0100
0010
,
1000
0010
0100
0001
1000
0001
0010
0100
1000
0010
0100
0001
1000
0100
0010
0001
,
0010
0100
1000
0001
0100
0001
1000
0010
0100
0001
1000
0100
1000
0001
0010
0100
,
1000
0001
0100
0010
1000
0010
0100
0001
1000
0001
1000
0010
0100
0001
1000
0100
,
0010
0001
0010
0100
1000
0001
0100
0001
1000
0010
0100
0001
1000
0100
0010
0001
,
1000
0001
1000
0100
0010
0001
0010
0100
1000
0010
0100
0001
0100
0010
1000
0001
,
0100
0001
1000
0100
0010
0001
1000
0100
0010
0001
1000
0001
0100
0010
1000
0001
,
0100
0001
1000
0100
0010
0001
0010
0100
1000
0000
0000
0000
0000
0000
0000
0000
,
0001
1000
0100
0010
0100
1000
0010
0100
0010
1000
0001
0100
0001
1000
0100
0010
,
0001
0010
0100
1000
0001
1000
0100
0010
0001
0100
0010
1000
0010
0100
0001
1000
,
0100
0010
0001
0010
0001
1000
0100
0010
0001
1000
0010
0100
0001
0100
0010
1000
,
0001
1000
0010
1000
0001
0100
0001
1000
0001
0010
0100
1000
0100
0010
0100
1000
,
0010
1000
0001
0100
0001
0100
0001
0010
0100
1000
0100
0010
0001
1000
0010
0100
,
0001
0100
0010
1000
0001
0010
0100
1000
0010
0100
0001
1000
0001
1000
0100
0010
,
0001
0010
0100
1000
0001
1000
0010
0100
0001
1000
0001
0010
0100
1000
0001
0010
,
0100
0000
1000
0000
0001
0000
0100
0000
0001
0100
0001
0100
0001
0100
0010
1000
,
0100
0010
0001
1000
0010
1000
0001
0100
0010
1000
0001
0100
0010
1000
0100
1000
,
0001
0010
0100
0010
0100
1000
0001
1000
0001
0010
0100
1000
0001
0010
0001
0100
,
0010
1000
0010
0100
0001
0010
0001
0010
0100
1000
0100
1000
0001
0100
0001
0010
,
0100
1000
0001
0010
0100
1000
0010
0100
0001
0100
0010
1000
0001
0100
0010
1000
,
0100
0010
0001
0010
0100
1000
0001
0010
0001
1000
0100
1000
0001
0100
0010
1000
,
0100
1000
0001
0010
0100
1000
0100
0010
0001
1000
0010
1000
0001
0010
0001
0100
,
0010
1000
0010
1000
0001
0100
0001
0100
0010
1000
0010
1000
0001
0010
0100
1000
,
0010
0100
0001
0100
0010
1000
0100
1000
0001
0010
0001
0100
0010
1000
0001
1000
,
0001
0100
0010
1000
0010
1000
0001
0100
0010
1000
0001
0100
0010
1000
0100
1000
,
0001
0010
0100
0010
0100
1000
0001
1000
0001
0010
0100
1000
0001
0010
0001
0100
,
0010
1000
0010
0100
0001
0010
0001
0010
0100
1000
0100
1000
0001
0100
0001
0010
,
0100
1000
0001
0010
0100
1000
0010
0100
0001
0100
0010
1000
0001
0100
0010
1000
,
0100
0010
0001
0010
0100
1000
0001
0010
0001
1000
0100
1000
0001
0100
0010
1000
,
0100
1000
0001
0010
0100
1000
0100
0010
0001
1000
0010
1000
0001
0010
0001
0100
,
0010
1000
0010
1000
0001
0100
0001
0100
0010
1000
0010
1000
0001
0010
0100
1000
,
0040
0030
4000
3000
0004
0003
0040
0030
0004
0003
0000
0000
0000
0000
0000
0000
,
1000
0010
0100
0001
0100
0010
1000
0001
1000
0010
0100
0001
0100
0010
1000
0100
,
0010
0001
0010
0100
1000
0001
0010
0001
1000
0100
0010
0001
0010
0100
1000
0001
,
0100
0010
1000
0010
0100
0001
1000
0001
1000
0010
0100
0010
1000
0001
1000
0001
,
0010
0100
1000
0100
0010
0001
0010
0100
1000
0100
0010
0001
1000
0100
1000
0001
,
0100
0010
1000
0001
0100
0010
1000
0001
0100
0010
0100
0001
1000
0010
1000
0001
,
0010
0100
1000
0100
0010
0001
0010
0100
1000
0001
1000
0001
0010
0100
1000
0001
,
1000
0010
0100
0010
1000
0001
1000
0010
0100
0010
1000
0001
1000
0001
0100
0010
,
1000
0001
0010
0100
1000
0100
0010
0001
0100
0001
0010
0001
1000
0010
0100
0010
,
1000
0001
0010
0001
1000
0010
1000
0001
0010
0001
0010
0100
1000
0100
0010
0001
,
1000
0010
0100
0001
1000
0100
1000
0001
0100
0001
1000
0010
1000
0001
0100
0010
,
1000
0001
0010
0001
1000
0010
1000
0001
0010
0100
1000
0001
0100
0001
1000
0100
,
1000
0001
0100
0001
1000
0010
1000
0001
0100
0001
1000
0010
1000
0001
0010
0100
,
1000
0001
0010
0001
1000
0010
1000
0001
0010
0100
1000
0100
0010
0001
1000
0001
,
0100
0001
1000
0100
1000
0001
0100
0001
1000
0100
1000
0001
0010
0100
1000
0001
,
1000
0001
0010
0001
1000
0100
1000
0001
0010
0001
1000
0010
1000
0001
0010
0100
,
1000
0010
0100
0001
0010
0100
1000
0010
0100
0001
0010
0100
,
1000
0010
1000
0001
1000
0100
0010
0100
1000
0001
1000
0010
0100
0001
0100
0001
,
0010
0100
1000
0001
0100
0001
1000
0010
1000
0001
0100
0001
1000
0010
0100
0010
,
1000
0100
0010
0001
1000
0100
0010
0001
1000
0010
1000
0100
0010
0001
0010
0001
,
0100
0010
1000
0001
0100
0010
1000
0001
1000
0100
0010
0001
1000
0010
0100
0010
,
1000
0100
0010
0001
0010
0100
1000
0001
1000
0001
0010
0100
1000
0001
0010
0001
,
0100
0010
1000
0001
1000
0001
0100
0010
0100
0001
1000
0001
0010
0100
1000
0100
,
1000
0010
0100
0001
0100
0010
1000
0001
0010
0100
1000
0001
0100
0010
1000
0010
,
1000
0000
0001
0000
1000
0100
1000
0010
0100
0000
0001
1000
0000
1000
0001
0100
,
0010
0000
1000
0000
0000
0010
0000
0000
0100
0000
0001
0000
0100
0000
0010
0000
,
1000
0000
0001
0000
0000
0010
0000
0000
0100
0000
0010
0000
0001
0000
1000
0000
,
0010
0000
0100
0000
0000
0001
0000
0000
1000
0000
0100
0000
0010
0000
0001
0000
,
1000
0000
0010
0000
0000
1000
0000
0000
0001
0000
0010
0000
0100
0000
1000
0000
,
0001
0000
0100
0000
0000
0010
0000
0000
1000
0000
0001
0000
0010
0000
0100
0000
,
0010
0000
0001
0000
0000
0100
0000
0000
0010
0000
1000
0000
0001
0000
1000
0000
,
0100
0000
0010
0000
0000
0001
0000
0000
0100
0000
0010
0000
0100
0000
0001
0000
,
0010
0000
0100
0000
0000
1000
0000
0000
0001
1000
0010
1000
0001
0100
0001
1000
,
0001
0000
1000
0000
0000
0000
0100
1000
0100
0000
0000
0000
1000
0000
0010
0000
,
0000
0000
0100
0001
0100
0000
0001
1000
0001
1000
0001
0000
1000
0000
0100
1000
,
0100
0000
0000
0000
1000
0000
0010
0000
0000
0000
1000
0100
1000
0000
0001
0000
,
1000
0001
1000
0000
0001
0000
0100
0001
0100
0000
0001
0000
1000
0000
0100
0000
,
1000
0000
0010
0000
0000
0000
0100
0001
0100
0000
0000
0000
0001
0000
1000
0000
,
0000
0000
0100
1000
0100
0000
1000
0001
1000
0001
1000
0000
0001
0000
0100
0001
,
0200
0000
0000
0000
0310
0000
1000
0000
0000
0000
0001
0100
0001
0000
1000
0100
,
1000
0100
1000
0000
0010
0000
0100
0001
1000
0001
0100
0001
1000
0001
0100
0000
,
0001
1000
0100
0000
0000
0000
1000
0001
0100
0000
0000
0000
0010
0000
0100
0000
,
0000
0000
0001
1000
0001
0000
1000
0001
0100
0001
1000
0000
0001
0000
1000
0001
,
0200
0000
0000
0000
0301
1000
0100
0000
0000
0000
1000
0100
1000
0000
0001
0100
,
0001
0100
0001
0000
1000
0000
0100
1000
0100
0000
1000
0000
0010
0000
0100
0000
,
0001
1000
0100
0000
0000
0000
1000
0001
0100
0000
0000
0000
0010
0000
1000
0000
,
0000
0000
0100
1000
0001
0000
0100
0001
1000
0100
1000
0000
0001
0000
0100
0001
,
2000
0000
0000
0000
3010
0000
1000
0000
0001
0100
0001
0000
0010
0100
1000
0001
,
1000
0010
0100
0010
1000
0001
0010
0001
1000
0100
0010
0100
1000
0001
0010
0100
,
1000
0010
0100
0001
0100
0001
1000
0010
0100
0001
1000
0010
0100
0001
0010
0001
,
1000
0100
0010
0100
0010
0001
1000
0001
1000
0100
0010
0001
1000
0100
1000
0010
,
0100
0001
0100
0010
1000
0100
1000
0100
0010
0001
0010
0001
1000
0010
1000
0100
,
0010
0001
1000
0100
0010
0001
0100
0010
1000
0010
0100
0001
1000
0010
0100
0001
,
0010
0100
1000
0100
0010
0001
1000
0100
1000
0001
0010
0001
1000
0010
0100
0001
,
0010
0001
1000
0100
0010
0001
0010
0100
1000
0001
0100
0001
1000
0100
1000
0010
,
0100
0001
0100
0001
1000
0010
1000
0010
0100
0001
0100
0001
1000
0100
0010
0001
,
0100
0010
1000
0010
0100
0001
0010
0001
1000
0100
1000
0010
0100
0001
1000
0001
,
1000
0010
0100
0001
0100
0001
1000
0010
0100
0001
1000
0010
0100
0001
0010
0001
,
1000
0100
0010
0100
0010
0001
1000
0001
1000
0100
0010
0001
1000
0100
1000
0010
,
0100
0001
0100
0010
1000
0100
1000
0100
0010
0001
0010
0001
1000
0010
1000
0100
,
0010
0001
1000
0100
0010
0001
0100
0010
1000
0010
0100
0001
1000
0010
0100
0001
,
0010
0100
1000
0100
0010
0001
1000
0100
1000
0001
0010
0001
1000
0010
0100
0001
,
0010
0001
1000
0100
0010
0001
0010
0100
1000
0001
0100
0001
1000
0100
1000
0010
,
0100
0001
0100
0001
1000
0010
1000
0010
0100
0001
0100
0001
1000
0100
0010
0001
,
0400
0300
0004
0003
4000
3000
0400
0300
1000
0000
0001
0000
0100
0000
0000
0000
,
0001
0100
0010
1000
0010
0100
0001
1000
0001
0100
0010
1000
0010
0100
0001
0010
,
0100
1000
0100
0010
0001
1000
0100
1000
0001
0010
0100
1000
0100
0010
0001
1000
,
0010
0100
0001
0100
0010
1000
0001
1000
0001
0100
0010
0100
0001
1000
0001
1000
,
0100
0010
0001
0010
0100
1000
0100
0010
0001
0010
0100
1000
0001
1000
0001
0100
,
0010
0100
0001
1000
0010
0100
0001
1000
0010
0100
0010
1000
0001
0100
0001
1000
,
0100
0010
0001
0010
0100
1000
0100
0010
0001
1000
0001
1000
0100
0010
0001
1000
,
0001
0100
0010
0100
0001
1000
0001
0100
0010
0100
0001
1000
0001
1000
0010
0100
,
0001
1000
0100
0010
0001
0010
0100
1000
0010
1000
0100
1000
0001
0100
0010
0100
,
0001
1000
0100
1000
0001
0100
0001
1000
0100
1000
0001
0100
0001
1000
0100
0010
,
0001
1000
0100
1000
0001
0010
0001
1000
0010
1000
0001
0100
0001
0100
0010
1000
,
0001
1000
0100
1000
0001
0100
0001
1000
0100
0010
0001
1000
0010
1000
0001
0100
,
0001
1000
0100
1000
0001
0100
0001
1000
0010
1000
0001
0100
0001
1000
0100
0010
,
0001
1000
0100
1000
0001
0100
0001
1000
0100
0010
0001
0010
0100
1000
0001
1000
,
0010
1000
0001
0100
0001
1000
0100
1000
0001
0100
0001
1000
0100
0010
0001
1000
,
0001
1000
0100
1000
0001
0010
0001
1000
0100
1000
0001
0100
0001
1000
0100
0010
,
0001
0100
0010
1000
0100
0010
0001
0100
0010
1000
0100
0010
,
0001
0100
0001
1000
0001
0010
0100
0010
0001
1000
0001
0100
0010
1000
0010
1000
,
0100
0010
0001
1000
0010
1000
0001
0100
0001
1000
0010
1000
0001
0100
0010
0100
,
0001
0010
0100
1000
0001
0010
0100
1000
0001
0100
0001
0010
0100
1000
0100
1000
,
0010
0100
0001
1000
0010
0100
0001
1000
0001
0010
0100
1000
0001
0100
0010
0100
,
0001
0010
0100
1000
0100
0010
0001
1000
0001
1000
0100
0010
0001
1000
0100
1000
,
0010
0100
0001
1000
0001
1000
0010
0100
0010
1000
0001
1000
0100
0010
0001
0010
,
0001
0100
0010
1000
0010
0100
0001
1000
0100
0010
0001
1000
0010
0100
0001
0100
,
0001
0010
0100
1000
0100
0010
0001
0100
0010
1000
0100
0010
0001
1000
0100
1000
,
0001
0100
0001
1000
0100
1000
0001
0010
0001
1000
0010
1000
0001
0100
0001
1000
,
0100
0010
0001
1000
0010
1000
0001
0100
0001
1000
0010
1000
0001
0010
0100
1000
,
0001
0100
0001
1000
0100
0010
0001
1000
0010
1000
0001
0100
0001
1000
0100
1000
,
0001
0100
0001
1000
0010
1000
0001
0100
0001
1000
0100
0010
0001
1000
0100
1000
,
0001
0100
0001
1000
0100
0010
0001
0010
0100
1000
0001
1000
0010
1000
0001
0100
,
0001
1000
0100
1000
0001
0100
0001
1000
0100
0010
0001
1000
0001
1000
0100
1000
,
0001
0010
0001
1000
0100
1000
0001
0100
0001
1000
0100
0010
0001
0100
0010
1000
,
0001
0000
0000
0000
0010
0000
0000
0000
0100
0000
0000
0000
1000
0000
0000
0000
0010
0000
0000
0000
0100
0000
0000
0000
0001
0000
0000
0000
0010
0000
0000
0000
0100
0000
0000
0000
1000
0000
0000
0010
0000
0000
1000
0000
0000
0001
0000
0000
,
1000
0100
0010
0100
1000
0001
0010
0100
1000
0001
1000
0010
0100
0001
0100
0001
,
0010
0100
1000
0001
0100
0001
1000
0010
1000
0001
0100
0001
1000
0010
0100
0010
,
1000
0100
0010
0001
1000
0100
0010
0001
1000
0010
1000
0100
0010
0001
0010
0001
,
0100
0010
1000
0001
0100
0010
1000
0001
1000
0100
0010
0001
1000
0010
0100
0010
,
1000
0100
0010
0001
0010
0100
1000
0001
1000
0001
0010
0100
1000
0001
0010
0001
,
0100
0010
1000
0001
1000
0001
0100
0010
0100
0001
1000
0001
0010
0100
1000
0100
,
1000
0010
0100
0001
0100
0010
1000
0001
0010
0100
1000
0001
0100
0010
1000
0010
,
1000
0100
0010
0001
0010
0100
1000
0010
0100
0001
0010
0100
1000
0000
0000
0000
,
0001
0100
0001
1000
0001
0010
0100
0010
0001
1000
0001
0100
0010
1000
0010
1000
,
0100
0010
0001
1000
0010
1000
0001
0100
0001
1000
0010
1000
0001
0100
0010
0100
,
0001
0010
0100
1000
0001
0010
0100
1000
0001
0100
0001
0010
0100
1000
0100
1000
,
0010
0100
0001
1000
0010
0100
0001
1000
0001
0010
0100
1000
0001
0100
0010
0100
,
0001
0010
0100
1000
0100
0010
0001
1000
0001
1000
0100
0010
0001
1000
0100
1000
,
0010
0100
0001
1000
0001
1000
0010
0100
0010
1000
0001
1000
0100
0010
0001
0010
,
0001
0100
0010
1000
0010
0100
0001
1000
0100
0010
0001
1000
0010
0100
0001
0100
,
0001
0010
0100
1000
0100
0010
0001
0100
0001
0000
1000
0001
0100
0000
0000
0000
,
0001
0000
1000
0000
0000
0100
0000
0000
0010
0000
0001
0000
0010
0000
0100
0000
,
1000
0000
0001
0000
0000
0100
0000
0000
0010
0000
0100
0000
0001
0000
1000
0000
,
0100
0000
0010
0000
0000
0001
0000
0000
1000
0000
0010
0000
0100
0000
0001
0000
,
1000
0000
0100
0000
0000
1000
0000
0000
0001
0000
0100
0000
0010
0000
1000
0000
,
0001
0000
0010
0000
0000
0100
0000
0000
1000
0000
0001
0000
0100
0000
0010
0000
,
0100
0000
0001
0000
0000
0010
0000
0000
0100
0000
1000
0000
0001
0000
1000
0000
,
0010
0000
0100
0000
0000
0001
0000
0000
0010
0000
0100
0000
0010
0000
0001
0000
,
0100
0000
0010
0000
0000
1000
0000
0000
0001
0000
0010
0000
0100
0000
1000
0000
,
0001
0000
0010
0000
0000
0001
0000
0000
1000
0000
0010
0000
0100
0000
0010
0000
,
1000
0000
0001
0000
0000
0100
0000
0000
0010
0000
1000
0000
0001
0000
0010
0000
,
0100
0000
1000
0000
0000
0100
0000
0000
0010
0000
0001
0000
1000
0000
0010
0000
,
0100
0000
0001
0000
0000
1000
0000
0000
0001
0000
0010
0000
0100
0000
1000
0000
,
0001
0000
0010
0000
0000
0001
0000
0000
0010
0000
0001
0000
1000
0000
0010
0000
,
0100
0000
0010
0000
0000
1000
0000
0000
0001
0000
0010
0000
0100
0000
1000
0000
,
0100
0000
0010
0000
0000
0001
0000
0000
1000
0000
0010
0000
0100
0000
0010
0000
,
1000
0000
0001
0000
0000
0010
0000
0000
0100
0000
1000
0000
0100
0000
1000
0000
;
