#TITLE:Sonic Boom;
#SUBTITLE:- Main Theme - Intro;
#ARTIST:Sonic CD;
#TITLETRANSLIT:;
#SUBTITLETRANSLIT:;
#ARTISTTRANSLIT:;
#CREDIT:;
#BANNER:Sonic Boom - Banner.PNG;
#BACKGROUND:Sonic Boom - Background.PNG;
#LYRICSPATH:;
#CDTITLE:;
#MUSIC:Sonic CD - Intro Movie.mp3;
#OFFSET:-0.060;
#SAMPLESTART:64.171;
#SAMPLELENGTH:12.000;
#SELECTABLE:YES;
#BPMS:0.000=187.000;
#STOPS:;
#BGCHANGES:0.000=OPN2.avi=1.000=1=0=0,
99999=-nosongbg-=1.000=0=0=0 // don't automatically add -songbackground-
;
// cache tags:
#FIRSTBEAT:12.000;
#LASTBEAT:273.500;
#SONGFILENAME:Songs/new cc/Sonic CD - Sonic Boom (Intro) (Crazylegz Edit)/Intro.sm;
#HASMUSIC:1;
#HASBANNER:1;
#MUSICLENGTH:93.074;
// end cache tags

//---------------dance-single - ----------------
#NOTES:
     dance-single:
     :
     Hard:
     9:
     0.715,0.660,0.247,0.183,0.081,426.000,23.000,17.000,50.000,10.000:
0000
0000
0000
0000
,
0000
0000
0000
0000
,
0000
0000
0000
0000
,
1000
0100
0010
0001
0010
0100
1000
0000
,
0001
0100
0010
1000
0010
0100
0001
0000
,
1000
0100
0010
0001
0010
0100
1000
0000
,
0001
0100
0010
1000
0010
0100
0001
0000
,
1000
0100
0001
1000
0010
1000
0010
0000
,
0001
0100
1000
0001
0010
0001
0010
0000
,
0010
1000
0100
0001
0010
1000
0100
0000
,
1000
0010
0100
0001
1000
0001
0101
0000
,
1000
0100
0010
0001
0010
0100
1000
0001
,
1000
0100
0010
0001
0010
0100
0010
0001
,
1000
0001
0100
0001
0010
0001
1000
0100
,
1000
0001
0100
1000
0100
0010
1000
0001
,
0010
0100
1000
0100
00M0
1000
0100
0000
,
0010
0001
0010
0100
1000
0100
1000
0000
,
0010
0100
0001
0100
M00M
0010
1000
0000
,
1000
0100
0010
0001
0100
1000
0100
0010
,
0001
1000
0001
1000
0100
0010
1000
0001
,
0010
0100
0001
1000
0010
0100
0001
0100
,
0010
1000
0010
0001
1000
0010
0100
0010
,
2010
0000
0000
0000
00M0
0000
0000
0000
0000
0100
0000
0000
3100
0000
0000
M010
0000
0000
0000
0000
0000
0001
0000
0000
,
0000
0022
0000
0000
0000
0000
0000
0000
,
0000
0000
0000
0000
0000
MM00
1133
0000
,
0001
1000
0000
0200
0000
2000
0000
3311
,
0000
0000
0000
0000
1000
0010
0000
1010
,
1000
0001
0010
0100
1000
0001
1000
0100
,
0010
0100
1000
0001
0100
1000
0100
0010
,
1000
0010
0001
1000
0100
0001
0010
0100
,
0001
1000
0010
0100
0010
1000
0001
0100
,
1000
0010
0100
0010
1000
0010
0100
0001
,
1000
0100
0010
0001
0010
0100
1000
0001
,
0100
1000
0100
0010
1000
0001
0010
0100
,
0001
1000
0010
0100
1000
0001
0100
0001
,
0202
0000
0000
0000
0010
0000
1000
00M0
0000
M000
0010
0000
1303
00M0
0000
M000
,
0020
1000
0100
1030
,
2200
0000
0000
0000
0010
0000
0001
00M0
0000
000M
0010
0000
3301
00M0
0000
000M
,
0200
0010
0001
0310
,
0002
0000
0000
0000
0100
0000
0100
0000
0000
0000
1M00
0000
1003
0000
0000
M000
,
0012
0000
0100
0M00
1000
M000
0103
0M00
,
1000
0100
0010
0001
0100
0010
1000
0100
,
0020
0000
0002
0030
,
10M3
0100
0010
0001
0010
0100
1000
0000
,
0001
0100
0010
1000
0010
0100
0001
0000
,
1000
0100
0010
0001
0010
0100
1000
0000
,
0001
0100
1000
0100
0010
1000
0001
0000
,
1000
0001
0100
1000
0001
0010
1000
0000
,
0001
0010
1000
0001
0100
1000
0001
0000
,
1010
1000
0001
0100
0010
0100
0101
0000
,
0011
0001
0010
0100
1000
0M00
1100
0000
,
1000
0100
0010
0001
0100
0010
1000
0001
,
0100
1000
0100
0010
0001
1000
0001
0010
,
0100
0001
0010
1000
0001
0100
0010
1000
,
0010
0000
0001
0000
1000
0000
0010
0000
0100
00M0
M00M
0M00
1001
0000
0000
0000
,
0001
0100
0010
1000
0010
0001
0100
0001
,
0010
0100
0001
0100
1000
0001
0010
1000
,
0001
0100
1000
0100
0010
1000
0001
0010
,
0100
0000
0001
0000
0100
0000
0010
0000
0100
00M0
0M00
000M
M110
0000
0000
0000
,
1000
0100
0010
0100
1000
0001
0100
1000
,
0010
1000
0100
0001
0010
0001
1000
0100
,
1000
0001
0100
1000
0100
0010
1000
0001
,
1000
0000
0010
0000
1000
0000
0001
0000
1000
0000
M00M
00M0
1M01
0000
0000
0000
,
1000
0100
0010
0001
0010
0100
1000
0001
,
1000
0100
0010
0001
0010
0100
1000
0001
,
0100
0001
0010
MM11
0000
1MM1
0000
M1M1
,
0000
1M1M
0000
M11M
0000
11MM
0000
2MM2
,
0000
0000
0000
0000
,
3003
M00M
0000
0000
;

//---------------dance-single - ----------------
#NOTES:
     dance-single:
     :
     Medium:
     6:
     0.413,0.438,0.269,0.193,0.000,226.000,25.000,18.000,2.000,0.000:
0000
0000
0000
0000
,
0000
0000
0000
0000
,
0000
0000
0000
0000
,
1000
0000
0100
0000
0010
0001
0010
0000
,
0001
0000
0100
0000
0010
1000
0010
0000
,
1000
0000
0010
0000
0100
0001
0100
0000
,
0001
0000
0010
0000
0100
1000
0100
0000
,
1000
0000
0010
0000
0100
0010
0100
0000
,
0001
0000
0010
0000
0100
0010
0100
0000
,
1000
0001
0100
1000
,
0100
0000
0001
0000
1000
0001
0000
1001
,
0000
0000
0000
0000
0001
0100
0000
1001
,
0000
0000
0000
0000
1000
0100
0000
0010
,
0000
0001
0000
0010
0000
0100
0000
2000
,
0000
0000
0000
0000
3001
0000
0010
0100
,
0000
0220
0000
0000
0000
0000
0000
0000
,
0000
0000
0000
0330
,
0001
0100
0010
1000
,
0001
0100
0001
0100
0001
0100
0000
0101
,
0000
0000
0000
0000
1000
0100
0000
1100
,
0000
0000
0000
0000
1000
0010
0000
0100
,
0000
0010
0000
1000
0000
0001
0000
0020
,
0000
0000
0030
0001
1000
0100
0000
1100
,
0000
2002
0000
0000
0000
0000
0000
0000
,
0000
0000
0000
3003
,
1000
0010
0000
0100
0000
0001
0000
0101
,
0000
0000
0000
0000
0001
0010
0000
0011
,
0000
0000
0000
0000
1000
0010
0000
1010
,
0000
0000
0000
0000
0001
1000
0000
0001
,
1000
0001
0000
0010
0000
0100
0000
0010
,
0000
0001
0000
1000
0001
1000
0000
1001
,
0000
0000
0000
0000
0001
0100
0000
0101
,
0000
0000
0000
0000
1000
0100
0000
0100
,
1000
0000
0100
0010
0000
0001
0000
0011
,
0000
0110
0000
1100
0000
1001
0000
0000
,
0001
0000
1000
0010
0000
1000
0020
0000
,
0000
0000
0000
0030
,
0100
0000
0001
0010
0000
0001
0020
0000
,
0000
0000
0000
0030
,
0001
0000
1000
0001
0000
0001
2000
0000
,
0000
0000
0000
3000
,
0210
0000
0000
0000
0000
0010
0000
0310
,
0000
0000
0000
0000
0010
1000
0000
1010
,
0000
0000
0000
0000
0100
0001
0000
0101
,
0000
0000
0000
0000
0001
0010
0000
0100
,
0000
1000
0000
0100
0000
0010
0000
0001
,
0000
0000
1000
0010
1000
0001
0000
1000
,
0000
2002
0000
0000
0000
0000
0000
0000
,
0000
0000
0000
3003
,
0001
0010
0100
1000
,
0001
0000
0100
0000
0001
0100
0000
0101
,
0000
0000
0000
0000
1000
0100
0000
1100
,
0000
0000
0000
0000
0001
0100
0000
0001
,
0100
0001
0000
1000
0000
0001
0000
0010
,
0000
0001
0000
1000
0001
0100
0000
0101
,
0000
0000
0000
0000
0001
1000
0000
1100
,
0000
0000
0000
0000
1000
0001
0000
0100
,
0001
0000
0001
0010
0000
1000
0000
0010
,
0000
0100
0000
1000
0100
2000
0000
0010
,
3000
0000
0000
0000
0100
0002
0000
0010
,
0003
0000
0000
0000
0100
1000
0000
0010
,
1000
0001
0000
0100
0000
0001
0000
0100
,
0000
0010
0000
1000
0100
0020
0000
0001
,
0030
0000
0000
0000
0001
0200
0000
0010
,
0300
0000
0000
0000
1000
0100
0000
0010
,
0001
0010
0000
0001
0000
0100
0000
0010
,
0000
1000
0000
0010
0000
0100
0000
0202
,
M0M0
0000
0000
0000
,
0303
0000
0000
0000
;

//---------------dance-single - ----------------
#NOTES:
     dance-single:
     :
     Easy:
     4:
     0.322,0.431,0.161,0.086,0.000,187.000,15.000,8.000,0.000,0.000:
0000
0000
0000
0000
,
0000
0000
0000
0000
,
0000
0000
0000
0000
,
1000
0100
0010
0001
,
0100
0010
1000
0001
,
0100
0010
1000
0010
,
1000
0100
0010
0001
,
0011
0001
0100
0001
,
0101
0001
1000
0100
,
1100
1000
0010
0100
,
0110
0100
0001
1000
,
0100
0000
0000
0010
0000
0000
0002
0000
,
0000
0000
0000
0003
,
0100
0000
0000
0010
0000
0000
2000
0000
,
0000
0000
0000
3000
,
0001
0000
0000
0100
0000
0000
0020
0000
,
0000
0000
0000
0030
,
1000
0100
0010
0001
,
0010
0100
1000
0001
,
0100
0000
0000
0001
0000
0000
2000
0000
,
0000
0000
0000
3000
,
0001
0000
0000
0010
0000
0000
0200
0000
,
0000
0000
0000
0300
,
1000
0000
0000
0001
0000
0000
0020
0000
,
0000
0000
0000
0030
,
0001
1000
0001
0010
,
0011
0000
0000
0000
,
1000
0001
0100
0010
,
1000
0010
0001
0100
,
1000
0100
0001
0010
,
0100
1000
0001
0100
,
0010
1000
0001
0010
,
0001
1000
0100
0010
,
0100
1000
0010
0100
,
0001
1000
0001
0010
,
0011
0000
0000
1001
0000
0000
0101
0000
,
0000
0000
0000
0000
,
1010
0000
0000
1001
0000
0000
1100
0000
,
0000
0000
0000
0000
,
0110
0000
0000
0011
0000
0000
1001
0000
,
0000
0000
0000
0000
,
2000
0000
0000
0000
,
0002
0000
0000
3003
,
0100
0001
0100
0010
,
1000
0010
0001
0010
,
1000
0100
0001
0100
,
1000
0001
0100
0010
,
1000
0001
0100
0010
,
0100
0001
0010
0100
,
1000
0001
1000
0100
,
0010
0001
1000
0001
,
0100
0000
0001
0000
,
1000
0000
0100
0000
,
0010
0001
0010
0100
,
1000
0001
0100
0010
,
0100
0000
0001
0000
,
1000
0000
0010
0000
,
0100
0001
0100
0010
,
1000
0010
0100
0001
,
0100
0000
0001
0000
,
1000
0000
0100
0000
,
0010
0001
0010
0100
,
1000
0100
1000
0001
,
1000
0000
0010
0000
,
0100
0000
0001
0000
,
0010
0000
0001
0010
0000
0100
0000
1000
,
0000
0100
0000
0010
0000
0001
0000
1001
;

//---------------dance-single - Copied from----------------
#NOTES:
     dance-single:
     Copied from:
     Challenge:
     10:
     0.754,0.698,0.387,0.183,0.210,438.000,36.000,17.000,176.000,13.000:
0000
0000
0000
0000
,
0000
0000
0000
0000
,
0000
0000
0000
0000
,
1000
0100
0010
0001
0010
0100
1100
0000
,
0001
0100
0010
1000
0010
0100
0101
0000
,
1000
0100
0010
0001
0010
0100
1100
0000
,
0001
0100
0010
1000
0010
0100
0101
0000
,
1000
0100
0001
1000
0010
1000
1010
0000
,
0001
0100
1000
0001
0010
0001
0011
0000
,
0010
1000
0100
0001
0100
1000
1100
0000
,
1000
0010
0100
0001
1000
0001
0101
0000
,
1000
0100
0010
M001
0010
0100
1000
0001
,
1000
0100
0010
0001
0010
0100
0010
0001
,
1000
0000
0001
0000
0100
0000
0001
M000
0010
0000
0001
0000
1000
0000
0100
0000
,
1000
0001
0100
100M
0100
0010
1000
0001
,
0010
0100
1000
0100
00M0
1000
0100
0000
,
0010
0000
0001
0000
0010
0000
0100
0000
1000
0000
0100
0000
10M0
0M00
0000
000M
,
0010
0100
0001
0100
M00M
0010
1000
0000
,
1000
0000
0100
0000
M010
0000
0001
0000
0100
0000
10M0
000M
0100
0000
0010
0000
,
0001
1000
0001
1000
0100
001M
1000
0001
,
0010
0100
0001
1000
0010
0100
00M1
0100
,
0010
1M00
0010
0001
1000
001M
0100
001M
,
2M1M
0000
0000
0000
00M0
0000
0000
0000
0000
0100
0000
0000
3100
0000
0000
M010
0000
0000
0000
0000
0000
0001
0000
0000
,
0000
0022
0000
0000
0000
0000
MM00
0000
,
1M00
0000
0000
0000
M100
0000
0000
0M00
1000
0000
MM00
0000
1133
0000
0000
0000
,
0001
1000
0000
M200
0000
2000
0000
3311
,
0000
0000
0000
0000
1000
0010
MMMM
1010
,
1000
0001
0010
0100
1000
0001
1000
0100
,
M010
0100
1000
0001
0100
100M
0100
0010
,
1M00
0010
0001
0000
0001
0000
1000
0000
0100
0000
0001
0000
0010
0000
M100
0000
,
0001
0000
0000
1000
0000
0000
0010
0000
0000
010M
0000
0000
0010
0000
0000
1000
0000
0000
0001
00M0
0000
0100
0000
0000
,
1000
0000
0010
0000
0100
0000
001M
0000
1000
0000
0010
0000
0100
0000
0001
00M0
,
1000
0100
0010
M001
0010
0100
1000
0001
,
0100
1000
01M0
0000
0100
0000
001M
0000
1000
0000
0001
0000
0010
0000
0100
0000
,
00M1
1000
0010
0100
1000
00M1
0100
0001
,
M2M2
0000
0000
0000
0010
0000
1000
00M0
0000
M000
0010
0000
1303
00M0
0000
M000
,
002M
100M
010M
103M
,
2200
0000
0000
0000
0010
0000
0001
00M0
0000
000M
0010
0000
3301
00M0
0000
000M
,
M200
0000
M010
0000
M001
0000
M310
0001
,
0002
0000
0000
0000
0100
0000
0100
0000
0000
0000
1M00
0000
1003
0000
0000
M000
,
0012
0000
0100
0M00
1000
1000
1003
0M00
,
100M
0100
0010
0001
0100
0010
1000
0100
,
0020
000M
0002
0030
,
10M3
0000
0100
000M
0010
0000
0001
0000
0010
0000
0100
0000
1100
0000
0000
0000
,
0001
0100
0010
1M00
0010
0100
0101
0000
,
1000
0100
0010
M001
0010
0100
1100
0000
,
0001
0100
1000
0100
001M
1000
1001
0000
,
1000
0000
0000
0001
00M0
0000
0100
0000
0000
1000
0000
0000
0001
0000
0000
0010
0000
0000
1010
0000
0000
0000
0000
0000
,
0001
0000
0000
0000
0000
0000
0010
0000
0M00
0000
0000
0000
1000
0000
0000
0000
0000
0000
0001
0000
0000
00M0
0000
0000
0100
0000
0000
0000
0000
0000
1000
0000
0000
0000
0000
0000
1001
0000
0000
0000
0000
0000
0000
0000
0000
0000
0000
0000
,
1M1M
1000
0001
0100
001M
0100
M1M1
0000
,
MM11
0000
0001
0000
0010
0000
0100
0000
1000
0M00
0000
0000
11MM
0000
0000
0000
,
1000
0000
0000
0100
0000
0000
0010
0000
0000
M001
0000
0000
0100
0000
0000
0010
0000
0000
1000
0000
0000
0001
00M0
0000
,
0100
1000
0100
0010
0001
10M0
0001
0010
,
0100
0001
0010
0000
0010
0000
1000
0000
0001
0000
0100
0000
0010
0000
1M00
0000
,
0010
0000
0001
0000
1000
0000
0010
0000
0100
00M0
M00M
0M00
1001
0000
0000
0000
,
0001
0100
0010
1M00
0010
0001
01M0
0001
,
0010
0100
00M1
0100
1000
0001
0010
1000
,
0001
0100
1000
0000
0100
0000
0010
0000
1000
0000
0M01
00M0
0001
0000
0010
0000
,
0100
0000
00M1
0000
0100
0000
0010
0000
0100
00M0
0M00
000M
M110
0000
0000
0000
,
1000
0000
0000
0100
0000
0000
M010
0000
0000
0100
0000
0000
1000
0000
0000
0001
00M0
0000
0100
0000
0000
1000
0000
0000
,
0010
0000
1000
0000
0100
0000
0001
0000
M010
0M00
0001
0000
1000
0000
0100
0000
,
1000
0001
0100
0000
0100
0000
1000
0000
0100
0000
001M
0000
1000
0000
0M01
0000
,
1000
0000
001M
0000
1000
0000
00M1
0000
1000
0000
M00M
00M0
1M01
0000
0000
0000
,
1000
0100
0010
MM01
0010
010M
1000
0MM1
,
1000
0000
0100
0000
0010
0000
MM01
0000
0010
0000
010M
0000
1000
0M00
00M1
0000
,
0100
0001
0010
0001
0010
0000
MM11
0000
MMMM
0000
1MM1
0000
MMMM
0000
M1M1
0000
,
MMMM
1M1M
MMMM
11MM
MMMM
MM11
MMMM
2MM2
,
0MM0
0000
0000
0000
,
3003
0000
MMMM
MMMM
0000
0000
0000
0000
;
