#TITLE:Katamari on the Rock;
#SUBTITLE:Katamari Damacy;
#ARTIST:Yu Miyake, Masayuki Tanaka;
#TITLETRANSLIT:;
#SUBTITLETRANSLIT:;
#ARTISTTRANSLIT:;
#CREDIT:;
#BANNER:katamari on the rock.jpg;
#BACKGROUND:katamari on the rock-bg.jpg;
#LYRICSPATH:;
#CDTITLE:vospi.png;
#MUSIC:katamari on the rock.ogg;
#OFFSET:-0.019;
#SAMPLESTART:54.896;
#SAMPLELENGTH:16.680;
#SELECTABLE:YES;
#BPMS:0.000=160.000;
#STOPS:;
#BGCHANGES:;
// cache tags:
#FIRSTBEAT:0.000;
#LASTBEAT:564.000;
#SONGFILENAME:Songs/VGMP 2/Katamari on the Rock (Vospi)/katamari on the rock.sm;
#HASMUSIC:1;
#HASBANNER:1;
#MUSICLENGTH:219.000;
// end cache tags

//---------------dance-single - ----------------
#NOTES:
     dance-single:
     :
     Hard:
     11:
     1.000,1.000,1.000,0.749,0.648,1071.000,332.000,164.000,0.000,1.000:
2000
0000
3002
0000
0023
0000
1030
0000
0000
0000
0000
0000
0010
0010
0100
0000
,
2002
3003
0001
0000
0010
0000
1010
0000
0001
0100
1010
0000
1001
0000
0010
0100
,
2002
3003
0001
0000
0010
0000
1010
0000
0001
0100
1010
0000
1001
0000
0010
0100
,
2002
3003
0001
0000
0010
0000
1010
0000
0001
0100
1010
0000
1001
0000
0010
0100
,
2002
3003
0001
0000
0010
0000
1010
0000
0001
0100
1010
0100
1001
0000
0010
0100
,
2002
3003
0001
0000
0010
0000
1010
0000
0001
0100
1010
0000
1001
0000
0010
0100
,
2002
3003
0001
0000
0010
0000
1010
0000
0001
0100
1010
0000
1001
0000
0010
0100
,
2002
3003
0001
0000
0010
0000
1010
0000
0001
0100
1010
0000
1001
0000
0010
0100
,
2002
0000
0000
3003
0000
0000
0010
0000
0000
0100
0000
0000
1000
0000
0000
0001
0000
0000
0010
0000
0000
0000
0000
0000
0001
0000
0000
0000
0000
0000
0100
0000
0000
0000
0000
0000
1000
0000
0100
0000
0010
0000
0001
0000
0010
0000
0100
0000
,
1001
0000
0000
0101
0000
0000
0011
0000
,
0000
0110
0000
0101
0011
0101
0110
0000
,
1100
0000
0000
0110
0000
0000
0011
0000
,
0000
0110
0000
0101
0011
0101
0110
0000
,
1010
0000
0000
0101
0000
0000
0011
0000
,
0000
0110
0000
1010
0110
1010
1100
0000
,
1100
0000
0000
0101
0000
0000
0011
0000
,
0000
0000
0011
1000
0100
0000
0100
1000
0001
0000
0001
0100
0010
0000
0010
1000
,
0100
0000
0100
0000
0100
0010
0000
0001
,
0000
0001
0000
0001
0001
0000
1000
0000
,
0100
0000
0100
0000
0100
0010
0000
0001
,
0000
0000
0020
0000
0000
0030
0010
0000
0010
0000
0000
0000
0001
0000
0000
0000
,
1000
0000
0001
0000
1000
0000
0010
0100
0010
0000
0001
0000
1000
0000
0100
0010
,
0100
0000
1000
0001
0010
0000
0100
0010
0100
0000
0001
0000
1000
0000
0010
0100
,
1000
0000
0001
0000
1000
0000
0010
0100
0010
0000
0001
0000
1000
0000
0100
0010
,
0100
0000
0001
0100
0000
0000
0010
1000
0000
0001
0000
0001
0100
0000
0100
0010
,
1001
0000
0001
0000
0100
0000
0011
0000
0100
0010
1000
0000
1001
0000
0010
1000
,
0101
0000
0010
0001
1000
0000
0101
0000
1001
0100
1010
0000
0101
0000
0010
1000
,
0101
0000
0001
0000
1000
0000
0110
0000
0010
1000
0001
0000
0101
0000
1000
0000
,
1010
0000
1000
0001
0010
0000
0101
0000
1000
0001
0000
0001
0110
0000
0010
0100
,
1001
0000
1000
0000
0100
0000
0011
0000
0010
0100
0001
0000
1001
0000
0010
0100
,
1001
0000
1010
0001
0100
0000
0011
0000
0000
0100
0010
0000
0101
0000
1000
0100
,
0020
0000
0000
0000
,
0000
0000
0000
0000
0000
0000
0000
0100
,
0032
0000
0000
0000
0003
1100
0110
0011
,
0110
1010
0000
1100
0000
1010
0000
1100
,
0110
0000
0011
0000
1001
1010
0000
0200
,
0000
0000
0001
1000
0001
0000
1000
0001
1000
0000
0001
1000
0301
0000
0110
0001
,
2020
0000
0000
0000
3030
0110
0101
0011
,
0101
0110
0000
1010
0000
0101
0000
1010
,
0110
0000
0011
0000
0110
1010
0000
2000
,
0000
0000
0001
0100
0001
0000
0100
0001
0100
0000
0001
0100
3001
0000
0010
0100
,
0002
0000
0000
0000
0003
1010
0101
0011
,
1010
0110
0000
1100
0000
0110
0000
1100
,
0110
0000
0011
0000
0110
1010
0000
0200
,
1000
0000
0001
1000
0001
0000
1000
0001
1000
0000
0001
1000
0301
0000
0010
1000
,
0200
0000
0000
0000
0300
0110
0101
0011
,
0101
1010
0000
1100
0000
1010
0000
1100
,
1010
0000
0101
0000
1010
1100
0000
1001
,
0000
1010
0000
1100
0000
1010
0000
1001
,
2002
3003
0010
0100
0010
0000
2002
3003
0010
0100
0010
0000
2002
3003
0010
0100
,
1000
0000
1010
0000
1010
0000
1010
0000
0000
1001
0000
1100
0011
0100
0010
1000
,
0020
0000
1030
0001
0000
0100
0000
0100
,
0000
0000
0001
0000
0000
0000
0002
0000
0000
0000
0003
0000
0011
0100
2000
3000
,
0010
0100
0010
0100
0001
1000
0010
0100
0001
0010
0100
1000
0100
0010
0100
1000
,
0100
1000
0100
1000
0100
1000
0010
0100
0010
0100
0010
0100
0001
0010
0001
0010
,
0100
0000
0100
0000
0100
1000
0000
1000
,
0000
0000
0010
0000
0000
0000
0020
0000
0000
0000
0000
0000
0001
0000
0000
0030
,
0001
1000
0010
1000
0001
0100
0010
1000
0100
0010
0001
0010
0100
0010
0100
0010
,
0100
1000
0100
1000
0100
1000
0010
0100
0010
0100
0010
0100
0001
0010
0001
0010
,
0100
0000
0100
0000
0100
1000
0000
1000
,
2000
0000
3002
0000
0203
0000
0310
0000
0010
0100
1000
0100
0001
0010
0001
0010
,
0001
0100
0010
0100
0001
1000
0010
0100
0010
0100
0010
1000
0010
1000
0100
0010
,
0100
1000
0100
1000
0100
1000
0010
0100
0010
0100
0010
0100
0001
0010
0001
0010
,
2002
3003
0000
0000
2002
3003
0000
0000
2002
3003
0000
0000
1001
0000
2002
3003
,
0000
0000
0010
0000
0110
0000
0020
0030
1001
0000
0010
1100
0011
0100
0010
1000
,
0101
0000
0010
0100
0011
0000
1001
0010
0000
1100
0010
0000
1001
0000
0010
0100
,
1001
0000
1001
0000
0010
0000
0101
0000
0001
1000
0100
0000
1001
0000
0010
0100
,
1001
0000
0011
0100
0010
0000
1001
0000
0001
1000
0100
0000
1001
0000
0010
0100
,
1001
0000
1001
0010
0100
0000
0011
0100
0010
1000
0001
0000
1001
0000
0010
0100
,
1001
0000
1000
0010
0100
0000
0011
0000
0100
0011
1000
0100
0011
0000
0100
0010
,
1001
0000
1000
0010
0100
0000
0011
0000
0010
1000
0100
0000
0101
0000
1000
0000
,
1001
0000
1001
0000
0010
0000
0101
0000
0010
1000
0100
0000
0011
0000
1000
0010
,
0101
0000
1001
0000
0100
0000
0011
0000
1000
0010
0100
0000
0011
0000
0100
0001
,
1010
0000
0010
0000
1000
0000
0011
1000
0010
0100
0001
0000
1001
0000
0010
0100
,
1010
0000
0000
1010
0000
1010
0101
0000
,
2002
0000
0000
0000
,
3003
0000
0000
0110
0000
0110
0101
0000
,
2020
0000
0000
0000
,
0000
0000
0000
0000
0000
0000
0000
0000
3030
0001
0000
0100
0001
1000
0010
0100
,
1000
0000
0002
0003
0010
0002
0103
0010
,
0000
0000
0100
0000
0000
0000
0010
0100
0001
0000
0010
0100
0011
0100
0010
1000
,
0010
1000
0100
0010
0001
0100
0010
1000
0100
0010
0001
0100
0010
1000
0100
0010
,
0100
1000
0100
1000
0100
1000
0010
0100
0010
0100
0010
0100
0001
0010
0001
0010
,
1000
1000
1000
1000
1000
0100
0010
0001
,
0110
0000
1001
0000
0020
0030
1001
0000
0000
0000
0010
0100
0011
1000
0010
0100
,
0001
0100
0010
1000
0100
0010
0100
1000
0010
0100
0001
0010
0100
1000
0010
1000
,
0100
1000
0100
1000
0100
1000
0010
0100
0010
0100
0010
0100
0001
0010
0001
0010
,
0001
1000
0010
1000
0001
0010
1001
0100
0010
1001
0010
0100
,
0010
0000
0000
0000
1000
0000
0000
0000
0100
0000
0000
0000
0010
0000
0000
0001
0000
0000
0010
0000
0000
0100
0000
0000
0010
0000
0000
0000
0000
0000
1001
0000
0000
0000
0000
0000
0010
0000
0000
0100
0000
0000
0001
0000
0000
1000
0000
0000
,
0010
1000
0001
0100
0010
1000
0100
0010
0001
1000
0010
0100
0010
1000
0100
0010
,
0100
1000
0100
1000
0100
1000
0001
0010
0001
0010
0001
0010
0100
0010
0100
0010
,
1001
0000
1001
0000
1001
0110
0000
0000
,
0110
0000
1001
0000
0000
0000
2001
0000
3010
0000
0001
0100
0011
1000
0010
0100
,
2002
3003
0110
0000
0000
0000
1010
0000
0001
0100
0010
0000
1001
0000
0100
0000
,
2002
3003
0100
0000
0001
0000
1010
0000
0001
0100
0010
1000
0011
0000
0100
0000
,
0202
0303
1000
0000
0001
0000
0110
0000
0010
1000
0001
0100
0011
0000
0010
1000
,
0202
0303
0101
0000
0001
0000
0110
0000
0010
0100
0011
0000
1001

0000
0010
1000
,
0202
0303
0001
0000
1000
0000
0011
0100
0001
1000
0010
0000
1001
0000
0010
0100
,
2002
3003
0010
0100
0001
0000
1010
0000
0001
0000
0010
0100
0011
0000
0010
1000
,
0202
0303
0001
0000
1000
0000
0011
0100
0010
1000
0001
0000
1001
0000
0001
0100
,
2002
3003
1001
0000
0100
0000
1010
0000
0001
0100
0010
0000
0101
0000
0010
1000
,
0202
0303
0101
0000
1000
0000
0011
0000
0000
0010
0100
0000
1001
0000
0010
0000
,
2002
3003
1001
0000
0100
0000
0010
1000
0001
0100
0010
1000
0100
0000
0001
0100
,
1010
0000
1010
0000
1010
0110
0000
0101
,
0000
0000
0101
0000
0000
0000
0101
0000
0101
0000
0000
0000
0011
0000
0100
0010
,
2002
0000
0000
0000
,
0000
0000
0000
3003
,
0002
0000
0000
0000
0003
1100
0110
0011
,
0110
1010
0000
1100
0000
1010
0000
1100
,
0110
0010
0011
0001
1001
1010
0000
0200
,
0000
0000
0001
1000
0001
0000
1000
0001
1000
0000
0001
1000
0301
0000
0110
0001
,
2020
0000
0000
0000
3030
0110
0101
0011
,
0101
1010
0000
1100
0000
1010
0000
1100
,
0101
0100
0101
0001
1001
1010
0000
0200
,
0000
0000
0001
1000
0001
0000
1000
0001
1000
0000
0001
1000
0301
0000
1100
0010
,
0202
0000
0000
0000
0303
0011
1100
0110
,
1010
1100
0000
1001
0000
1010
0000
1100
,
0110
0010
1010
1000
1001
0110
0000
0200
,
0000
0000
0001
1000
0001
0000
1000
0001
1000
0000
0001
1000
0301
0000
0110
0001
,
0020
0000
0000
0000
0030
1100
0110
0011
,
0110
0000
1010
0000
0000
0000
1100
0000
0000
0000
1010
0000
0000
0000
1100
0001
,
0110
0010
0011
0001
1001
1010
0000
0020
,
0000
0030
0200
0000
0000
0300
2000
0000
0000
3000
0200
0000
0300
0000
0110
0001
,
1010
0000
0000
0000
0000
0000
0000
0000
0000
0000
0000
0000
0200
0000
0000
0000
0000
0000
0000
0000
0000
0300
0000
0010
0002
0000
0000
0000
0000
0000
0000
0000
0000
0000
0000
0000
0003
0000
0000
0000
0000
0000
0000
0000
0000
0000
0000
0000
,
0000
0000
0000
0000
0000
0000
0200
0000
0300
0000
0020
0000
0030
0000
0002
0003
,
0020
0000
0030
0000
2000
0000
0000
3000
0002
0000
0000
0003
0200
0000
0300
0000
,
0000
0000
2020
3030
0000
0000
0202
0303
2020
3030
0000
0000
0202

0303
0000
0000
,
0000
0000
0000
0000
0000
0000
0000
0000
0000
0000
0000
0000
0200
0000
0000
0000
0000
0000
0000
0000
0000
0300
0000
0010
0002
0000
0000
0000
0000
0000
0000
0000
0000
0000
0000
0000
0003
0000
0000
0000
0000
0000
0000
0000
0000
0000
0000
0000
,
0000
0000
0000
0000
0000
0000
0200
0000
0300
0000
0020
0000
0030
0000
0002
0003
,
0020
0000
0030
0000
2000
0000
0000
3000
0002
0000
0000
0003
0200
0000
0320
0000
,
2032
0000
0000
0000
0000
0000
0000
3003
,
0000
0000
0000
0000
2020
0000
0000
3030
0202
0000
0000
0303
0022
0000
0033
0000
,
0220
0000
0000
0000
0000
0000
0000
0330
2000
3000
0200
0300
0020
0030
0002
0003
,
2020
0000
0000
0000
0000
0000
0000
3030
,
0000
0000
0202
0303
0000
0000
0202
0303
0202
0303
0000
0000
0220
0330
0000
0000
,
0000
0000
0000
0000
0000
0000
0000
0000
0000
0000
0000
0000
0200
0000
0000
0000
0000
0000
0000
0000
0000
0300
0000
0010
0002
0000
0000
0000
0000
0000
0000
0000
0000
0000
0000
0000
0003
0000
0000
0000
0000
0000
0000
0000
0000
0000
0000
0000
,
0000
0000
0000
0000
0000
0000
0200
0000
0300
0000
0020
0000
0030
0000
0002
0003
,
0200
0000
0000
0300
0020
0000
0000
0030
0200
0300
0020
0030
0000
0000
0022
0033
,
0000
0000
0220
0330
0000
0000
2200
3300
0000
0000
0220
0330
0000
0000
2002
0000
,
0000
0000
0000
0000
,
0000
0000
0000
0000
0000
0000
0000
0000
3003
0000
0100
0000
0011
0000
0100
0011
,
1000
0000
0000
0000
;
