#TITLE:The Warrior Inside;
#SUBTITLE:Ultra Beatdown;
#ARTIST:DragonForce;
#TITLETRANSLIT:;
#SUBTITLETRANSLIT:;
#ARTISTTRANSLIT:;
#CREDIT:;
#BANNER:TWI - BN.png;
#BACKGROUND:TWI - BG.png;
#LYRICSPATH:;
#CDTITLE:CDtitle.png;
#MUSIC:The Warrior Inside (cut).mp3;
#OFFSET:-0.013;
#SAMPLESTART:48.000;
#SAMPLELENGTH:12.000;
#SELECTABLE:YES;
#BPMS:0.000=200.001,108.000=202.001,112.000=200.001,384.000=100.001,416.000=200.001,544.000=189.801,556.000=163.501,568.000=163.801;
#STOPS:;
#BGCHANGES:;
// cache tags:
#FIRSTBEAT:16.000;
#LASTBEAT:580.125;
#SONGFILENAME:Songs/Guitar Minipack/The Warrior Inside/The Warrior Inside.sm;
#HASMUSIC:1;
#HASBANNER:1;
#MUSICLENGTH:194.612;
// end cache tags

//---------------dance-single - ----------------
#NOTES:
     dance-single:
     :
     Challenge:
     13:
     0.970,1.000,0.468,0.524,0.910,1128.000,91.000,102.000,0.000,0.000:
0000
0000
0000
0000
,
0000
0000
0000
0000
,
0000
0000
0000
0000
,
0000
0000
0000
0000
,
0100
0100
0011
1000
0110
1000
1000
0011
,
1000
0101
1000
0011
1000
0110
0000
1000
,
0100
0100
0011
1000
0110
1000
1000
0011
,
1000
0101
1000
0110
1000
0101
0000
1000
,
0100
0100
0011
1000
0110
1000
1000
0011
,
1000
0101
1000
0011
1000
0110
0000
1000
,
0100
0100
0011
1000
0110
1000
1000
0011
,
1000
0101
1000
0110
1000
0101
0000
1000
,
0100
0100
0011
1000
0110
1000
1000
0011
,
1000
0101
1000
0011
1000
0110
0000
1000
,
0100
0100
0011
1000
0011
1000
1000
0101
,
1000
0101
1000
0011
1000
0110
0000
1000
,
1010
0000
1000
1010
0000
0100
1010
0000
,
1100
0000
1000
1100
0000
0100
1100
0000
,
1001
0000
1000
1001
0000
0100
1001
0000
,
0101
0010
0100
1000
0100
0010
0001
0010
0100
1000
0001
0010
0100
0010
0100
1000
,
0101
0000
1010
0000
0001
0001
0010
1000
,
0000
1000
0000
0010
0001
0001
1000
0000
,
0101
0000
1010
0000
0001
0001
0010
1000
,
0000
1000
0000
0010
0001
0001
1000
0000
,
1010
0000
0110
0000
0101
0000
0000
0110
,
0000
1100
0000
0101
0000
0101
0101
0000
,
0101
0000
0000
0000
0000
0000
1001
1001
,
1001
0000
0000
0000
,
0010
0010
1000
1000
0100
0100
1000
1000
0010
0010
1000
1000
0001
0001
1000
1000
,
0001
0010
0100
1000
0001
0010
0100
1000
0010
0001
0010
0100
1000
0100
0010
0001
,
0010
0010
0001
0001
0010
0010
0001
0001
0100
0100
0010
0010
0100
0100
0010
0010
,
1000
1000
0100
0100
1000
1000
0100
0100
2000
0000
0000
0000
0000
0000
0000
3000
,
0001
0001
0001
0010
0001
0010
0100
1000
,
0100
0000
0100
0000
0100
0000
1000
0000
0100
0010
0001
0010
0200
0000
0000
0300
,
0020
0000
0000
0000
0000
0030
0200
0000
0000
0000
0000
0300
2000
0000
0000
3000
,
0002
0000
0000
0000
0000
0003
0020
0000
0000
0000
0000
0030
0200
0000
0000
0300
,
0001
0010
0100
1000
0100
0000
0000
0000
0001
0010
0100
1000
0100
0000
0000
0000
,
0001
0010
0100
1000
0010
0100
1000
0100
0001
0010
0100
1000
0010
0100
1000
0100
,
0010
0001
1000
0001
0010
0001
1000
0001
0010
0001
1000
0001
0010
0001
1000
0001
,
0100
0100
0010
0010
0100
0100
1000
1000
0100
0100
0010
0010
0100
0100
1000
1000
,
0010
0000
0020
0000
0000
0030
0001
0000
0010
0000
0001
0000
0010
0000
0100
0000
,
1000
0000
2000
0000
0000
3000
1000
0000
0100
0010
0001
0010
0200
0000
0000
0300
,
0001
0001
1000
1000
0010
0010
1000
1000
0100
0100
1000
1000
0100
0100
1000
1000
,
0100
0100
0010
0010
0100
0100
1000
1000
0100
0000
0100
0000
0100
0000
0100
0000
,
0200
0000
0000
0000
0000
0000
0300
0000
0000
0000
0020
0000
0000
0030
0100
0000
,
0020
0000
0000
0030
0100
0000
1000
0000
0100
2000
0000
3000
0010
0100
2000
0000
,
0000
0000
0000
3000
0100
0000
1000
0000
0200
0000
0000
0300
0001
0020
0000
0000
,
0000
0000
0000
0000
0000
0000
0000
0000
0000
0030
0001
0000
0010
0000
0100
0000
,
1000
0100
0010
0100
0010
0001
1000
0100
0010
0001
0010
0100
0010
0100
1000
0010
0100
1000
0010
0100
0010
0001
0100
0010
,
0001
0010
0100
0010
0100
1000
0100
0010
0001
0010
0100
1000
0001
0010
0100
0010
0100
1000
0100
0010
0100
0010
0001
0010
,
2000
3100
2000
3100
0010
0001
0010
0100
1000
0100
0001
0010
0100
0010
0001
0010
,
0100
0010
0100
1000
0100
0010
0100
1000
0001
0010
0100
1000
0200
0000
0300
0000
,
1000
0100
0010
0001
0010
0100
0010
0100
1000
0100
0010
0001
0010
0100
0010
0100
,
1000
0100
0010
0001
0100
0001
0100
0001
1000
0100
0010
0100
2000
0000
0000
3000
,
0001
0010
0100
1000
0001
0010
0100
1000
0001
0010
0001
0010
0100
1000
0100
0010
,
1000
0100
0010
0100
0010
0001
0010
0100
1000
0100
0010
0001
0200
0000
0000
0300
,
1000
0100
0010
0001
0010
0100
1000
0100
0010
0001
0010
0100
1000
0100
0010
0001
,
0010
0001
0100
0010
1000
0100
0010
0100
,
0001
0010
0100
0001
0010
0100
0010
0100
1000
0100
0010
0001
0010
0100
0010
0001
,
0100
1000
0100
0010
0001
0010
0100
1000
0100
0010
0100
0010
0001
0010
0100
1000
,
0200
0000
0000
0000
0000
0300
0020
0000
0000
0000
0000
0030
0002
0000
0000
0003
,
0100
0010
0001
1000
0001
1000
0100
0010
,
0200
0000
0000
0000
0000
0000
0000
0000
0000
0000
0000
0300
0001
0000
0100
2000
,
0000
0000
0000
0000
0000
0000
0000
3000
2000
0000
0000
0000
0000
0000
0000
3000
,
0010
0010
0100
0100
0010
0010
0001
0001
,
0100
0100
1000
1000
0010
0010
0100
0100
,
1000
0100
0010
0000
1000
0000
1000
0000
0100
0000
0100
0000
1000
0000
1000
0000
,
0010
0000
0010
0000
0100
0010
1000
0000
0001
0000
0001
0000
0100
0010
1000
0000
,
0010
0001
0010
0100
0010
0100
0001
0010
,
0100
1000
0000
0000
0000
0000
0000
0000
0100
1000
0000
0000
0000
0000
0000
0000
0100
2000
0000
0000
0000
0000
0000
0000
0000
0000
0000
0000
0000
0000
3000
0000
,
0001
0010
0100
1000
0100
1000
0100
0010
,
0100
1000
0100
1000
0100
1000
0010
1000
0010
1000
0010
1000
0001
1000
0001
1000
0001
1000
0010
1000
0010
1000
0010
1000
,
0100
0010
0001
0100
1000
0100
0010
0001
0010
0100
0010
0100
1000
0000
1000
0000
,
0100
0000
0010
0000
0001
0000
0100
0000
1000
0000
0100
0000
0010
0000
0001
0000
0010
0000
0100
0000
0010
0000
0001
0000
0020
0030
0000
0000
0020
0030
0000
0000
,
2000
3000
0100
0000
0010
0000
0001
0000
0020
0030
0100
0000
0020
0030
0100
0000
2000
3000
0001
0000
0010
0000
0100
0000
1000
0000
0100
0000
0010
0000
0001
0000
,
0020
0030
0000
0000
2000
3000
0000
0000
0020
0030
0000
0000
2000
3000
0000
0000
,
0100
1000
0100
0010
0001
0010
0100
0010
,
2000
0000
3000
0100
2000
0000
0000
3000
0020
0000
0030
0200
0000
0300
1000
0000
,
2000
0000
3000
0002
0000
0003
0020
0030
0002
0000
0003
0020
0000
0030
0100
0000
,
2000
0000
0000
0000
0000
0000
0000
0000
0000
0000
0000
3000
0020
0000
0000
0030
,
0001
0010
0100
1000
0100
0000
0010
0000
0100
0000
1000
0000
0100
0000
0010
0000
,
0002
0000
0013
0100
1000
0000
0100
0000
2000
0000
0000
0000
0000
0000
0000
3000
,
0100
0010
0001
0010
0100
1000
0100
0010
0100
0000
0100
0000
0010
0000
0010
0000
,
0002
0000
0003
0020
0000
0030
0100
0000
0020
0000
0000
0000
0000
0000
0000
0030
,
0100
1000
0100
0010
0001
0010
0100
1000
0010
0100
1000
0100
0010
0001
0100
1000
,
0100
0000
0000
0010
0000
0000
0001
0000
0000
0010
0000
0000
0100
0000
0000
1000
0000
0000
0100
0000
0000
1000
0000
0000
0100
0000
0001
0000
0100
0000
0001
0000
0100
0000
0001
0000
0100
0000
0010
0000
0100
0000
0010
0000
0100
0000
0010
0000
,
0001
0100
0010
1000
0100
0001
0010
0100
1000
0100
0010
0100
0001
0010
0100
1000
,
0010
0001
0010
0100
0010
0100
1000
0010
0001
0010
0100
0001
0010
0001
0010
0100
,
1000
0100
0010
0001
0010
0100
0010
0001
0100
1000
0100
0010
0001
0010
0100
1000
,
0100
0010
0100
0010
0100
0010
0100
0010
0100
1000
0100
0010
0002
0000
0000
0003
,
0001
0010
0100
0010
0001
0010
0100
1000
0010
0100
1000
0100
0010
0001
0010
0100
,
0001
0010
0001
0010
0100
1000
0100
0010
1000
0100
0010
0001
0200
0000
0000
0300
,
1000
0000
1000
0000
0100
0000
2000
0000
0000
3000
0010
0000
0100
0000
1000
0000
,
0001
0001
0010
0001
0010
0100
1000
0100
,
0001
0010
0001
0010
1000
0100
0010
0001
0010
0100
0010
0100
1000
0100
0010
0001
,
0010
0100
0010
0100
0001
0010
0100
1000
0100
0000
0010
0000
0100
0000
1000
0000
,
0100
1000
1000
0010
1000
0100
0010
0001
,
0100
0000
0010
0000
0100
0000
1000
0000
0020
0000
0001
0030
0200
0000
0001
0300
,
2000
0000
0100
0000
0001
0000
0010
0000
0100
0000
0001
0000
0100
0000
0001
3000
,
0020
0000
0001
0000
1000
0000
1000
0000
0001
0000
0100
0000
1000
0000
0100
0030
,
2000
3000
0020
0030
0200
0300
2000
0000
0100
0000
0001
0000
0010
0000
0001
3000
,
2100
0000
0010
0000
0001
0000
0010
0000
0100
0000
0010
0000
0001
0000
0010
3000
,
0020
0000
0001
0030
0200
0000
0001
0300
2000
0000
0100
0000
0010
0000
0100
3000
,
0100
0010
0001
0010
0100
0010
0001
0010
1000
0100
0010
0001
1000
0100
0010
0001
0100
1000
0100
0010
0001
0010
0100
1000
0010
0001
0010
0100
0001
0010
0100
1000
,
0210
0000
0010
0010
,
1000
0000
0000
0000
0000
0000
0000
0000
0020
0030
0000
0000
0020
0030
0300
0000
,
0021
0000
0001
0001
,
1000
0000
0000
0000
0001
0000
0001
0030
,
1002
0000
0100
0100
,
1000
0000
0000
0003
0120
0000
0100
0030
,
1200
0000
0010
0010
,
1000
0000
0000
0300
1010
0000
1010
0000
,
0120
0000
0100
0100
,
1000
0000
0000
0000
0100
0000
0100
0030
,
1200
0000
0010
0010
,
1000
0000
0000
0000
0010
0000
0010
0300
,
0120
0000
0001
0001
,
1000
0000
0000
0030
0001
0000
0001
0000
,
1002
0010
0000
0000
0100
0000
0000
0000
0010
0000
0000
0000
0000
0000
0000
0000
1000
0000
0000
0000
0100
0000
0000
0000
1000
0000
0000
0000
0000
0000
0000
0000
,
0100
0000
0010
0100
0000
0000
0100
0003
,
0210
0000
0010
0010
,
1000
0000
0000
0000
0000
0000
0000
0000
0020
0030
0000
0000
0020
0030
0300
0000
,
0021
0000
0001
0001
,
1000
0000
0000
0000
0001
0000
0001
0030
,
1002
0000
0010
0010
,
1000
0000
0000
0003
0210
0000
0010
0300
,
1020
0000
0100
0100
,
1000
0100
1000
0030
1100
0000
1100
0000
,
0012
0000
0010
0010
,
1000
0000
0000
0000
0010
0000
0010
0003
,
0120
0000
0100
0100
,
1000
0000
0000
0000
0100
0000
0100
0030
,
1200
0000
0000
0000
0000
0000
0000
0000
0001
0000
0000
0000
0001
0000
0000
0300
,
1200
0000
0000
0300
0001
0000
0001
0000
,
2100
0000
0010
0000
0001
0000
0100
0000
0010
0000
0001
0000
0010
0000
0100
0000
0001
0000
0010
0000
0100
3000
0001
0000
,
0210
0000
1000
0000
0010
0000
1000
0000
0010
0300
1000
0000
0021
0000
0100
0000
0001
0000
0100
0000
0001
0030
0100
0000
,
2002
0000
0000
0000
,
0000
0000
0000
0000
,
0000
0000
0000
0000
0000
0000
0000
3003
,
2020
0000
0000
0000
,
0000
0000
0000
0000
,
0000
0000
0000
0000
0000
0000
0000
3030
,
2200
0000
0000
0000
,
0000
0000
0000
0000
,
0000
0000
0000
0000
0000
0000
0000
3300
,
0010
0001
0000
0000
0000
0000
0000
0000
0000
0000
0000
0000
0000
0000
0000
0000
0000
0000
0000
0000
0000
0000
0000
0000
0000
0000
0000
0000
0000
0000
0000
0000
;
