#TITLE:LOVE ♡ SHINE '06;
#SUBTITLE:;
#ARTIST:小坂りゆ;
#TITLETRANSLIT:LOVE LOVE SHINE;
#SUBTITLETRANSLIT:;
#ARTISTTRANSLIT:RIYU KOSAKA;
#CREDIT:;
#BANNER:LLS.png;
#BACKGROUND:LLS-BG.png;
#LYRICSPATH:;
#CDTITLE:RaveOri.png;
#MUSIC:Love Love Shine '06.mp3;
#OFFSET:-5.920;
#SAMPLESTART:74.373;
#SAMPLELENGTH:10.660;
#SELECTABLE:YES;
#BPMS:0.000=182.000,240.000=91.000,263.000=182.000;
#STOPS:263.250=0.315
;
#BGCHANGES:;
// cache tags:
#FIRSTBEAT:0.000;
#LASTBEAT:335.000;
#SONGFILENAME:Songs/toune 5/(KgwRave)- LOVE LOVE SHINE '06/LOVE LOVE SHINE '06.sm;
#HASMUSIC:1;
#HASBANNER:1;
#MUSICLENGTH:137.273;
// end cache tags

//---------------dance-single - ----------------
#NOTES:
     dance-single:
     :
     Hard:
     8:
     0.566,0.549,0.262,0.211,0.051,479.000,36.000,29.000,0.000,0.000:
1000
0100
0010
0001
,
0010
0100
1000
0010
,
0110
0000
1001
0000
0001
0100
1000
0000
,
1000
0100
0001
0010
0000
0110
0110
0000
,
0001
0100
1000
0100
0000
0010
0100
0001
,
0000
1000
0100
0010
0000
0001
0010
0100
,
0000
1000
0001
0100
0000
0010
1000
0100
,
0000
0010
0001
1000
0100
0010
0001
0000
,
0010
0100
0001
0100
0000
1000
0100
0010
,
0000
0001
0010
0100
0000
1000
0001
0100
,
0000
0010
0100
1000
0001
0010
0100
1000
,
0000
0001
0100
0001
1001
0000
0000
0000
,
2000
0000
0000
3020
0100
0000
0230
0000
,
1300
0000
0001
0000
0100
0001
0010
0000
,
0200
0000
0000
2300
0100
0000
3010
0000
,
1000
0000
0001
0000
0010
1000
0100
0000
,
0002
0000
0000
0203
0010
0000
1300
0000
,
0001
0000
0101
0000
0010
1000
0100
0000
,
0010
0001
0100
0000
0010
1000
0001
0000
,
0100
0001
1000
0100
0000
0010
0010
0000
,
0002
0000
0000
0023
0100
0000
0230
0000
,
0301
0000
1000
0000
0100
1000
0010
0000
,
0200
0000
0000
0302
0100
0000
0013
0000
,
0001
0000
1000
0000
0010
0001
0100
0000
,
2000
0000
0000
3200
0010
0000
0301
0000
,
1000
0000
1100
0000
0010
1000
0100
0000
,
0010
0001
0100
0010
0000
1000
0001
0100
,
0000
0010
0100
0100
0001
0000
1001
0000
,
0020
0000
0000
1030
2000
0000
0000
3100
,
0020
0000
0000
0031
0002
0000
1003
0000
,
0100
0001
1000
0000
0100
0010
1000
0000
,
0100
0001
0001
0100
1000
0100
0010
0001
,
2000
0000
0000
3100
0200
0000
0000
0310
,
0100
0000
0001
1000
0001
0000
0100
0010
,
0001
1000
0100
0010
0100
1000
0001
0100
,
0020
0100
0130
1001
,
0010
1000
0010
0100
0000
0010
0001
0010
,
0000
0100
1000
0001
0100
0000
1001
0000
,
0010
0001
0010
0100
0000
0010
1000
0010
,
0000
0100
0001
0100
0010
0000
1000
1000
,
0001
0100
0010
1000
0000
1000
0100
0010
,
0000
0001
0100
0010
1000
0000
1001
0000
,
0000
0010
0001
0010
0100
0010
1000
0100
,
0000
0001
1000
0001
0100
0000
1001
0000
,
0010
1000
0100
0010
0000
0001
0000
0101
,
0000
1000
0100
0001
0000
0001
0100
1000
,
0001
0000
0100
1000
0000
0100
0000
0001
,
0000
0100
0010
1000
0001
0100
0001
0100
,
0010
0000
1000
0100
0000
0010
0000
1001
,
0000
0001
0100
0010
0000
1000
0100
0001
,
1000
0000
0010
0100
0000
0001
0000
1000
,
0000
0010
0001
0200
0010
0000
0310
1000
,
0000
1100
0000
1000
0100
0001
0100
1000
,
0000
1100
0000
1000
0100
0001
0100
1000
,
0000
1100
0000
1000
0100
0001
0100
1000
,
0001
0000
0000
1000
0100
0000
0000
0100
0001
0000
0000
0001
0100
0000
0000
0100
,
1000
0001
0010
0100
1000
0001
0010
0100
,
1000
0010
0100
0001
1000
0010
0100
0001
,
2000
0010
0100
0001
,
0100
0010
0100
3001
,
0001
0000
0000
0000
0000
0000
0000
0000
1001
0000
0000
0000
0000
0000
0000
0000
1000
0000
0000
0010
0000
0000
0100
0000
0001
0000
0000
0000
0000
0000
0000
0000
,
0010
0000
0000
0000
0001
0000
0000
0000
1000
0000
0000
0000
0100
0000
0000
0000
0010
0000
0000
0100
0000
0000
0010
0000
0001
0000
0000
0000
0000
0000
0000
0000
,
1000
0000
0000
0010
0100
0000
0000
0000
0001
0000
0000
0010
0100
0000
0000
0000
,
1000
0001
1000
0001
0100
0010
1000
0001
,
0020
0000
0000
0100
0130
0000
0000
0000
0002
0000
0000
1000
1003
0000
0000
0000
,
0110
0000
0000
0000
0000
0000
0000
0000
1001
0000
0000
0000
0000
0000
0000
0000
0100
0000
0000
0010
0000
0100
0000
0000
1001
0000
0000
0000
0000
0000
0000
0000
,
0100
0001
0100
0010
1000
0100
0010
0000
,
0100
0001
0100
0010
1000
0100
0010
0000
,
0001
0100
0001
0000
1000
0100
1000
0000
,
0001
0010
0001
0000
1000
0010
1000
0000
,
0002
0000
0000
0103
0010
0000
1001
0000
,
2000
0000
0000
3100
0010
0000
1001
0000
,
0100
0001
0101
0000
0100
1000
1100
0000
,
0010
1000
0001
0010
0000
0100
0010
0100
,
1001
0000
0000
0001
0100
0000
0000
1000
,
0100
0000
1000
0001
1000
0000
0010
0100
,
0010
1000
0100
0010
0001
1000
0010
0100
,
0001
0010
0100
1000
0001
0100
0010
1000
,
0002
0000
0000
0013
0100
0000
1001
0000
,
2000
0000
0000
3100
0010
0000
1001
0000
,
0010
0100
0101
0000
0010
0100
1100
0000
,
0010
0100
1001
0000
0100
0010
1001
0000
,
1001
0000
1100
0000
0010
0100
0010
0000
,
0100
0010
0100
0010
0000
1001
0101
0000
;

//---------------dance-single - ----------------
#NOTES:
     dance-single:
     :
     Easy:
     4:
     0.283,0.397,0.044,0.284,0.000,227.000,6.000,39.000,0.000,0.000:
1000
0000
0100
0000
,
0010
0000
0001
0000
,
1000
0001
1000
0001
,
0020
0000
0000
0130
,
0001
0100
0000
0001
,
1000
0100
0000
1000
,
0010
0001
0010
0001
,
1000
0010
1000
0010
,
0100
0001
0000
0100
,
0100
1000
0000
0100
,
0010
1000
0010
1000
,
0010
0000
1001
0000
,
0001
0000
0100
0000
,
0001
0000
1000
0000
,
0100
0000
1000
0000
,
0001
0000
1000
0000
,
0010
0000
0100
0000
,
0001
0000
1000
0000
,
0010
0000
0100
0000
,
0001
0000
1000
0001
,
0100
0000
0001
0000
,
0010
0000
0001
0000
,
1000
0000
0100
0000
,
0010
0000
0100
0000
,
0010
0000
1000
0000
,
0100
0000
0010
0000
,
0001
0000
1000
0001
,
0200
0000
0010
0310
,
0002
0000
0203
0000
,
0320
0000
2030
0000
,
3001
0100
0001
0100
,
1000
0100
1000
0100
,
0020
0000
0032
0000
,
2003
0000
3200
0000
,
0301
0010
0001
0010
,
1000
0010
1000
0010
,
0100
0000
0010
0000
,
1000
0000
0001
1001
,
0100
0000
1000
0000
,
0010
0000
1000
1001
,
0100
0000
0001
0000
,
0010
0000
1000
1001
,
0010
0000
0100
0000
,
0020
0000
0130
1001
,
0000
0001
0000
1000
,
0000
0100
0000
0010
,
0000
1000
0000
0001
,
0000
0100
0000
0010
,
1000
0100
1000
0100
,
0001
0100
0001
0100
,
1000
0001
1000
0001
,
0010
0100
0010
0100
,
0002
0000
0000
0003
,
0200
0000
0000
0300
,
2000
0000
0000
3000
,
0200
0000
0000
0300
,
0020
0000
0000
0030
,
2000
0000
0000
3000
,
0020
0000
0000
0030
,
0002
0000
0000
0003
,
1000
0100
0010
0001
,
0100
0010
1000
0001
,
0100
0010
0100
0010
,
1000
0001
0100
0010
,
2000
3100
0020
0031
,
0002
0103
0020
1030
,
0001
1000
0100
0010
,
0001
0100
0010
1000
,
0001
1000
0001
1000
,
0010
0100
0010
0100
,
0002
0000
0203
0000
,
0320
0000
2030
0000
,
3200
0000
0320
0000
,
0032
0000
0203
0000
,
0320
0000
2030
0000
,
3002
0000
0203
0000
,
0310
0001
0010
0001
,
0010
1000
0010
1000
,
0002
0000
2003
0000
,
3200
0000
0320
0000
,
1030
0100
1000
0100
,
0001
0100
0001
0100
,
0001
1000
0010
0100
,
0001
1000
0100
1001
;

//---------------dance-single - Copied from----------------
#NOTES:
     dance-single:
     Copied from:
     Medium:
     6:
     0.461,0.488,0.393,0.277,0.000,351.000,54.000,38.000,0.000,0.000:
1000
0100
1000
0100
,
0001
0100
0001
0100
,
0010
0000
0100
0000
1000
0001
1000
0000
,
0010
0100
0010
0100
0000
0001
1000
0000
,
0001
0101
1000
0100
,
0001
0100
0010
1000
,
0010
1000
0100
0010
,
0001
0010
1000
0001
,
1000
1100
0001
0100
,
0010
1000
0100
0010
,
0001
0100
1000
0020
,
0000
0130
1001
0000
,
0001
0101
1000
1100
,
0010
0001
1000
0100
,
1000
1100
0001
0101
,
0010
1000
0001
0100
,
0001
0101
1000
1100
,
0010
0001
1000
0100
,
0010
0001
1000
0100
,
0001
0000
0100
0000
1000
0100
0001
0000
,
0100
1100
0010
1010
,
0001
0100
0010
1000
,
0010
1010
0100
1100
,
0001
0010
0100
1000
,
0100
1100
0010
1010
,
0001
0100
0010
1000
,
0001
0000
0100
0000
0010
0001
1000
0100
,
0000
0000
1000
0000
0010
1000
0100
0000
,
0002
0023
1030
1100
,
2000
3020
0130
0101
,
0001
0100
1000
0100
,
0010
0001
1000
1100
,
0020
0032
1003
1100
,
0020
2030
3100
0101
,
0010
1000
0001
0100
,
0010
1000
0100
0101
,
0002
2003
3200
0320
,
0032
0000
1003
1000
0001
0000
1001
0000
,
0020
2030
3200
0320
,
0230
0000
0301
0001
1000
0000
1001
0000
,
0200
0302
0023
0032
,
2003
0000
3001
0001
0100
0000
1001
0000
,
0020
0000
0000
0030
,
0000
0010
0100
0010
0100
0000
1001
0000
,
1000
1100
0100
0101
,
0001
0011
0010
1010
,
0010
0011
0001
0101
,
0100
1100
0100
0110
,
1000
0100
0001
0100
,
1000
0100
0001
0100
,
1000
0010
0001
0010
,
1000
0010
0001
0010
,
2000
0001
0001
3100
,
0002
1000
1000
0103
,
0020
0100
0100
1030
,
0200
0010
0010
0301
,
0010
0001
0010
0001
,
0100
1000
0100
1000
,
0010
1000
0010
1000
,
0100
0001
0100
0001
,
2000
0000
3100
0000
0001
1000
0100
0000
,
0002
0000
0103
0000
1000
0001
0100
0000
,
0020
0000
1030
0000
0100
0010
0001
0000
,
2000
0000
3001
0000
0010
0100
1000
0000
,
0002
0000
0103
0000
0010
1000
0100
0000
,
0010
0001
1000
0000
0010
1000
0001
0000
,
1000
0100
0010
0011
,
0001
0101
0010
1010
,
0001
1000
0001
1000
,
0100
0110
0010
0011
,
1000
0100
0010
0110
,
1000
0101
0001
1010
,
0100
0001
1000
1001
,
0010
0011
0100
0101
,
0010
1000
0100
0011
,
0100
0001
0100
1010
,
0100
0101
0010
1010
,
1000
1100
0010
0011
,
0002
1003
0100
1100
,
2000
3001
0100
1001
,
0020
0001
1030
0101
,
0020
1000
0031
1100
,
0010
0000
0100
0000
0010
0100
0010
0000
,
1000
0001
1000
0001
0000
0010
0100
0000
;
