#TITLE:Euro Techno;
#SUBTITLE:;
#ARTIST:DJ whoknows;
#TITLETRANSLIT:;
#SUBTITLETRANSLIT:;
#ARTISTTRANSLIT:;
#CREDIT:;
#BANNER:ok-banner.PNG;
#BACKGROUND:techno.bmp;
#LYRICSPATH:;
#CDTITLE:;
#MUSIC:ok01.mp3;
#OFFSET:-0.200;
#SAMPLESTART:79.000;
#SAMPLELENGTH:14.520;
#SELECTABLE:YES;
#BPMS:0.000=138.100,178.750=37.500,179.500=138.100,276.500=37.500,281.000=42.070;
#STOPS:;
#BGCHANGES:;
// cache tags:
#FIRSTBEAT:1.500;
#LASTBEAT:277.000;
#SONGFILENAME:Songs/cedric step/Euro Techno/ok01.sm;
#HASMUSIC:1;
#HASBANNER:1;
#MUSICLENGTH:125.264;
// end cache tags

//---------------dance-single - Liquid Dreans----------------
#NOTES:
     dance-single:
     Liquid Dreans:
     Hard:
     11:
     0.964,0.940,1.000,0.184,0.990,655.000,167.000,23.000,0.000,0.000:
0000
0000
0000
0000
0000
0000
2010
0100
0010
0000
0001
0000
0001
0000
0001
0000
,
0100
0001
0010
0100
,
0001
0000
0000
0000
3010
0000
0102
1000
0100
0000
0010
0000
0100
0000
0100
0000
,
1000
0010
0100
1000
,
0103
0000
0000
0000
0010
0000
2001
0100
0010
0000
0001
0000
0010
0000
0100
0000
,
0010
0001
0010
0000
0100
0000
0010
0000
,
0001
0000
0000
0000
3010
0000
0201
1000
0001
0000
0010
0000
1000
0000
0001
0000
,
1000
0001
1000
0000
0010
0000
0001
0000
,
0010
0000
0000
0000
1300
0000
0120
0001
1000
0000
0001
0000
0100
0000
1000
0000
,
0100
1000
0001
0000
0100
0000
0100
0000
,
1000
0000
0000
0000
0130
0000
1002
0010
0100
0000
1000
0000
0100
0000
1000
0000
,
0010
1000
0100
0000
1000
0000
0100
0000
,
0010
0000
0000
0000
0003
0000
0100
1000
0010
0000
0100
0000
1001
0000
0000
0100
,
1001
0000
0100
0000
1001
0000
0000
0010
1001
0100
0010
0000
0101
0000
0000
0100
,
1010
0000
0001
0000
1010
0000
0000
0010
1001
0100
1000
0000
1010
0000
0000
0100
,
0011
0000
0010
0000
0101
0000
0000
0010
0101
1000
0100
0000
0101
0000
0000
0010
,
1001
0000
0100
0000
1001
0000
0100
0010
0100
1000
0001
0000
0110
0000
0000
0001
,
1100
0000
0001
0000
0110
0000
0000
1000
0100
0001
1000
0000
0101
0000
0000
0001
,
1010
0000
0010
0000
1100
0000
0000
1000
0110
0001
0100
0000
1100
0000
0000
0001
,
1010
0000
1000
0000
0011
0000
0000
1000
1001
0100
0001
0000
0011
0000
0000
1000
,
0101
0000
0001
0000
0110
0000
0001
1000
0001
0100
0010
0000
1100
0000
0000
1000
,
0101
0000
1000
0000
0011
0000
0000
0100
1001
0001
1000
0000
1100
0000
0000
0001
,
0101
0000
0010
0000
0101
0000
0000
0010
1001
0100
0100
0000
0011
0000
0000
0100
,
1001
0000
0100
0000
0011
0000
0000
0010
1100
0001
0100
0000
0101
0000
0000
0100
,
1001
0000
0100
0000
0110
0000
0001
1000
1000
1000
0100
0001
0120
0000
0000
1000
,
0031
0000
1000
0000
0210
0000
0000
0001
0310
1000
0001
0000
1020
0000
0000
1000
,
0031
0000
0100
0000
2001
0000
0000
0001
3010
1000
0010
0000
0201
0000
0000
1000
,
0301
0000
0001
0000
1020
0000
0000
1000
0031
0100
1000
0000
1200
0000
0000
0001
,
1300
0000
1000
0000
0120
0000
1000
0001
1030
0010
0100
0000
0011
0000
1000
0000
,
1000
0001
0000
0010
0000
0000
1000
0000
0001
0010
0000
1000
0000
0000
1000
0000
,
0010
1000
0000
0100
0000
0000
0010
0000
0100
0001
0000
0010
0000
0000
1000
0000
,
0001
0010
0000
1000
0000
0000
0001
0000
0100
1000
0000
0001
0000
0000
0010
0000
,
0100
0001
0000
0010
0000
0000
1000
0010
0100
1010
0001
0100
1001
0000
0110
0000
,
1100
0011
0000
1100
0000
0000
0101
0000
1010
0101
0000
1010
0000
0000
1010
0000
,
0101
1100
0000
0011
0000
0000
1001
0000
0101
1010
0000
0101
0000
0000
1010
0000
,
0101
0011
0000
1010
0000
0000
0101
0000
1100
0110
0000
0101
0000
0000
1010
0000
,
0110
0101
0000
1010
0000
0000
0101
0000
1010
0101
0000
1010
0000
0000
1001
0000
,
1010
0101
0000
1010
0000
0000
1100
0000
0011
1100
0000
0011
0000
0000
0011
0000
,
1100
1010
0000
0101
0000
0000
0110
0000
1100
0011
0000
1100
0000
0000
0011
0000
,
1100
0101
0000
0011
0000
0000
1100
0000
1010
1001
0000
1100
0000
0000
0011
0000
,
1001
1100
0000
0011
0000
0000
1100
0000
0011
1100
0000
0011
0000
0000
0110
0000
,
0011
1100
0000
0011
0000
0000
1010
0000
0101
1010
0000
0101
0000
0000
0101
0000
,
1010
0011
0000
1100
0000
0000
1001
0000
1010
0101
0000
1010
0000
0000
0101
0000
,
1010
1100
0000
0101
0000
0000
1010
0000
0011
0110
0000
1010
0000
0000
0101
0000
,
0110
1010
0000
0101
0000
0000
1010
0000
0101
1010
0000
0202
0000
0303
1000
0100
,
1000
0000
0100
0000
1010
0100
1000
0100
0010
0001
0010
0100
1000
0100
0010
0001
,
0010
0100
1000
0100
0010
0100
1000
0001
0010
0100
1000
0100
0010
0001
0010
0100
,
1000
0100
0010
0001
0010
0100
0010
0001
0010
1000
0100
0001
0100
1000
0010
0001
,
0100
1000
0010
0001
0100
1000
0010
0001
0100
1000
0001
0100
0010
1000
0001
0100
,
0010
1000
0100
0010
1001
0010
0100
0010
1000
0001
0100
0010
1000
0001
0100
0010
,
1000
0001
0100
0010
1000
0001
0100
0010
0001
1000
0010
0100
0001
1000
0010
0100
,
0001
1000
0001
0100
0010
1000
0100
0010
1000
0001
0100
1000
0100
0001
0010
0100
,
0010
1000
0001
0100
0001
0010
1000
0100
0010
0100
0001
1000
0100
0001
0010
0001
,
1000
0010
0100
1000
0110
1000
0010
0001
0010
0100
0010
1000
0001
0100
0010
1000
,
0010
0001
0100
1000
0100
0010
1000
0010
1000
0100
0001
0010
0100
1000
0010
1000
,
0010
0100
0001
0010
1000
0100
0001
1000
0010
0100
0001
1000
0010
0001
0010
0100
,
0010
1000
0100
1000
0100
0010
0010
0001
0010
1000
0001
0100
0001
1000
0010
0100
,
1000
0010
0100
0010
0101
1000
0010
1000
0010
0001
0010
1000
0100
0010
0100
0010
,
1000
0010
0100
0001
1000
0100
0010
0001
1000
0010
0100
0001
1000
0100
0010
0001
,
1000
0100
0010
1000
0001
1000
0010
0100
0001
1000
0010
0001
1000
0010
0100
0001
,
1000
0100
1002
0000
0010
0000
0000
0100
0000
0000
0000
1000
0000
1000
0000
0000
,
0000
0000
0000
0000
0003
0000
1200
0010
1000
0000
0010
0000
0001
0000
0010
0000
,
1000
1000
0010
0001
,
1000
0000
0000
0000
0310
0000
1002
0100
1000
0000
0010
0000
0100
0000
1000
0000
,
0100
1000
0100
0100
,
1000
0000
0000
0000
0103
0000
0021
1000
0100
0000
0001
0000
0001
0000
0001
0000
,
0100
1000
1000
0100
,
0001
0000
0000
0000
1030
0000
0102
0100
1000
0000
1000
0000
1000
0000
1000
0000
,
0100
0100
1003
0100
,
1000
0202
0303
0000
0000
0000
0000
0000
;

//---------------dance-single - ----------------
#NOTES:
     dance-single:
     :
     Medium:
     9:
     0.687,0.608,0.200,0.128,0.746,561.000,25.000,16.000,0.000,0.000:
0000
0000
1000
0102
,
0010
1000
0010
0100
,
1000
0010
0100
1000
0013
0100
1002
0000
,
0010
0000
0100
0000
1000
0100
0010
1000
,
0100
1000
0103
0100
2010
0000
0001
0000
,
0100
0010
0100
0010
,
0100
0001
0010
0100
3001
0010
1200
0000
,
0001
1000
0001
0010
,
1000
0000
0001
0001
0310
0001
2100
0000
,
0010
0000
0100
0000
0001
0010
0100
0010
,
0001
0100
0010
3001
0200
0001
1000
0001
,
0010
1000
0001
0310
1000
0100
0010
0001
,
1000
0000
0100
0000
1010
0000
0100
0010
0100
0000
0010
0000
0101
0000
1000
0010
,
0000
0000
1000
0000
0010
0000
0000
0001
0000
0100
1000
0000
0001
0000
0000
0100
,
0000
0000
0100
0000
0100
0000
0100
0001
0000
1000
0010
0000
0100
0000
0010
1000
,
0000
0100
0010
0000
0010
0000
0010
1000
0000
0010
0100
0000
0010
0000
1000
0100
,
0000
1000
0100
0000
0010
0000
1000
0100
0010
1000
0001
0100
1100
0000
0010
0001
,
0000
0000
0010
0000
0001
0000
0000
0100
0000
1000
0010
0000
0100
0000
0000
1000
,
0000
0000
1000
0000
1000
0000
1000
0100
0000
0010
0001
0000
1000
0000
0001
0010
,
0000
1000
0001
0000
0001
0000
0001
0010
0000
0001
1000
0000
0001
0000
0010
1000
,
0000
0010
1000
0000
0001
0000
0010
1000
0001
0010
0100
1000
1010
0000
0001
0100
,
0000
0000
0001
0000
0100
0000
0000
1000
0000
0010
0001
0000
1000
0000
0000
0010
,
0000
0000
0010
0000
0010
0000
0010
1000
0000
0001
0100
0000
0010
0000
0100
0001
,
0000
0010
0100
0000
0100
0000
0100
0001
0000
0100
0010
0000
0100
0000
0001
0010
,
0000
0001
0010
0000
0100
0000
0001
0010
0100
0001
1000
0010
0101
0000
0010
0100
,
0000
0000
0010
0000
0100
0000
0000
0010
0000
0010
0010
0000
0001
0000
0000
0010
,
0000
0000
0100
0000
0001
0000
0100
0100
0000
1000
0100
0000
0010
0000
0100
0001
,
0000
1000
0001
0000
0010
0000
0100
0100
0000
1000
0010
0000
0100
0000
0100
0001
,
0000
0100
0100
0000
0001
0000
0100
1000
0001
0100
1000
0010
1001
0000
0100
0000
,
0010
1000
0000
0100
0000
0000
0010
0000
1000
0010
0000
0100
0000
0000
0010
0000
,
0010
1000
0000
0100
0000
0000
0010
0000
0001
1000
0000
0100
0000
0000
1000
0000
,
0001
0010
0000
1000
0000
0000
0100
0000
0001
1000
0000
0100
0000
0000
1000
0000
,
0100
0010
0000
1000
0000
0000
0010
0000
1000
0001
0010
0100
1001
0000
1000
0000
,
0001
0010
0000
1000
0000
0000
0001
0000
0010
0001
0000
1000
0000
0000
0001
0000
,
0001
0010
0000
1000
0000
0000
0001
0000
0100
0010
0000
1000
0000
0000
0010
0000
,
0100
0001
0000
0010
0000
0000
1000
0000
0100
0010
0000
1000
0000
0000
0010
0000
,
1000
0001
0000
0010
0000
0000
0001
0000
0010
0100
0001
1000
0110
0000
0010
0000
,
0100
0001
0000
0010
0000
0000
0100
0000
0001
0100
0000
0010
0000
0000
0100
0000
,
0100
0001
0000
0010
0000
0000
0100
0000
1000
0001
0000
0010
0000
0000
0001
0000
,
1000
0100
0000
0001
0000
0000
0010
0000
1000
0001
0000
0010
0000
0000
0001
0000
,
0010
0100
0000
0001
0000
0000
0100
0000
0001
1000
0100
0010
1001
0000
1000
0000
,
1000
0010
0000
1000
0000
0000
0001
0000
1000
0010
0000
0010
0000
0000
0010
0000
,
0001
0001
0000
0001
0000
0000
0010
0000
0001
0001
0000
1000
0000
0000
1000
0000
,
0010
0100
0000
0100
0000
0000
1000
0000
0010
0100
0000
0100
0000
0000
1000
0000
,
0010
0001
0000
0100
0000
0000
0010
0000
0001
0010
0010
2002
0000
3003
0001
0010
,
1000
0000
0100
0000
1100
0000
0010
0001
0000
0000
0010
0000
0001
0000
0000
0100
,
0000
1000
0010
0000
0100
0000
0000
1000
0000
0000
1000
0000
1000
0000
1000
0100
,
0000
0010
0001
0000
1000
0000
0001
0010
0000
1000
0001
0000
0001
0000
0001
0010
,
0000
0001
1000
0000
0001
0000
0010
1000
0000
0010
1000
0000
0001
0000
0010
1000
,
0001
0010
0100
1000
1010
0000
0001
0100
0000
0000
0001
0000
0100
0000
0000
1000
,
0000
0010
0001
0000
1000
0000
0000
0010
0000
0000
0010
0000
0010
0000
0010
1000
,
0000
0001
0100
0000
0010
0000
0100
0001
0000
0010
0100
0000
0100
0000
0100
0001
,
0000
0100
0010
0000
0100
0000
0001
0010
0000
0001
0010
0000
0100
0000
0001
0010
,
0100
0001
1000
0010
1100
0000
0100
0001
0000
0000
0100
0000
0001
0000
0000
1000
,
0000
0010
0100
0000
1000
0000
0000
0010
0000
0000
0010
0000
0010
0000
0010
1000
,
0000
0100
0001
0000
0010
0000
0001
0100
0000
0010
0001
0000
0001
0000
0001
0100
,
0000
0001
0010
0000
0001
0000
0100
0010
0000
0100
0010
0000
0001
0000
0100
0010
,
0001
0100
1000
0010
1010
0000
0010
0010
0000
0000
1000
0000
1000
0000
0000
0010
,
0000
0100
0001
0000
0010
0000
0000
0100
0000
0000
0100
0000
0010
0000
0001
1000
,
0000
0001
1000
0000
1000
0000
0010
0010
0000
1000
0001
0000
0010
0000
0100
1000
,
0000
0010
1000
0000
0010
0000
1000
1000
0000
0001
1000
0000
2020
0000
0000
0000
,
0000
0000
0000
0000
3030
0000
0100
0010
0100
0000
0010
0000
0102
0000
0100
0000
,
1000
0100
0010
0100
,
0010
0000
0000
0000
0100
0000
1000
0010
0103
0000
0100
0000
2010
0000
0010
0000
,
0100
0100
0010
0100
,
0100
0000
0000
0000
0010
0000
0100
0010
3001
0000
0100
0000
1020
0000
0100
0000
,
0100
0001
0100
1000
,
0001
0000
0000
0000
0100
0000
1000
0100
1030
0000
0100
0000
2010
0000
0100
0000
,
0010
0100
0001
0010
,
3100
2002
3003
0000
0000
0000
0000
0000
;
