#TITLE:Happy Chicken;
#SUBTITLE:(Club Mix);
#ARTIST:Caater Vs. Rik Project;
#TITLETRANSLIT:;
#SUBTITLETRANSLIT:;
#ARTISTTRANSLIT:;
#CREDIT:;
#BANNER:HappyChicken-bn.png;
#BACKGROUND:HappyChicken-bg.png;
#LYRICSPATH:;
#CDTITLE:!joeCDtitle.png;
#MUSIC:Caater Vs. Rik Project - Happy Chicken (Club Mix).mp3;
#OFFSET:0.060;
#SAMPLESTART:100.000;
#SAMPLELENGTH:12.000;
#SELECTABLE:YES;
#BPMS:0.000=130.000;
#STOPS:;
#BGCHANGES:;
// cache tags:
#FIRSTBEAT:2.000;
#LASTBEAT:268.000;
#SONGFILENAME:Songs/Fabulously Fresh Flock of Fantastic Files F5/(-joe-) Happy Chicken/HappyChicken.sm;
#HASMUSIC:1;
#HASBANNER:1;
#MUSICLENGTH:124.577;
// end cache tags

//---------------dance-single - ----------------
#NOTES:
     dance-single:
     :
     Hard:
     10:
     0.822,0.887,1.000,0.136,0.474,558.000,142.000,17.000,0.000,0.000:
0000
0000
1001
0101
,
1001
0110
0101
1010
,
0110
0011
1100
1010
,
0110
0011
0101
0110
,
1100
0110
0011
1001
,
0110
0101
1010
0110
,
0011
1100
0110
1100
,
1001
1010
0011
1001
,
0101
0000
1001
0000
1001
0001
0110
0100
,
1001
0010
0011
1000
1100
0010
1001
0100
,
1010
0001
0101
0010
1001
0100
0110
0001
,
1100
0010
0011
1000
0110
0001
0110
0010
,
1001
0100
1100
0001
0011
0100
1001
0010
,
0101
1000
1010
0100
1001
0010
0110
1000
,
0011
0100
1100
0001
0110
1000
1001
0001
,
0110
1000
1010
0100
0102
1003
0210
0301
,
2100
3010
0012
1003
0210
0301
1001
0010
,
0101
1000
1010
0100
1001
0010
0110
0100
,
1001
0010
0011
1000
1100
0010
1001
0100
,
1010
0001
0101
0010
1001
0100
0110
0001
,
1100
0010
0011
1000
0110
0001
0110
0001
,
1100
0010
0011
1000
0110
0001
1001
0010
,
0101
1000
1010
0100
1001
0010
1001
0010
,
0101
1000
1010
0100
1001
0000
0110
0000
,
0011
0000
1100
0000
0110
1000
0101
0010
,
1100
0001
0011
1000
0101
0010
1010
0001
,
0110
1000
1001
0100
1010
0001
1100
0010
,
1001
0100
0110
0001
1100
0010
0101
1000
,
0110
0001
1001
0010
0101
1000
1010
0100
,
0011
1000
1100
0001
1010
0100
0101
1000
,
0110
0000
0001
0000
1001
0000
0010
0000
0001
0100
1000
0100
0001
0100
0010
1000
,
0001
0100
0010
1000
0001
0010
0001
0100
0001
1000
0010
1000
0100
1000
0010
0100
,
0001
0010
0001
1000
0001
0100
0010
0100
2000
0000
0000
0000
0000
0000
0000
0000
,
0000
0000
0000
0000
3001
0001
0000
0000
,
0000
0000
0000
0000
0001
0001
0010
0100
,
1000
0000
0000
0000
1000
1000
0000
0000
,
0000
0000
0000
0000
0100
0100
0010
1000
,
0001
0000
0000
0000
1000
1000
0000
0000
,
0000
0000
0000
0000
0001
0010
0001
0100
,
0010
0000
0000
0000
0001
0001
0000
0000
,
0000
0000
0000
0000
0011
0110
0011
1100
,
1001
0000
0000
0000
1001
0000
0000
0000
1001
0000
0001
1000
0001
0000
1000
0000
,
0001
0000
0000
0000
0020
0000
2030
0000
3010
0000
0010
1000
0010
0000
1000
0000
,
0001
0000
0000
0000
2000
0000
3002
0000
1003
0000
0100
1000
0100
0000
0010
0000
,
0001
0000
0000
0000
0200
0000
0302
0000
1003
0000
0001
0100
0001
0000
0100
0000
,
0001
0000
0000
0000
2000
0000
3020
0000
0130
0010
1000
0001
0010
0001
0100
0010
,
1000
0100
1000
0010
0100
0001
0010
0001
0100
0010
1000
0100
1000
0010
0100
0001
,
0010
0001
0100
0010
1000
0100
1000
0010
0100
0001
0010
0001
0100
0010
1000
0100
,
1000
0010
0100
0001
0010
0001
0100
0010
1000
0100
1000
0010
0100
0001
0010
0001
,
0100
0010
1000
0100
1000
0010
0100
0001
0020
0000
0000
0000
0000
0000
0000
0000
,
0030
0000
0000
0000
0000
0000
0000
0000
1000
0000
0001
0100
0010
0100
0001
0100
,
0001
0000
1000
0010
0100
0010
1000
0001
0010
0000
0010
0000
0010
0000
0010
0000
,
0010
0000
1000
0100
1000
0010
0100
0001
0010
0000
0001
0010
0001
0100
0010
1000
,
0100
0000
0010
1000
0001
0100
0001
1000
0100
0000
0100
0000
0010
0000
0010
0000
,
0100
0000
0001
0010
0001
0100
0010
1000
0100
0000
1000
0100
1000
0010
0100
0001
,
0010
0000
0100
0001
1000
0010
1000
0001
1000
0000
1000
0000
1000
0000
1000
0000
,
1000
0000
0100
0010
0100
1000
0010
0001
1000
0000
0001
1000
0001
0010
1000
0100
,
0010
0000
1000
0100
0001
0010
0001
1000
0010
0000
0011
0000
1100
0000
1000
0000
,
0011
0000
0110
0000
1001
0000
0010
0000
1001
0000
0001
0010
0001
0100
0010
1000
,
0100
0000
1000
0100
1000
0010
0100
0001
0010
0000
0010
0000
0100
0000
0100
0000
,
0001
0000
1000
0100
0010
0001
0010
0001
0100
0000
0001
0010
0100
1000
0001
0010
,
0001
0000
0100
0010
1000
0001
0100
0001
0010
0000
0010
0000
0010
0000
0010
0000
,
0010
0000
0010
1000
0001
0100
0001
0100
1000
0000
0100
0001
1000
0010
0100
0001
,
0100
0000
1000
0001
0010
0100
1000
0010
0001
0000
0001
0000
0100
0000
0100
0000
,
1000
0000
0001
0010
0100
1000
0100
1000
0010
0000
1000
0100
0010
0001
1000
0100
,
1000
0000
0010
0100
0001
1000
0010
0100
1001
0000
1001
0000
0110
0000
0110
0000
,
1100
1100
0011
0011
2002
0000
0000
0000
,
3003
0000
0000
0000
;
