#TITLE:Finished Symphony;
#SUBTITLE:(radio edit);
#ARTIST:Hybrid;
#TITLETRANSLIT:;
#SUBTITLETRANSLIT:;
#ARTISTTRANSLIT:;
#CREDIT:Arch0wl;
#BANNER:finishedsymphonyradioedit-bn.png;
#BACKGROUND:finishedsymphonyradioedit-bg.png;
#LYRICSPATH:;
#CDTITLE:!arch0wltitle.png;
#MUSIC:finishedsymphonyradioedit.ogg;
#OFFSET:-0.581;
#SAMPLESTART:58.724;
#SAMPLELENGTH:29.106;
#SELECTABLE:YES;
#BPMS:0.000=132.000;
#STOPS:;
#BGCHANGES:0.000=finishedsymphonyradioedit-bg.png=1.000=0=0=1,
99999=-nosongbg-=1.000=0=0=0 // don't automatically add -songbackground-
;
// cache tags:
#FIRSTBEAT:0.000;
#LASTBEAT:432.000;
#SONGFILENAME:Songs/Archmage and Dark0wl Hammer of Thor UltraHyperMegaPack/Finished Symphony (radio edit)/finishedsymphonyradioedit.sm;
#HASMUSIC:1;
#HASBANNER:1;
#MUSICLENGTH:105.000;
// end cache tags

//---------------dance-single - Arch0wl----------------
#NOTES:
     dance-single:
     Arch0wl:
     Challenge:
     13:
     1.000,1.000,0.038,0.133,1.000,1469.000,4.000,14.000,0.000,2.000:
2000
0000
3200
0000
,
0300
0000
0000
0000
,
2000
0000
3200
0000
,
0320
0000
0030
0000
,
0002
0000
0203
0000
,
0300
0000
0000
0000
,
0002
0000
0203
0000
,
2320
0000
3000
0000
,
2031
0000
3002
0000
,
0003
0000
0000
0000
0000
0000
0000
0000
0000
0000
0000
1000
0000
0000
1000
0100
,
1000
0000
0000
0001
0000
0000
0001
0000
0000
0000
0000
0100
0000
0000
0100
0000
,
0000
0000
0000
0010
0000
0000
0010
0000
0000
0000
0000
1000
0000
0000
1000
0100
,
1000
0000
0000
0100
0000
0000
0100
0000
0000
0000
0000
1000
0000
0000
1000
0000
,
0000
0000
0000
0001
0000
0000
0001
0000
0000
0000
0000
0100
0000
0000
0100
0001
,
0100
0010
0000
0100
0001
0000
0100
0001
0010
0100
1000
0000
0010
0100
0001
1000
,
0100
0010
0100
0010
0100
0010
0001
0010
0100
1000
0100
0010
0001
0100
0010
1000
0010
0100
0001
0100
0010
1000
0010
0100
,
0001
0000
0001
0100
1000
0000
0100
0000
0001
0100
1000
0000
0100
0000
0010
0000
,
1000
0000
0100
0010
0001
0000
0010
0000
0100
0010
0001
0000
0010
0000
1000
0000
,
0001
0000
0100
1000
0010
0000
0001
0000
0010
1000
0100
0000
0010
0000
0001
0000
,
1000
0000
0001
0100
1000
0000
0100
0000
1000
0100
0001
0000
0010
0000
0100
0000
,
1000
0000
0001
0100
0010
0000
0100
0000
0001
0100
0010
0000
0100
0000
1000
0000
,
0001
0000
1000
0100
0001
0000
0100
0000
1000
0100
0001
0000
0010
0000
0100
0000
,
1000
0000
0100
0010
0001
0000
1000
0000
0001
0010
0100
0000
1000
0000
0010
0000
,
0100
0000
0000
0000
0001
0000
0010
0000
1000
0000
0000
0000
0010
0000
0000
0000
1000
0010
1000
0010
0001
0000
1000
0000
0100
0000
0000
0000
0010
0000
0000
0000
,
0001
0010
0100
1000
0100
1000
0001
0010
0100
1000
0100
1000
0001
0010
0100
1000
,
0001
0100
0010
1000
0010
1000
0001
0100
0010
1000
0010
1000
0001
0100
0010
1000
,
0001
0010
0100
1000
0100
1000
0001
0010
0100
1000
0100
1000
0001
0010
0100
1000
,
0001
0100
0010
1000
0010
1000
0001
0100
0010
1000
0010
1000
0001
0100
0010
1000
,
0001
0010
0100
1000
0100
1000
0001
0010
0100
1000
0100
1000
0001
0010
0100
1000
,
0001
0100
0010
1000
0010
1000
0001
0100
0010
1000
0010
1000
0001
0100
0010
1000
,
0001
0010
0100
1000
0001
0010
0100
1000
0001
0010
0100
1000
0001
0010
0100
1000
,
0001
0000
0000
0010
0000
0000
0100
0000
0000
1000
0000
0000
0001
0000
0000
0010
0000
0000
0100
0000
0000
1000
0000
0000
0001
0000
0010
0000
0100
0000
1000
0000
0100
0000
0010
0000
0001
0000
0100
0000
0010
0000
1000
0000
0010
0000
0100
0000
,
0001
1000
0010
1000
0001
0010
0100
0010
0001
0100
0010
0100
0001
0100
0010
0100
,
0001
0100
0010
0100
0001
0100
0001
0100
0001
0100
0010
1000
0001
0010
0100
1000
,
0100
0010
1000
0010
0100
1000
0010
1000
0001
0100
0010
0100
0010
0100
0010
0100
,
0001
0010
0100
0010
0100
0010
0100
0010
0001
0100
0010
0100
0010
0100
0010
0100
,
0001
0010
1000
0010
0001
0100
1000
0100
0001
0010
0100
0010
0001
0010
0100
0010
,
0001
0010
0100
0010
0001
0010
0100
1000
0100
1000
0010
0100
0001
0010
0100
1000
,
0001
0010
0100
0010
0001
0100
0010
0100
0001
1000
0100
1000
0100
1000
0100
1000
,
0001
0100
0010
0100
0010
0100
0010
0100
0001
0010
1000
0010
1000
0010
1000
0010
,
0001
1000
0001
1000
0001
1000
0001
1000
0001
1000
0010
0100
0010
0100
0010
0100
,
1000
0100
1000
0100
1000
0100
1000
0100
0001
0010
0001
0010
1000
0010
1000
0010
,
0100
0010
0100
0010
0100
0010
0100
0010
0100
0010
0001
0100
0001
0100
0001
0100
,
0010
1000
0010
1000
0010
1000
0010
1000
0001
0010
0001
0010
1000
0010
1000
0010
,
0001
0100
0010
1000
0010
0100
0001
0010
0100
1000
0100
0010
0001
0100
0010
1000
,
0001
0010
0100
1000
0100
0010
0001
0010
0100
1000
0010
0100
0001
0010
0100
1000
,
0001
0010
0100
1000
0100
0010
0001
0100
0010
1000
0010
0100
0001
0010
0100
1000
,
0001
0000
0000
0000
0000
0000
0100
0000
0000
0000
0000
0000
0001
0000
0000
0000
0000
0000
0100
0000
0000
0000
0000
0000
0001
0000
0000
0000
0000
0000
0000
0000
0000
0000
0000
0000
1000
0000
0000
0000
0000
0000
0000
0000
0000
0000
0000
0000
0100
0000
0000
0000
0000
0000
0000
0000
0000
0000
0000
0000
0000
0000
0000
0000
0000
0000
0000
0000
0000
0000
0000
0000
1000
0000
0000
0000
0000
0000
0000
0000
0000
0000
0000
0000
0001
0000
0000
0000
0000
0000
0000
0000
0000
0000
0000
0000
0010
0000
0000
0000
0000
0000
0000
0000
0000
0000
0000
0000
0000
0000
0000
0000
0000
0000
0000
0000
0000
0000
0000
0000
0010
0000
0000
0000
0000
0000
0000
0000
0000
0000
0000
0000
0000
0000
0000
0000
0000
0000
0000
0000
0000
0000
0000
0000
0010
0000
0000
0000
0000
0000
0000
0000
0100
0000
0000
0000
0000
0000
0000
0000
1000
0000
0000
0000
0000
0000
0000
0000
0001
0000
0000
0000
0000
0000
0000
0000
0000
0000
0000
0000
0000
0000
0000
0000
0000
0000
0000
0000
0000
0000
0000
0000
,
0120
0100
0000
0100
,
0000
0000
0000
0000
0100
0000
0000
0000
0000
0000
0000
0000
0100
0000
1000
0130
,
1000
0100
0000
1000
0000
0000
1000
0000
0000
0000
0000
0001
0000
0000
0001
0000
,
0000
0000
0000
0000
0000
0000
0000
0000
0000
0100
0000
0000
0000
0000
0000
0000
0000
0000
0100
0000
0000
0000
0000
0000
0010
0000
1000
0000
0010
0000
0100
0000
0001
0000
0010
0000
0100
0000
1000
0000
0100
0000
0010
0000
0001
0000
0010
0000
,
0100
1000
0100
0010
0100
1000
0100
0010
0100
1000
0100
0010
0100
1000
0100
0010
,
0001
0100
0001
0010
0001
0100
0001
0010
0100
1000
0100
0010
0100
1000
0100
0010
,
0001
1000
0001
0010
0001
1000
0001
0010
0001
1000
0001
0010
0001
1000
0001
0010
,
0100
1000
0100
0010
0100
1000
0100
0010
0001
0100
0001
0010
0001
0100
0001
0010
,
0100
1000
0100
0010
0100
1000
0100
0010
0100
1000
0100
0010
0100
1000
0100
0010
,
0001
1000
0001
0010
0001
1000
0001
0010
0100
1000
0100
0010
0100
1000
0100
0010
,
0001
0100
0001
1000
0001
0100
0001
1000
0001
0100
0001
1000
0001
0100
0001
1000
,
0010
0001
0010
0100
0010
0001
0010
0100
0001
0010
0001
0100
0001
0010
0001
0100
,
0001
1000
0001
1000
0001
1000
0001
1000
0010
1000
0010
1000
0010
1000
0010
1000
,
0001
0010
0001
0010
0001
0010
0001
0010
0001
0100
0001
0100
0010
1000
0010
1000
,
0001
1000
0001
1000
0001
1000
0001
1000
0001
1000
0001
1000
0001
1000
0001
1000
,
0100
0010
0100
0010
0100
0010
0100
0010
0100
0010
0100
0010
0100
0010
0100
0010
,
0001
0100
0001
0100
0001
0100
0001
0100
0001
0100
0001
0100
0010
1000
0010
1000
,
0001
0100
0001
0100
0001
0100
0001
0100
0001
0100
0001
0100
0001
0100
0001
0100
,
0001
0010
0001
0010
0001
0010
0001
0010
0001
0010
0001
0010
0001
0010
0001
0010
,
0100
1000
0100
1000
0100
1000
0100
1000
0100
1000
0100
1000
0100
1000
0100
1000
,
0001
0010
0001
1000
0010
0100
0001
0010
0001
1000
0001
0100
0010
1000
0001
0100
,
0010
1000
0100
0010
0001
0010
0100
1000
0010
0100
0001
0100
0010
1000
0100
0010
,
0001
0100
0010
1000
0001
0100
0010
1000
0100
0010
0001
1000
0100
0010
0001
1000
,
0010
0100
0001
0100
0010
1000
0100
1000
0010
0100
0001
1000
0010
1000
0100
1000
,
0001
0010
0100
1000
0010
0100
0001
0010
0001
1000
0001
0100
0010
1000
0010
0100
,
0010
1000
0100
0010
1000
0010
0100
1000
0010
0100
1000
0100
0010
1000
0100
0010
,
0001
0100
0010
1000
0001
0010
0100
1000
0100
0010
1000
0010
0100
0010
0001
1000
,
0010
0100
1000
0100
0010
1000
0001
1000
0010
0001
0010
1000
0100
0010
0100
1000
,
0001
0010
0100
1000
0100
1000
0001
0010
0100
1000
0100
1000
0001
0010
0100
1000
,
0001
0100
0010
1000
0010
1000
0001
0100
0010
1000
0010
1000
0001
0100
0010
1000
,
0001
0010
0100
1000
0100
1000
0001
0010
0100
1000
0100
1000
0001
0010
0100
1000
,
0001
0100
0010
1000
0010
1000
0001
0100
0010
1000
0010
1000
0001
0100
0010
1000
,
0001
0010
0100
1000
0100
1000
0001
0010
0100
1000
0100
1000
0001
0010
0100
1000
,
0001
0100
0010
1000
0010
1000
0001
0100
0010
1000
0010
1000
0001
0100
0010
1000
,
0001
0010
0100
1000
0001
0010
0100
1000
0001
0010
0100
1000
0001
0010
0100
1000
,
0001
0000
0000
0010
0000
0000
0100
0000
0000
1000
0000
0000
0001
0000
0000
0010
0000
0000
0100
0000
0000
1000
0000
0000
0001
0000
0010
0000
0100
0000
1000
0000
0100
0000
0010
0000
0001
0000
0100
0000
0010
0000
1000
0000
0010
0000
0100
0000
,
0010
0100
0010
0100
0001
1000
0100
1000
0001
0010
0100
0010
0001
0010
0100
0010
,
0001
0010
0100
0010
0001
1000
0001
1000
0001
0010
0100
1000
0001
0100
0010
1000
,
0100
0010
0001
0010
0100
1000
0001
1000
0010
0100
1000
0100
1000
0100
1000
0100
,
0001
0010
1000
0010
1000
0010
1000
0010
0001
1000
0100
1000
0100
1000
0100
1000
,
0001
0010
0100
0010
0001
1000
0100
1000
0001
0100
0010
0100
0001
0100
0010
0100
,
0001
0100
0010
0100
0001
0100
0010
1000
0010
1000
0100
0010
0001
0010
0100
1000
,
0001
0100
0010
0100
0001
0010
0100
0010
0001
1000
0010
1000
0010
1000
0010
1000
,
0001
0100
1000
0100
1000
0100
1000
0100
0001
0010
0100
0010
0100
0010
0100
0010
,
0001
0100
1000
0001
0010
0001
1000
0001
0010
1000
0001
1000
0100
0010
0001
0010
,
0100
1000
0100
0010
0001
0100
0010
0001
1000
0100
0010
1000
0001
0100
0010
1000
,
0010
0100
0001
0100
0010
0001
0100
0001
1000
0100
0001
0100
1000
0100
0001
0100
,
0010
1000
0100
1000
0010
1000
0100
1000
0001
0010
1000
0001
0100
1000
0010
0100
,
0001
1000
0100
1000
0001
0100
1000
0100
0001
0010
1000
0010
0001
0010
1000
0010
,
0001
0010
1000
0001
0100
1000
0010
0100
0010
0100
0001
0100
0010
1000
0100
0010
,
0001
0100
1000
0100
0001
0010
0100
0010
0001
0100
1000
0001
0010
1000
0100
1000
,
0001
0010
0100
0010
0001
0010
0100
0010
1000
0001
0100
0001
1000
0010
0100
0010
,
0001
1000
0001
1000
0001
1000
0001
1000
0001
1000
0010
0100
0010
0100
0010
0100
,
0001
0100
0001
0100
0001
0100
0001
0100
0001
0010
0001
0010
0100
1000
0100
1000
,
0010
0100
0010
0100
0010
0100
0010
0100
0010
0100
0001
0010
0001
0010
0001
0010
,
0100
1000
0100
1000
0100
1000
0100
1000
0001
0100
0001
0100
0010
1000
0010
1000
,
0001
0010
0100
1000
0100
0010
0001
0100
0010
1000
0010
0100
0001
0010
0100
1000
,
0001
0100
0010
1000
0010
0100
0001
0100
0010
1000
0100
0010
0001
0100
0010
1000
,
0001
0100
0010
1000
0010
0100
0001
0010
0100
1000
0100
0010
0001
0100
0010
1000
,
0001
0000
0000
0000
0000
0000
0100
0000
0000
0000
0000
0000
0001
0000
0000
0000
0000
0000
0100
0000
0000
0000
0000
0000
0001
0000
0000
0000
0000
0000
0000
0000
0000
0000
0000
0000
1000
0000
0000
0000
0000
0000
0000
0000
0000
0000
0000
0000
0100
0000
0000
0000
0000
0000
0000
0000
0000
0000
0000
0000
0000
0000
0000
0000
0000
0000
0000
0000
0000
0000
0000
0000
1000
0000
0000
0000
0000
0000
0000
0000
0000
0000
0000
0000
0001
0000
0000
0000
0000
0000
0000
0000
0000
0000
0000
0000
0010
0000
0000
0000
0000
0000
0000
0000
0000
0000
0000
0000
0000
0000
0000
0000
0000
0000
0000
0000
0000
0000
0000
0000
0010
0000
0000
0000
0000
0000
0000
0000
0000
0000
0000
0000
0000
0000
0000
0000
0000
0000
0000
0000
0000
0000
0000
0000
0010
0000
0000
0000
0000
0000
0000
0000
0100
0000
0000
0000
0000
0000
0000
0000
1000
0000
0000
0000
0000
0000
0000
0000
0001
0000
0000
0000
0000
0000
0000
0000
0000
0000
0000
0000
0000
0000
0000
0000
0000
0000
0000
0000
0000
0000
0000
0000
,
1001
0000
0000
0000
;

//---------------dance-single - Copied from Copied f----------------
#NOTES:
     dance-single:
     Copied from Copied f:
     Hard:
     9:
     1.000,1.000,0.038,0.200,0.886,927.000,4.000,21.000,0.000,2.000:
2000
0000
3200
0000
,
0300
0000
0000
0000
,
2000
0000
3200
0000
,
0320
0000
0030
0000
,
0002
0000
0203
0000
,
0300
0000
0000
0000
,
0002
0000
0203
0000
,
2320
0000
3000
0000
,
2031
0000
3002
0000
,
0003
0000
0000
0000
0000
0000
0000
0000
0000
0000
0000
1000
0000
0000
1000
0100
,
1000
0000
0000
0001
0000
0000
0001
0000
0000
0000
0000
0100
0000
0000
0100
0000
,
0000
0000
0000
0010
0000
0000
0010
0000
0000
0000
0000
1000
0000
0000
1000
0100
,
1000
0000
0000
0100
0000
0000
0100
0000
0000
0000
0000
1000
0000
0000
1000
0000
,
0000
0000
0000
0001
0000
0000
0001
0000
0000
0000
0000
0100
0000
0000
0100
0001
,
0100
0010
0000
0100
0001
0000
0100
0001
0010
0100
1000
0000
0010
0100
0001
1000
,
0201
0000
0000
0000
,
0301
0000
0001
0100
1000
0000
0100
0000
0001
0100
1000
0000
0100
0000
0010
0000
,
1000
0000
0100
0010
0001
0000
0010
0000
0100
0010
0001
0000
0010
0000
1000
0000
,
0001
0000
0100
1000
0010
0000
0001
0000
0010
1000
0100
0000
0010
0000
0001
0000
,
1000
0000
0001
0100
1000
0000
0100
0000
1000
0100
0001
0000
0010
0000
0100
0000
,
1000
0000
0001
0100
0010
0000
0100
0000
0001
0100
0010
0000
0100
0000
1000
0000
,
0001
0000
1000
0100
0001
0000
0100
0000
1000
0100
0001
0000
0010
0000
0100
0000
,
1000
0000
0100
0010
0001
0000
1000
0000
0001
0010
0100
0000
1000
0000
0010
0000
,
0100
0000
0001
0010
1000
0000
0010
0000
0002
0000
1003
0010
0100
0000
0010
0000
,
1000
0100
0010
0001
0010
0001
1000
0100
0010
0001
0010
0001
1000
0100
0010
0001
,
1000
0010
0100
0001
0100
0001
1000
0010
0100
0001
0100
0001
1000
0010
0100
0001
,
1000
0100
0010
0001
0010
0001
1000
0100
0010
0001
0010
0001
1000
0100
0010
0001
,
1000
0010
0100
0001
0100
0001
1000
0010
0100
0001
0100
0001
1000
0010
0100
0001
,
1000
0100
0010
0001
0010
0001
1000
0100
0010
0001
0010
0001
1000
0100
0010
0001
,
1000
0010
0100
0001
0100
0001
1000
0010
0100
0001
0100
0001
1000
0010
0100
0001
,
1000
0100
0010
0001
1000
0100
0010
0001
1000
0100
0010
0001
1000
0100
0010
0001
,
1000
0100
0010
0001
1000
0100
0010
0001
2000
0000
0000
0000
0000
0000
0000
0000
,
3100
0010
0001
1000
0100
0001
0100
1000
,
0100
0001
0100
1000
0010
0100
0001
0010
,
0100
0001
0100
1000
0100
0010
0001
0010
,
0100
1000
0010
1000
0100
0010
0001
0010
,
0100
0010
0001
1000
0100
0001
0100
1000
,
0100
0001
0100
1000
0010
0100
0001
0010
,
0100
0001
0100
1000
0100
0010
0001
0010
,
0100
1000
0010
1000
0100
0010
0001
0010
,
0100
1000
0001
0010
0100
1000
0010
0001
,
0010
0100
0001
1000
0100
0010
0100
0001
,
0100
1000
0010
0100
0001
0010
1000
0010
,
0001
0100
0010
1000
0010
0100
0010
0001
,
0010
0100
0100
0001
0010
0010
0100
1000
,
0010
0100
0100
0100
0001
0010
0001
0100
,
0010
0100
0100
0001
0010
0010
0100
1000
,
1000
0010
0100
0001
0010
0000
0001
1000
0100
0000
0100
0000
0100
0010
0001
1000
,
0020
0100
0000
0100
,
0000
0000
0100
0000
0000
0000
0100
1000
,
1030
0000
0000
1000
0000
0000
1000
0000
0000
0000
0000
0001
0000
0000
0001
0000
,
0000
0000
0000
0100
0000
0000
0100
0000
0020
0000
0000
0000
0000
0000
0000
0000
,
0031
0000
1000
0100
1000
0000
0001
0000
1000
0100
1000
0000
0100
0000
0010
0000
,
1000
0000
0100
0001
0100
0000
1000
0000
0100
0001
0100
0000
1000
0000
0001
0000
,
0100
0000
0010
0001
0010
0000
0100
0000
0010
0001
0010
0000
1000
0000
0001
0000
,
0010
0000
0100
0001
0100
0000
0010
0000
0100
0001
0100
0000
0010
0000
0100
0000
,
1000
0000
0010
0001
0010
0000
1000
0000
0010
0001
0010
0000
1000
0000
0100
0000
,
0001
0000
0100
0010
0100
0000
0001
0000
0100
0010
0100
0000
1000
0000
0010
0000
,
0001
0000
1000
0100
1000
0000
0001
0000
1000
0100
1000
0000
0100
0000
0001
0000
,
0010
0100
1000
0001
0100
0000
0010
1000
0200
0000
0320
0000
0031
0010
0100
1000
,
0001
0010
0100
0010
0001
0100
0010
0100
,
0001
0010
1000
0010
0100
0001
0100
1000
,
0010
0100
0010
0001
0010
0100
0010
0001
,
1000
0010
1000
0100
1000
0010
1000
0100
,
0010
0001
0010
0100
0010
0001
0010
1000
,
0100
0001
0100
0010
0100
0001
0100
0010
,
0001
0100
0001
0010
0001
0100
0001
0010
,
1000
0001
1000
0010
1000
0001
1000
0010
,
0001
0100
0001
0010
0001
0100
0001
1000
,
0100
0001
0100
1000
0100
0001
0100
1000
,
0001
0010
0100
0010
0001
0100
0010
0100
,
0001
1000
0001
0010
0001
1000
0001
0010
,
0100
0001
0100
1000
0100
0001
0100
0010
,
1000
0100
1000
0010
1000
0100
1000
0010
,
0100
1000
0001
1000
0100
0010
1000
0010
,
0100
0001
0100
1000
0100
0001
0100
1000
,
0001
0010
0100
1000
0100
1000
0001
0010
0100
1000
0100
1000
0001
0010
0100
1000
,
0001
0100
0010
1000
0010
1000
0001
0100
0010
1000
0010
1000
0001
0100
0010
1000
,
0001
0010
0100
1000
0100
1000
0001
0010
0100
1000
0100
1000
0001
0010
0100
1000
,
0001
0100
0010
1000
0010
1000
0001
0100
0010
1000
0010
1000
0001
0100
0010
1000
,
0001
0010
0100
1000
0100
1000
0001
0010
0100
1000
0100
1000
0001
0010
0100
1000
,
0001
0100
0010
1000
0010
1000
0001
0100
0010
1000
0010
1000
0001
0100
0010
1000
,
0001
0010
0100
1000
0001
0010
0100
1000
0001
0010
0100
1000
0001
0010
0100
1000
,
0001
0010
0100
1000
0001
0010
0100
1000
0002
0000
0000
0000
0000
0000
0000
0000
,
0013
0100
1000
0001
0010
1000
0010
0001
,
0010
1000
0010
0001
0100
0010
1000
0100
,
0010
1000
0010
0001
0010
0100
1000
0100
,
0010
0001
0100
0001
0010
0100
1000
0100
,
0010
0100
1000
0001
0010
1000
0010
0001
,
0010
1000
0010
0001
0100
0010
1000
0100
,
0010
1000
0010
0001
0010
0100
1000
0100
,
0010
0001
0100
0001
0010
0100
1000
0100
,
0010
0100
1000
0001
0010
1000
0010
0001
,
0010
1000
0010
0001
0100
0010
1000
0100
,
0010
1000
0010
0001
0010
0100
1000
0100
,
0010
0001
0100
0001
0010
0100
1000
0100
,
0010
0100
1000
0001
0010
1000
0010
0001
,
0010
1000
0010
0001
0100
0010
1000
0100
,
0010
1000
0010
0001
0010
0100
1000
0100
,
0010
0001
0100
0001
0010
0100
1000
0100
,
0010
0001
1000
0100
0010
0001
0100
1000
,
0100
0010
1000
0001
0010
0100
0010
1000
,
0010
0001
0100
0010
1000
0100
0001
0100
,
1000
0010
0100
0001
0100
0010
0100
1000
,
0100
0010
0010
1000
0100
0100
0010
0001
,
0100
0010
0010
0010
1000
0100
1000
0010
,
0100
0010
0010
1000
0100
0100
0010
0001
,
0001
0100
0010
1000
0100
0000
1000
0001
0010
0000
0010
0000
0010
0100
1000
0001
,
1001
0000
0000
0000
;
