#TITLE:Befriend a Child Killer;
#SUBTITLE:(Remix);
#ARTIST:Venetian Snares;
#TITLETRANSLIT:;
#SUBTITLETRANSLIT:;
#ARTISTTRANSLIT:;
#CREDIT:;
#BANNER:befriend a child killer (remix) - banner.png;
#BACKGROUND:befriend a child killer (remix).png;
#LYRICSPATH:;
#CDTITLE:!phynnTitle.gif;
#MUSIC:befriend a child killer (remix).mp3;
#OFFSET:0.030;
#SAMPLESTART:100.000;
#SAMPLELENGTH:12.000;
#SELECTABLE:YES;
#BPMS:0.000=200.000,182.000=100.000,211.000=2000.000,331.000=200.000,374.000=100.000,380.500=200.000,489.000=25.000;
#STOPS:211.000=29.400
;
#BGCHANGES:;
// cache tags:
#FIRSTBEAT:42.000;
#LASTBEAT:496.000;
#SONGFILENAME:Songs/Essential Sim Collection/(Phynn) befriend a child killer (remix)/befriend a child killer (remix).sm;
#HASMUSIC:1;
#HASBANNER:1;
#MUSICLENGTH:172.042;
// end cache tags

//---------------dance-single - ----------------
#NOTES:
     dance-single:
     :
     Challenge:
     13:
     0.775,1.000,0.901,0.343,0.747,719.000,155.000,59.000,0.000,15.000:  // measure 1
0000
0000
0000
0000
,  // measure 2
0000
0000
0000
0000
,  // measure 3
0000
0000
0000
0000
,  // measure 4
0000
0000
0000
0000
,  // measure 5
0000
0000
0000
0000
,  // measure 6
0000
0000
0000
0000
,  // measure 7
0000
0000
0000
0000
,  // measure 8
0000
0000
0000
0000
,  // measure 9
0000
0000
0000
0000
,  // measure 10
0000
0000
0000
0000
,  // measure 11
0000
0000
0001
0000
,  // measure 12
0000
0000
0000
1000
0010
0001
0100
1000
0000
0000
0000
0000
0000
0000
0000
0000
,  // measure 13
0000
0000
0000
0000
,  // measure 14
0000
0000
0000
0000
,  // measure 15
1000
0000
0000
0000
0000
0000
0000
0000
0000
0000
0000
0010
1000
0001
0100
1000
,  // measure 16
0000
0000
0000
0100
,  // measure 17
0000
0000
0000
0000
0000
0000
0000
1000
0010
0001
0100
0010
0000
0000
0000
0000
,  // measure 18
0000
0000
0000
1000
0100
1000
0100
0000
0022
0000
0000
0000
0000
0000
1133
0000
,  // measure 19
0000
0000
0000
0000
0000
0000
0000
0000
0000
0010
0100
1000
0002
0003
0010
0100
,  // measure 20
1000
0010
1000
0010
0100
0000
0000
0000
0001
0010
1000
0000
0000
0000
0000
0000
,  // measure 21
0000
0000
0000
0000
0000
1000
0100
0010
0100
0010
0100
0010
0001
0000
0000
0000
,  // measure 22
1100
0000
0000
1100
0000
0000
0011
0000
,  // measure 23
0220
0000
0000
0000
0331
1000
0100
0010
0100
1000
0001
1000
0001
0000
0000
0000
,  // measure 24
0011
0000
0100
0000
0011
0000
0100
0000
0010
1000
0010
1000
0001
0100
0001
0100
,  // measure 25
0010
0100
0010
0100
0010
0000
0000
0000
2002
0000
0000
0000
3003
0000
0110
0000
,  // measure 26
0000
1000
0001
0000
1100
0000
0000
0000
0010
0000
0000
0000
0001
0010
0001
0100
,  // measure 27
1000
0000
0000
0100
0000
0000
0010
0000
0100
0000
0010
0000
0100
0000
0000
0000
0000
0000
0000
0000
0000
0000
0000
0000
0011
0000
0000
0000
0000
0000
0100
0000
0000
0000
0000
0000
1010
0000
0000
0000
0000
0000
0001
0000
0000
0000
0000
0000
,  // measure 28
1100
0000
0000
0100
0000
0000
0000
0000
,  // measure 29
0000
0000
0000
0110
0000
0000
1000
0000
,  // measure 30
0000
0000
0000
0000
0000
0000
0000
0000
0000
0000
0000
0000
0010
0000
0000
0100
0000
0000
0010
0000
0000
1000
0000
0000
0100
0000
0000
0010
0000
0000
0001
0000
0010
0000
0001
0000
0010
0000
0000
0000
0000
0000
0000
0000
0000
0000
0000
0000
,  // measure 31
1100
0000
0010
0000
0101
0000
1000
0000
0010
0001
0010
0001
1000
0100
0010
0001
,  // measure 32
0100
0000
0000
0010
0000
0000
1000
0000
0100
0000
0010
0000
0001
0000
0000
0000
0000
0000
0000
0000
0000
0000
0000
0000
0011
0000
0000
0000
0000
0000
1000
0000
0000
0000
0000
0000
0100
0000
0000
0000
0000
0000
0012
0000
0000
0000
0000
0000
,  // measure 33
0010
0000
0013
0000
1000
0100
1000
0100
0010
0001
0010
0000
1000
0010
1000
0010
,  // measure 34
0100
0000
0001
0000
1010
0000
0001
0010
0100
0000
0010
1000
0100
0000
0001
0000
,  // measure 35
0110
0000
1001
0000
0010
0100
0010
0100
0010
1000
0001
0100
0001
0000
0010
0000
,  // measure 36
1100
0000
0010
0000
0101
0000
0010
0100
0001
0010
1100
0000
0001
0100
0010
0010
,  // measure 37
0010
0010
2100
0000
3001
0100
0010
0100
0001
0000
0100
0000
1001
0000
0010
0000
,  // measure 38
0110
0000
0000
0000
0001
0000
0100
0000
0010
0000
0000
0000
1020
0000
0000
0000
1030
0000
0000
0000
0001
0000
0010
0000
0100
0000
0000
0000
0001
0000
2200
3300
,  // measure 39
0000
0000
0001
0000
2200
3300
0000
0000
0001
0000
0100
0000
0010
0000
0000
0000
1100
0000
0000
0000
0001
0000
0100
0000
0010
0000
0000
0000
1001
0000
0000
0000
,  // measure 40
0001
0000
0000
0000
1100
0000
0000
0000
0010
0000
0000
0000
0010
0000
0000
0000
0100
0000
0001
0000
0100
0000
0001
0000
0010
0100
0010
0100
0000
0000
0010
0000
,  // measure 41
0100
0010
0001
0000
1100
0000
0001
0000
0010
0000
0100
1000
0100
1000
0010
0000
,  // measure 42
0101
0000
1010
0000
0000
0010
1000
0010
0100
0000
0001
1000
0001
1000
0010
0000
,  // measure 43
1001
0000
0010
0000
0010
0000
1100
0000
0001
0010
0100
0000
1000
0000
0020
0000
,  // measure 44
1130
0000
1100
0000
1100
0000
1001
0000
1001
0000
1001
0000
1010
0000
0001
1000
,  // measure 45
0001
0200
0310
1000
0001
0010
0001
1000
0010
0010
0010
0100
0001
0010
0100
0010
,  // measure 46
0002
0000
0003
0000
0002
0000
0003
0000
2002
0000
0000
3113
0000
0000
0000
0000
,  // measure 47
0000
0000
0000
0000
0000
0000
0220
0000
0000
1331
0000
0000
0000
0000
0000
0000
,  // measure 48
0000
0000
0000
0000
2002
0000
0000
3113
0000
0000
0000
0000
0000
0000
0000
0000
,  // measure 49
0000
0000
0220
0000
0000
1331
0000
0000
0000
0000
0000
0000
0000
0000
0000
0000
,  // measure 50
2020
0000
0000
3131
0000
0000
0000
0000
0000
0000
0000
0000
0000
0000
0202
0000
,  // measure 51
0000
1313
0000
0000
0000
0000
0000
0000
0000
0000
0000
0000
2200
0000
0000
3311
,  // measure 52
0000
0000
0000
0000
0000
0000
0000
0000
0000
0000
0022
0000
0000
1133
0000
0000
,  // measure 53
0000
0000
0000
0000
0000
0000
0000
0000
2002
0000
0000
3113
0000
0000
0000
0000
,  // measure 54
0000
0000
0000
0000
,  // measure 55
0000
0000
0000
0000
,  // measure 56
0000
0000
0000
0000
,  // measure 57
0000
0000
0000
0000
,  // measure 58
0000
0000
0000
0000
,  // measure 59
0000
0000
0000
0000
,  // measure 60
0000
0000
0000
0000
,  // measure 61
0000
0000
0000
0000
,  // measure 62
0000
0000
0000
0000
,  // measure 63
0000
0000
0000
0000
,  // measure 64
0000
0000
0000
0000
,  // measure 65
0000
0000
0000
0000
,  // measure 66
0000
0000
0000
0000
,  // measure 67
0000
0000
0000
0000
,  // measure 68
0000
0000
0000
0000
,  // measure 69
0000
0000
0000
0000
,  // measure 70
0000
0000
0000
0000
,  // measure 71
0000
0000
0000
0000
,  // measure 72
0000
0000
0000
0000
,  // measure 73
0000
0000
0000
0000
,  // measure 74
0000
0000
0000
0000
,  // measure 75
0000
0000
0000
0000
,  // measure 76
0000
0000
0000
0000
,  // measure 77
0000
0000
0000
0000
,  // measure 78
0000
0000
0000
0000
,  // measure 79
0000
0000
0000
0000
,  // measure 80
0000
0000
0000
0000
,  // measure 81
0000
0000
0000
0000
,  // measure 82
0000
0000
0000
0000
,  // measure 83
0000
0000
0000
0000
0000
0000
0000
0000
0000
0000
0000
0000
1001
0000
0010
0100
,  // measure 84
1000
0000
0011
0000
1000
0010
0100
0010
1000
0001
0200
0300
0010
0010
1100
0000
,  // measure 85
0011
0000
1000
0010
1000
0010
0100
0001
1010
0000
0001
0010
0100
0000
1010
0000
,  // measure 86
0001
1000
0001
1000
0010
0100
0002
0013
0100
0100
1010
0000
0011
0000
0000
1000
,  // measure 87
0100
1000
0010
0100
1001
0000
0012
0000
0100
0000
1000
0000
0100
0000
0013
0000
,  // measure 88
0000
0000
1001
0010
1001
0010
1001
0010
,  // measure 89
1001
0000
0000
0000
1001
0000
0000
0000
0110
0000
0000
0000
1001
0000
0000
0000
0001
0000
0010
0100
1000
0000
0000
0000
0010
0000
0100
0000
0010
0000
0100
0010
,  // measure 90
1000
0000
0010
0000
1000
0000
0010
0000
0200
0300
0001
0000
0200
0300
0001
0000
0200
0300
0001
0010
0100
1000
0000
0000
1001
0000
0000
0000
0010
0000
0000
0000
,  // measure 91
1010
0000
0001
0000
1000
0001
1000
0001
1100
0000
0011
0000
1000
0100
1001
0000
,  // measure 92
0110
0000
0001
1000
0001
1000
0100
0000
1001
0000
1000
0100
0010
0000
0011
0000
,  // measure 93
1000
0000
0011
0000
1001
0000
0101
0000
0010
1000
0010
1000
0100
0000
0100
0000
,  // measure 94
0100
0000
0000
0000
0020
0000
0000
0000
1031
0000
0000
0000
0010
0000
0000
0000
1000
0000
0100
0000
0100
0000
1000
0000
0010
0000
0000
0000
0001
0100
0001
0100
,  // measure 95
0010
1000
0010
1000
0200
0000
0320
0000
0232
0000
0300
0000
0200
0000
0303
0000
0000
0000
0101
0000
0000
0000
0000
0000
1000
0100
1000
0010
1000
0010
0100
0001
,  // measure 96
0100
0010
1000
0100
1001
0000
0000
0000
1000
0000
0001
0000
0100
0000
0000
0000
0010
0000
0100
0000
0010
0000
0100
0000
0001
0000
0000
0000
1100
0000
0000
0000
,  // measure 97
0001
1000
0001
0000
1100
0000
1010
0001
0100
0010
0100
0000
1000
0000
0101
0000
,  // measure 98
0101
0000
1100
0000
0101
0000
0101
0000
1010
0000
1001
0000
0010
0100
0001
1000
,  // measure 99
0001
1000
0020
0030
0100
0001
1000
0010
0100
0000
0011
0000
1000
0000
0010
0000
,  // measure 100
0100
0001
0100
0001
0010
0000
0100
1000
0010
0100
0000
0010
0000
0000
0100
0010
,  // measure 101
0100
0001
2000
0000
3200
0000
0310
0001
0010
0001
0000
0000
0000
0000
0000
0000
,  // measure 102
0000
0000
0000
0000
0000
0000
0000
0000
0000
0000
0100
0000
0000
0000
0010
0100
,  // measure 103
0020
0030
1001
0000
0010
1000
0010
1000
0100
0010
0100
0010
0001
0100
0010
0000
,  // measure 104
1000
0000
0000
0000
0011
0000
0000
0000
0100
1000
0100
1000
0020
0000
0132
0000
,  // measure 105
1000
0100
0013
0000
0001
0000
0010
1000
0001
0100
0010
1000
0010
0000
0010
1000
,  // measure 106
0001
1000
0010
0000
0100
0100
0001
0010
0100
1000
0010
0000
0000
0010
0100
0000
,  // measure 107
0010
0100
0001
1000
0010
0100
0010
1000
0001
0010
0100
0010
0001
1000
0001
0010
,  // measure 108
1000
0001
0100
0010
1000
0001
0010
0000
0000
0100
0000
0000
0100
0000
0000
0100
,  // measure 109
0010
1000
0001
0010
0100
0010
0001
1000
0010
0100
0010
1000
0001
0010
0100
1000
,  // measure 110
0010
0101
1000
0101
0010
0100
1010
1001
,  // measure 111
0010
0000
1001
0000
0000
1010
0000
0100
0000
0011
0000
0001
1100
0000
0220
0000
,  // measure 112
0330
0000
1010
0000
0100
0000
0010
0000
1001
0000
0110
0000
0001
0010
0100
0000
,  // measure 113
0000
1010
0000
0100
0000
0001
0010
0001
1100
0000
0010
0000
0100
0000
0010
0000
,  // measure 114
0011
0000
1000
0000
0100
0000
0011
0000
0100
1000
0010
0000
0000
0101
0000
0010
,  // measure 115
0000
1000
0100
1000
0011
0000
2020
0000
3030
0000
0100
0000
1010
0000
0100
0000
,  // measure 116
0011
0000
1000
0100
0010
0000
1100
0000
1100
0000
0001
0010
0100
1000
0100
0010
,  // measure 117
0101
1010
0100
0110
0110
0001
0110
0110
,  // measure 118
1000
0100
0010
0000
0000
0101
0000
0010
0000
1000
0100
0010
0101
0000
0010
0000
,  // measure 119
0100
0000
1010
0000
1010
0000
0100
0000
1010
0000
1010
0000
0001
1000
0001
0000
,  // measure 120
0000
1010
0000
0100
0000
0001
0100
0010
1001
0000
0010
0000
0000
0000
0011
1000
,  // measure 121
0011
0000
0000
0000
1000
0100
0011
0000
1000
0100
0010
0000
0000
0011
0000
1000
,  // measure 122
0000
0010
0000
0101
0000
0000
0010
0000
1100
0000
0000
0010
0000
1001
0000
0000
,  // measure 123
0010
1100
0020
0000
0000
0000
0000
0000
,  // measure 124
0000
0000
0000
0000
,  // measure 125
0030
0000
0000
0000
;
