#TITLE:MAX 321 STARS;
#SUBTITLE:;
#ARTIST:SLK-9888.sys;
#TITLETRANSLIT:;
#SUBTITLETRANSLIT:;
#ARTISTTRANSLIT:;
#CREDIT:;
#BANNER:MAX321STARS-banner.png;
#BACKGROUND:MAX321STARS-bg.png;
#LYRICSPATH:;
#CDTITLE:cdtitle.png;
#MUSIC:MAX321STARS.ogg;
#OFFSET:0.000;
#SAMPLESTART:17.940;
#SAMPLELENGTH:12.000;
#SELECTABLE:YES;
#DISPLAYBPM:321.000;
#BPMS:0.000=321.000,352.000=160.500,416.000=321.000;
#STOPS:;
#BGCHANGES:;
// cache tags:
#FIRSTBEAT:32.000;
#LASTBEAT:543.000;
#SONGFILENAME:Songs/Japanese Collaboration Mix/MAX321STARS/MAX321STARS.sm;
#HASMUSIC:1;
#HASBANNER:1;
#MUSICLENGTH:114.312;
// end cache tags

//---------------dance-single - ----------------
#NOTES:
     dance-single:
     :
     Hard:
     10:
     0.887,1.000,0.464,0.359,0.009,616.000,53.000,41.000,0.000,0.000:
0000
0000
0000
0000
,
0000
0000
0000
0000
,
0000
0000
0000
0000
,
0000
0000
0000
0000
,
0000
0000
0000
0000
,
0000
0000
0000
0000
,
0000
0000
0000
0000
,
0000
0000
0000
0000
,
0100
0000
1000
0000
0010
1000
0000
0010
,
0100
0000
0001
0000
0100
0010
0000
0100
,
0001
0000
1000
0000
0010
1000
0000
0100
,
0010
0010
0010
0000
,
0100
0000
1000
0000
0010
1000
0000
0010
,
0100
0000
0001
0000
0100
0010
0000
0100
,
0001
0000
1000
0000
0010
1000
0000
0100
,
0010
0010
0010
0000
,
0100
1000
0010
0000
,
0010
0100
0001
0000
,
0010
1000
0100
0001
,
0010
0000
1001
0000
,
0100
0001
1000
0000
,
0010
0100
0001
0000
,
0100
1000
0010
0100
,
2002
0000
0000
3003
,
0100
0001
1000
0100
,
1000
0000
0001
0000
1000
0001
1000
0000
,
0010
1000
0100
1000
,
0010
0000
1000
0000
0001
1000
0001
0000
,
0100
0001
1000
0100
,
1000
0000
0001
0000
1000
0001
1000
0000
,
0010
1000
0100
1000
,
0010
0000
1000
0000
0001
1000
0001
0000
,
0100
0001
1000
0100
,
1000
0000
0001
0000
1000
0001
1000
0000
,
0010
1000
0100
1000
,
0010
0000
1000
0000
0001
1000
0001
0000
,
1001
0000
0010
0100
1000
0000
0000
0000
,
1001
0000
0100
0010
0001
0000
0000
0000
,
1000
0001
1000
0001
1000
0001
1000
0001
,
1000
0000
1001
0000
,
0001
1000
0001
0000
1000
0000
0100
0000
,
1000
2010
0000
3001
,
1000
0001
1000
0000
0001
0000
0010
0000
,
0001
0000
0100
0000
0001
0010
1000
0000
,
1000
0001
1000
0000
0001
0000
0010
0000
,
0001
0102
0000
1003
,
0001
1000
0001
0000
1000
0000
0100
0000
,
1000
0000
0010
0000
1000
0100
0001
0000
,
1000
0001
1000
0000
1000
0000
0100
0000
,
1000
0010
0100
0001
,
1000
0001
1000
0000
0001
0000
1000
0010
,
0001
0000
1000
0010
0001
0000
0100
0000
,
1001
0000
0010
0100
1000
0000
0000
0000
,
1001
0000
0100
0010
0001
0000
0000
0000
,
1000
0001
1000
0001
1000
0001
1000
0001
,
1000
0000
2002
3003
,
0010
0100
0001
0100
,
0010
0000
1000
0000
0001
0010
1000
0000
,
0100
1000
0010
0100
,
1000
0000
0001
0000
0010
0001
1000
0000
,
0100
0001
0100
1000
,
0100
0000
0010
0000
0100
0001
0010
0000
,
0100
0001
1000
0100
,
0001
0010
0001
0010
0001
0010
0001
0000
,
0100
0010
0001
0000
0100
0010
0001
0000
,
0100
0010
0001
0000
1000
0000
0001
0000
,
1000
0100
0001
0000
1000
0100
0001
0000
,
1000
0100
0001
0000
0001
0000
1000
0000
,
1001
0000
0100
0010
0001
0000
0000
0000
,
1001
0000
0010
0100
1000
0000
0000
0000
,
0001
1000
0001
1000
0001
1000
0001
1000
,
0001
0000
1001
0000
,
0100
1000
0010
1000
0100
0000
0010
0001
,
0100
0001
0010
0000
0100
1000
0010
1000
,
0100
0000
0010
0001
0100
0001
0010
0000
,
0100
1000
0010
1000
0100
0000
0010
0001
,
0100
0001
0010
0000
0100
1000
0010
1000
,
0100
0000
0010
0001
0100
0001
0010
0000
,
0100
1000
0010
1000
0100
0000
0010
0100
,
0010
0100
0010
0100
0010
0100
0010
0000
,
0110
0010
1001
0000
,
0110
0010
1001
0000
,
0110
0100
1001
0000
,
0110
0100
1001
0000
,
0010
1000
0010
1000
0010
0100
0010
0100
,
0010
0001
0010
0001
0010
1000
0010
0000
,
1001
0000
1001
0000
,
0110
0000
0000
0000
2002
0000
0000
3003
,
0120
0000
0100
0130
2001
0000
0001
3001
,
0210
0000
0010
0310
1002
0000
1000
1003
,
0210
0000
0010
0310
1002
0000
1000
1003
,
0210
0000
0010
0310
1002
0000
1000
1003
,
0210
0000
0010
0310
1002
0000
1000
1003
,
0210
0000
0010
0310
1002
0000
1000
1003
,
0210
0000
0010
0310
1002
0000
1000
1003
,
1000
0100
1000
0000
0010
0001
0010
0000
1001
0000
0000
0000
1001
0000
0000
0000
,
0010
0010
0010
0010
,
0010
0010
0220
0330
,
0100
0100
0100
0100
,
0100
0000
0100
0000
0001
0010
1000
0000
,
2002
0000
0000
0000
,
0000
0000
0000
0000
,
0000
0000
0000
0000
0000
0000
0000
0000
0000
0000
0000
0000
0000
3003
0000
0000
,
0200
0000
0000
0000
0001
0001
0001
0301
,
1000
0010
1000
0000
0010
0100
0010
0000
,
0001
0100
0001
0000
0010
1000
0010
0000
,
0100
0010
0100
0000
1000
0001
1000
0000
,
0010
0100
0010
0000
1000
0010
1000
0000
,
1000
0001
1000
0001
1000
0001
1000
0001
,
0010
1000
0001
0100
0010
1000
0001
0100
,
1001
0000
1001
0000
,
2002
0000
0000
3003
,
1000
0010
1000
0000
0010
0100
0010
0000
,
0001
0100
0001
0000
0010
1000
0010
0000
,
0100
0010
0100
0000
1000
0001
1000
0000
,
0010
0100
0010
0000
1000
0010
1000
0000
,
1000
0001
1000
0001
1000
0001
1000
0001
,
0010
1000
0001
0100
0010
1000
0001
0100
,
1001
0000
1001
0000
,
2002
0000
0000
0003
0002
0000
3003
0000
,
1000
0010
1000
0000
0010
0100
0010
0000
,
0001
0100
0001
0000
0010
1000
0010
0000
,
0100
0010
0100
0000
1000
0001
1000
0000
,
0010
0100
0010
0000
1000
0010
1000
0000
,
1000
0001
1000
0001
1000
0001
1000
0001
,
0010
1000
0001
0100
0010
1000
0001
0100
,
1000
0100
0010
0001
,
2002
0000
0000
0003
0002
0000
3003
0000
,
1000
0010
1000
0000
0010
0100
0010
0000
,
0001
0100
0001
0000
0010
1000
0010
0000
,
0100
0010
0100
0000
1000
0001
1000
0000
,
0010
0100
0010
0000
1000
0010
1000
0000
,
1000
0001
1000
0001
1000
0001
1000
0001
,
0010
1000
0001
0100
0010
1000
0001
0100
,
2002
3003
2002
3003
,
2002
0000
0000
3003
;
