#TITLE:Final Fantasy Unlimited;
#SUBTITLE:- Demon Gun Shot;
#ARTIST:Shirou Hamaguchi & Akifumi Tada;
#TITLETRANSLIT:;
#SUBTITLETRANSLIT:;
#ARTISTTRANSLIT:;
#CREDIT:;
#BANNER:Demon Gun Shot.png;
#BACKGROUND:Demon Gun Shot-BG.png;
#LYRICSPATH:;
#CDTITLE:;
#MUSIC:Demon Gun Shot.mp3;
#OFFSET:0.000;
#SAMPLESTART:39.483;
#SAMPLELENGTH:12.000;
#SELECTABLE:YES;
#BPMS:0.000=152.000;
#STOPS:;
#BGCHANGES:4.000=demongunshot.avi=1.000=0=0=1,
160.000=Demon Gun Shot-BG.png=1.000=0=0=1,
99999=-nosongbg-=1.000=0=0=0 // don't automatically add -songbackground-
;
// cache tags:
#FIRSTBEAT:4.500;
#LASTBEAT:163.750;
#SONGFILENAME:Songs/Anime Songs/Demon Gun Shot/Demon Gun Shot.sm;
#HASMUSIC:1;
#HASBANNER:1;
#MUSICLENGTH:71.941;
// end cache tags

//---------------dance-single - BASIC----------------
#NOTES:
     dance-single:
     BASIC:
     Easy:
     3:
     0.258,0.283,0.153,0.056,0.000,115.000,11.000,4.000,0.000,0.000:

0000
0000
0000
0000
,
0000
0000
1001
0000
,
0000
0000
0000
0000
0000
0010
0000
0100
,
1001
0000
0000
0000
,
0000
0110
0110
0000
,
0000
0000
0000
0000
0000
0000
0001
1000
,
2002
0000
0000
0000
,
0000
0000
0000
0000
,
0000
0000
0000
0000
,
0000
3003
1000
0001
,
0010
0100
0001
1000
,
0010
0100
0001
1000
,
0010
0001
1000
0010
,
0001
0001
1000
0010
,
0100
0001
0000
1000
0000
0000
0010
0000
,
1000
0001
1001
0010
,
0100
0001
1000
0010
,
0001
1000
0010
0001
,
0001
1000
0000
0010
0000
0000
0100
0000
,
0001
0000
1000
0000
0010
0010
0000
0001
,
0000
1000
0000
0000
0010
0000
1000
0000
,
0100
0001
0010
0001
,
0100
0000
1000
0000
0010
0000
0001
1000
,
0000
0010
0000
0100
0000
0001
0000
1000
,
0000
0010
0000
0100
0000
0001
0000
1000
,
0000
0010
0000
1000
1001
0000
0000
0000
,
0010
0000
0100
1001
0000
0000
0000
0000
,
0010
0000
0001
1000
0000
0000
0000
0000
,
0010
0100
0001
0220
0000
0000
0000
0000
,
0000
0000
0000
0000
,
0000
0000
0000
0000
,
0000
0000
0000
0000
,
0000
0000
0000
0330
0000
1001
0000
0000
,
0010
0100
0000
0001
0000
1000
0000
0010
,
0000
0100
0000
0001
,
1000
0010
0000
0000
0100
0000
0000
0001
,
0000
1000
0000
0010
0000
0100
0000
0001
,
0000
0000
1000
0000
0000
0010
0000
0100
,
0000
0001
0000
1000
0010
0000
0100
0000
,
0000
0001
0000
0000
1000
0000
0010
0000
,
0000
0100
0000
0001
1000
0000
0110
0000;

//---------------dance-single - ANOTHER----------------
#NOTES:
     dance-single:
     ANOTHER:
     Medium:
     4:
     0.326,0.312,0.181,0.028,0.000,149.000,13.000,2.000,0.000,0.000:

0000
0000
0000
0000
,
0000
1001
0000
0100
0000
0010
0000
1000
,
0000
0001
0000
0010
0000
0100
0001
0000
,
1001
0010
0100
0001
,
1000
0010
1001
0100
,
0000
0010
1000
0000
0000
0001
1000
0000
,
0110
1000
0001
0010
,
0100
0001
1000
1000
,
0001
0000
0000
0100
0000
0010
0000
1000
,
0000
0010
0000
1000
1010
0000
0001
0000
,
0001
0100
0010
1000
,
0001
0010
0100
0001
,
1000
0001
0001
1000
,
1000
0001
0101
1000
,
1000
0001
0010
1000
,
1000
0100
1100
0010
,
0001
1000
0010
0001
,
1000
0010
0100
0100
,
0100
0001
1000
0010
,
0010
0001
1000
0010
,
0100
0001
1000
0010
,
0010
0001
0010
1000
,
0001
0100
0010
1000
,
0001
0010
1001
0010
,
0100
0000
0001
1000
0000
0010
0000
0001
,
0000
0010
0000
1000
0000
0000
0001
0000
,
0010
0000
0100
0001
0000
0000
1000
0000
,
0010
0000
0001
1000
0000
0000
0010
0000
,
0001
0000
1000
2002
0000
0000
0000
0000
,
0000
0000
0000
0000
,
0000
0000
0000
0000
,
0000
0000
0000
3003
,
1001
0000
0000
0010
0000
0100
0000
0001
,
0000
1000
0010
0100
,
0001
0000
0000
1000
0000
0000
0000
0010
,
0000
0100
0001
0000
1000
0000
0000
0010
,
0000
0001
0000
1000
0010
0100
0001
1000
,
0010
0000
0001
0000
0000
0010
0000
0001
,
0000
1000
0010
0000
0101
1000
0010
0101
,
0000
1000
0000
0000
0010
0000
0000
0001
,
0000
1000
0000
0010
0000
1001
1000
0010;

//---------------dance-single - MANIAC----------------
#NOTES:
     dance-single:
     MANIAC:
     Hard:
     7:
     0.485,0.512,0.236,0.056,0.014,223.000,17.000,4.000,0.000,0.000:

0000
0000
0000
0000
,
0000
1001
1000
0001
0100
0010
0001
1000
,
0100
0001
1000
0010
0001
0100
0001
0000
,
1001
1000
0010
0001
0100
0010
0001
0001
,
1000
0100
0010
0000
1001
0010
0100
1000
,
1000
0010
1000
0001
0100
0001
1000
0000
,
0110
1000
0001
0010
,
1000
0010
0001
0010
1000
0001
1000
0001
,
0001
0001
0000
0100
0001
1000
0010
1000
,
1000
0010
0100
0001
1100
0100
0001
0010
,
0001
1000
0100
1000
0100
0100
1000
0010
,
0001
0000
0010
1000
0100
1000
0100
0000
,
0001
1001
0100
0000
0010
0100
1000
0001
,
1000
0010
0001
0100
0101
0001
1000
1000
,
1000
0010
0001
0100
0100
0010
0001
1000
,
0010
1000
0100
0001
1100
0000
0010
0000
,
0001
0100
1000
0000
0010
0100
0001
0000
,
1000
0000
0010
0000
0100
1000
0100
1000
,
0100
1000
0001
0001
1000
0100
0010
0000
,
0001
1000
0100
0010
1000
0010
0001
0100
,
1000
0010
0001
0100
1000
1000
0010
0000
,
0010
1000
0001
0100
0010
0000
1000
0000
,
0001
0000
0100
0001
0010
0000
0100
1000
,
0001
1000
0010
0100
1001
0000
0010
0000
,
0100
0000
0001
1000
0000
0010
0000
0001
,
0000
0010
0000
1000
0110
0000
0001
0000
,
0010
0000
0100
0001
1001
0000
1000
0000
,
0010
0100
0001
1000
1100
0000
0010
0000
,
0100
0010
0001
0220
0000
0000
0000
0000
,
0000
0000
0000
0000
,
0000
0000
0000
0000
,
0000
0000
0000
0330
,
1001
0000
0000
0010
0000
0100
0000
0020
,
0000
0030
1000
0000
0010
0000
0100
0000
,
0200
0000
0000
0000
0000
0000
0000
0300
,
0010
0000
0100
0001
0010
1000
0000
0000
,
0010
0000
0001
0000
1000
0010
0100
0001
,
1000
0010
0000
0001
0000
0000
0010
0000
,
0001
0000
1000
0010
0000
0101
1000
0010
,
0101
0000
1000
0000
0000
0010
0000
0000
,
0001
0000
0000
0000
1000
0000
0010
0000
1000
0000
0101
0000
0010
0100
0010
0100;
