#TITLE:Ganbatte;
#SUBTITLE:;
#ARTIST:Shouton;
#TITLETRANSLIT:;
#SUBTITLETRANSLIT:;
#ARTISTTRANSLIT:;
#CREDIT:;
#BANNER:../_bn-1.png;
#BACKGROUND:../bg-1.png;
#LYRICSPATH:;
#CDTITLE:~CDTitle-@@.png;
#MUSIC:Shouton - Ganbatte.ogg;
#OFFSET:-5.500;
#SAMPLESTART:93.251;
#SAMPLELENGTH:21.939;
#SELECTABLE:YES;
#BPMS:0.000=175.000;
#STOPS:;
#BGCHANGES:;
// cache tags:
#FIRSTBEAT:0.000;
#LASTBEAT:1421.000;
#SONGFILENAME:Songs/Index Tournament 1/Ganbatte/Ganbatte.sm;
#HASMUSIC:1;
#HASBANNER:1;
#MUSICLENGTH:494.001;
// end cache tags

//---------------dance-single - @@----------------
#NOTES:
     dance-single:
     @@:
     Challenge:
     17:
     1.000,1.000,0.000,0.024,1.000,5334.000,0.000,12.000,62.000,0.000:
1000
0100
1000
0010
0100
0001
1000
0100
0010
0001
0100
0010
1000
0001
0100
0001
,
1000
0010
0100
0010
1000
0001
0010
0100
1000
0100
0010
0001
1000
0010
1000
0001
,
0010
0001
0100
0010
1000
0100
1000
0001
0010
0100
1000
0001
1000
0010
0100
0010
,
1000
0100
1000
0001
0100
0010
0100
0001
1000
0100
0010
0001
0100
0001
1000
0001
,
0010
0100
0010
0001
1000
0100
0010
0001
1000
0010
0100
0010
1000
0100
1000
0010
,
0100
0010
1000
0100
1000
0001
0010
0001
0100
0010
0100
0001
1000
0010
1000
0100
,
0010
0000
0001
0000
1000
0000
0100
0000
0010
0000
0001
0000
1000
0000
0000
0010
0000
0000
0100
0000
0000
0001
0000
0000
0010
0000
0000
0100
0000
0000
1000
0000
0000
0010
0000
0000
1000
0000
0000
0001
0000
0000
1000
0000
0000
0100
0000
0000
,
0010
0001
0100
0001
1000
0010
1000
0100
0010
0001
0000
0000
0000
0000
0000
0000
,
1000
0010
0100
0010
1000
0100
0010
0001
1000
0100
0010
0100
1000
0010
0100
0001
,
0010
0000
0000
0001
0000
0000
1000
0000
0000
0001
0000
0000
0100
0000
0010
0000
1000
0000
0001
0000
0000
0100
0000
0000
0001
0000
0000
1000
0000
0000
0010
0000
0000
0100
0000
0000
0001
0000
0000
0010
0000
0000
0100
0000
0000
1000
0000
0000
,
0001
1000
0100
0010
0001
0100
0001
1000
0001
0010
0100
0010
0001
0100
0010
1000
,
0001
1000
0010
0100
0001
0010
0100
0010
0001
1000
0100
0010
0001
0100
0001
1000
,
0010
1000
0001
0100
0001
0010
0100
1000
0001
0010
0100
0010
0001
0100
0010
0100
,
0001
0000
0000
1000
0000
0000
0001
0000
0000
0010
0000
0000
0001
0000
1000
0000
0010
0000
0100
0000
0000
0001
0000
0000
1000
0000
0000
0010
0000
0000
0100
0000
0000
0001
0000
0000
0010
0000
0000
0100
0000
0000
1000
0000
0000
0001
0000
0000
,
0010
0001
1000
0100
1000
0010
0100
0010
1000
0100
0010
0001
0100
0010
0100
0001
,
1000
0100
1000
0100
0010
0001
0100
0010
0100
0010
1000
0010
0100
0001
1000
0100
,
1000
0010
0100
0001
1000
0100
1000
0010
0100
0010
1000
0001
0010
0001
0100
0010
,
1000
0100
0010
0001
0100
0001
1000
0010
1000
0001
1000
0100
0010
0001
0100
0001
,
1000
0010
1000
0100
0010
0001
1000
0010
0100
0001
0010
0001
0100
0010
0100
0001
,
1000
0001
0010
0100
1000
0010
1000
0100
0010
0001
0100
0010
1000
0010
0100
0001
,
0010
0001
0100
0010
1000
0001
1000
0100
1000
0010
0100
0010
1000
0100
0010
0001
,
0100
0010
0100
0001
1000
0010
1000
0100
0010
0001
1000
0010
1000
0001
1000
0100
,
0010
0001
0100
0010
1000
0100
1000
0001
0100
0001
1000
0010
1000
0100
0010
0001
,
1000
0010
1000
0001
0100
0001
0010
0100
1000
0001
0100
0010
1000
0001
0010
0001
,
0100
0010
0100
0001
0010
0001
1000
0010
1000
0001
1000
0100
0010
0001
0100
0010
,
1000
0001
0010
0001
1000
0001
0100
0010
1000
0100
0010
0001
0100
0001
1000
0010
,
0100
0001
0010
0001
1000
0010
0100
0010
1000
0001
0010
0100
1000
0010
1000
0001
,
0100
0001
0010
0100
0010
0001
0100
0010
1000
0001
0100
0001
1000
0100
2000
3000
,
0010
1000
0010
0100
0010
1000
0100
0010
0001
0100
0010
0100
0001
1000
0100
1000
,
0001
1000
0010
0100
0001
0010
0100
1000
0010
0100
0001
0010
0001
1000
0001
0100
,
0010
1000
0100
1000
0001
0010
0100
1000
0010
1000
0001
0100
0001
0010
0100
1000
,
0001
0010
0001
0100
0010
1000
0001
0100
0001
1000
0010
1000
0100
0010
0200
0300
,
1000
0100
0010
0001
0100
0010
1000
0001
1000
0010
1000
0001
0010
0100
1000
0100
,
0010
0001
1000
0001
0100
0010
1000
0100
0010
0001
0100
0010
1000
0100
1000
0010
,
0100
0010
1000
0001
0010
0100
1000
0010
1000
0001
0100
0001
0010
0100
1000
0010
,
1000
0100
0010
0001
0100
0001
0010
0001
1000
0010
1000
0100
1000
0001
0100
0001
,
0010
0100
1000
0010
1000
0001
0100
0001
1000
0100
1000
0010
1000
0100
0010
0001
,
0100
0001
1000
0001
0010
0100
1000
0010
1000
0001
0010
0100
1000
0100
0010
0001
,
0100
0010
0100
0001
0010
0100
1000
0010
1000
0001
1000
0100
0010
0001
0100
0010
,
1000
0001
1000
0010
1000
0001
0100
0010
1000
0100
0010
0001
0100
0001
1000
0100
,
1000
0010
0100
0001
0010
0100
1000
0001
1000
0100
1000
0001
0100
0010
1000
0010
,
0100
0001
1000
0001
0010
0100
1000
0010
0100
0001
0010
0100
1000
0010
1000
0100
,
0010
0100
1000
0001
0100
0010
1000
0100
1000
0001
0010
0001
0100
0010
1000
0100
,
1000
0010
0100
0001
0010
0001
0100
0001
1000
0100
1000
0010
1000
0001
0010
0001
,
0100
0010
1000
0100
1000
0001
0010
0001
1000
0010
1000
0100
1000
0010
0100
0001
,
0010
0001
1000
0001
0100
0010
1000
0100
1000
0001
0100
0010
1000
0010
0100
0001
,
0010
0100
0010
0001
0100
0010
1000
0100
1000
0001
1000
0010
0100
0001
0010
0100
,
1000
0001
1000
0100
1000
0001
0010
0100
1000
0010
0100
0001
0010
0001
1000
0010
,
1000
0100
0010
0001
0100
0010
1000
0001
1000
0010
1000
0001
0010
0100
1000
0100
,
0010
0001
1000
0001
0100
0010
1000
0100
0010
0001
0100
0010
1000
0100
1000
0010
,
0100
0010
1000
0001
0010
0100
1000
0010
1000
0001
0100
0001
0010
0100
1000
0010
,
1000
0100
0010
0001
0100
0001
0010
0001
1000
0010
1000
0100
1000
0001
0100
0001
,
0010
0100
1000
0010
1000
0001
0100
0001
1000
0100
1000
0010
1000
0100
0010
0001
,
0100
0001
1000
0001
0010
0100
1000
0010
1000
0001
0010
0100
1000
0100
0010
0001
,
0100
0010
0100
0001
0010
0100
1000
0010
1000
0001
1000
0100
0010
0001
0100
0010
,
1000
0001
1000
0010
1000
0001
0100
0010
1000
0100
0010
0001
0100
0001
1000
0100
,
1000
0010
0100
0001
0010
0100
1000
0001
1000
0100
1000
0001
0100
0010
1000
0010
,
0100
0001
1000
0001
0010
0100
1000
0010
0100
0001
0010
0100
1000
0010
1000
0100
,
0010
0100
1000
0001
0100
0010
1000
0100
1000
0001
0010
0001
0100
0010
1000
0100
,
1000
0010
0100
0001
0010
0001
0100
0001
1000
0100
1000
0010
1000
0001
0010
0001
,
0100
0010
1000
0100
1000
0001
0010
0001
1000
0010
1000
0100
1000
0010
0100
0001
,
0010
0001
1000
0001
0100
0010
1000
0100
1000
0001
0100
0010
1000
0010
0100
0001
,
0010
0100
0010
0001
0100
0010
1000
0100
1000
0001
1000
0010
0100
0001
0010
0100
,
1000
0000
0000
0001
0000
0000
1000
0000
0000
0100
0000
0000
1000
0000
0000
0001
0000
0000
0010
0000
0000
0100
0000
0000
1000
0000
0000
0010
0000
0000
0100
0000
0000
0001
0000
0000
0010
0000
0000
0000
0000
0000
0001
0000
1000
0000
0001
0000
,
1000
0100
0010
0001
1000
0100
1000
0010
0100
0001
0010
0100
1000
0001
0100
0001
,
1000
0010
1000
0100
0010
0001
1000
0100
1000
0010
0100
0001
1000
0100
1000
0001
,
0100
0010
0100
0001
0010
0100
0010
0001
0100
0010
1000
0001
1000
0100
0010
0001
,
0100
0010
0100
0001
0100
0010
1000
0100
0010
0001
0100
0001
1000
0010
1000
0001
,
0100
0010
0100
0001
1000
0010
1000
0100
0010
0001
0100
0010
1000
0001
0010
0001
,
1000
0100
1000
0010
0100
0001
1000
0010
1000
0100
0010
0001
1000
0010
1000
0001
,
0010
0100
0010
0001
0100
0010
0100
0001
0010
0100
1000
0001
1000
0010
0100
0001
,
1000
0001
0000
0001
0100
0000
0010
1000
0001
0010
0001
1000
0010
1000
0100
0010
,
0001
1000
0100
1000
0001
0010
0001
0100
0010
1000
0100
0010
0001
1000
0010
1000
,
0001
0100
0001
0010
0100
1000
0001
0010
0001
0100
0010
1000
0001
0010
0001
1000
,
0010
0100
0010
1000
0100
0010
0100
1000
0010
0100
0001
1000
0001
0010
0100
1000
,
0010
0100
0010
1000
0010
0100
0001
0010
0100
1000
0010
1000
0001
0100
0001
1000
,
0010
0100
0010
1000
0001
0100
0001
0010
0100
1000
0010
0100
0001
1000
0100
1000
,
0001
0010
0001
0100
0010
1000
0001
0100
0001
0010
0100
1000
0001
0100
0001
1000
,
0100
0010
0100
1000
0010
0100
0010
1000
0100
0010
0001
1000
0001
0100
0010
1000
,
0100
0010
0001
1000
0010
0100
0001
1000
0100
0010
0001
0010
0100
1000
0010
0100
,
0001
1000
0010
1000
0001
0100
0001
0010
0100
1000
0010
0100
0001
1000
0100
1000
,
0001
0010
0001
0100
0010
1000
0001
0100
0001
0010
0100
1000
0001
0100
0001
1000
,
0100
0010
0100
1000
0010
0100
0010
1000
0100
0010
0001
1000
0001
0100
0010
1000
,
0100
0010
0100
1000
0100
0010
0001
0100
0010
1000
0100
1000
0001
0010
0001
1000
,
0100
0010
0100
1000
0001
0010
0001
0100
0010
1000
0100
0010
0001
1000
0010
1000
,
0001
0100
0001
0010
0100
1000
0001
0010
0001
0100
0010
1000
0001
0010
0001
1000
,
0010
0100
0010
1000
0100
0010
0100
1000
0010
0100
0001
1000
0001
0010
0100
1000
,
0010
0100
0001
1000
0100
0010
0001
1000
0010
0100
0001
0100
0010
1000
0100
0010
,
0001
1000
0100
0010
0100
1000
0010
0100
0001
0010
0100
0010
0001
1000
0010
1000
,
0001
0100
0001
0010
0100
1000
0100
0010
0001
0100
0010
1000
0001
0010
0001
1000
,
0010
0100
0010
1000
0100
0010
0100
1000
0010
0100
0001
1000
0001
0010
0100
1000
,
0010
0100
0010
1000
0010
0100
0001
0010
0100
1000
0010
0100
0001
1000
0001
0100
,
0010
1000
0001
0100
0010
0100
0001
0010
0100
1000
0010
0100
0001
1000
0100
1000
,
0001
0010
0001
0100
0010
1000
0001
0100
0001
0010
0100
1000
0001
0100
0001
1000
,
0100
0010
0100
1000
0010
0100
0001
0010
0100
0010
0001
1000
0001
0100
0010
1000
,
0100
0010
0100
1000
0001
0100
0001
1000
0100
0010
0001
0010
0100
1000
0010
0100
,
0001
1000
0100
1000
0010
0100
0001
0010
0001
0100
0010
1000
0100
1000
0001
0010
,
0100
1000
0001
0010
0001
0100
0010
1000
0100
1000
0010
0100
0001
0010
0001
1000
,
0100
0010
0001
1000
0001
0100
0010
0100
0001
1000
0010
1000
0100
0010
0001
0100
,
0001
0010
0100
1000
0010
1000
0100
0010
0001
0100
0001
0010
0100
1000
0001
0010
,
0001
1000
0010
0100
0010
1000
0001
0100
0001
1000
0010
1000
0001
0010
0100
1000
,
0001
0010
0001
1000
0100
0010
0001
1000
0001
0100
0010
1000
0001
0100
0001
1000
,
0010
0100
0010
1000
0001
0010
0100
1000
0100
0010
0001
1000
0001
0010
0100
1000
,
0001
0100
0010
1000
0001
0100
0001
1000
0010
0100
0010
1000
0001
0010
0001
0100
,
0001
1000
0010
1000
0100
0010
0001
0100
0001
0010
0100
1000
0010
1000
0001
0100
,
0010
1000
0001
0100
0001
0010
0100
1000
0010
1000
0100
0010
0001
0100
0001
1000
,
0010
0100
0001
1000
0001
0010
0100
0010
0001
1000
0100
1000
0010
0100
0001
0010
,
0001
0100
0010
1000
0100
1000
0010
0100
0001
0010
0001
0100
0010
1000
0001
0100
,
0001
1000
0100
0010
0100
1000
0001
0010
0001
1000
0100
1000
0001
0100
0010
1000
,
0001
0100
0001
1000
0010
0100
0001
1000
0001
0010
0100
1000
0001
0010
0001
1000
,
0100
0010
0100
1000
0001
0100
0010
1000
0010
0100
0001
1000
0001
0100
0010
1000
,
0001
0000
0000
0000
0000
0000
0000
0000
0000
0001
0000
0000
0000
0000
0000
0000
0000
0000
0001
0000
0000
0000
0000
0000
0000
0000
0000
0001
0000
0000
0000
0000
0000
0000
0000
0000
0001
0000
0000
0000
0000
0000
0100
0000
0001
0000
0100
0000
,
0001
1000
0001
1000
0100
0010
0001
0100
0010
1000
0001
0100
0001
1000
0001
0010
,
0100
1000
0010
0100
0010
1000
0010
0100
0001
0010
0100
1000
0010
1000
0001
0010
,
0001
0100
0010
1000
0001
1000
0010
0100
0001
0010
0001
0100
0010
1000
0001
0010
,
0100
1000
0010
1000
0001
1000
0010
1000
0001
0100
0001
0010
0001
0100
0001
1000
,
0100
0010
0100
0010
0001
0100
0010
1000
0001
0010
0001
1000
0010
0100
0010
1000
,
0100
0010
0001
1000
0001
0010
0100
1000
0001
0100
0001
1000
0001
0010
0100
1000
,
0010
1000
0001
0100
0001
0010
0100
0010
0001
1000
0010
1000
0001
0100
0010
0100
,
0001
0010
0100
1000
0010
1000
0100
0010
0001
1000
0010
0100
0010
1000
0100
0010
,
0001
1000
0001
1000
0010
0100
0001
0010
0100
1000
0001
0010
0001
1000
0001
0100
,
0010
1000
0100
0010
0100
1000
0100
0010
0001
0100
0010
1000
0100
1000
0001
0100
,
0001
0010
0100
1000
0001
1000
0100
0010
0001
0100
0001
0010
0100
1000
0001
0100
,
0010
1000
0100
1000
0001
1000
0100
1000
0001
0010
0001
0100
0001
0010
0001
1000
,
0010
0100
0010
0100
0001
0010
0100
1000
0001
0100
0001
1000
0100
0010
0100
1000
,
0010
0100
0001
1000
0001
0100
0010
1000
0001
0010
0001
1000
0001
0100
0010
1000
,
0100
1000
0001
0010
0001
0100
0010
0100
0001
1000
0100
1000
0001
0010
0100
0010
,
0001
0100
0010
1000
0100
1000
0010
0100
0001
1000
0001
1000
0010
0100
0010
0100
,
0001
0010
0001
0010
0100
1000
0010
0100
0001
0010
0001
1000
0010
0100
0001
0100
,
0010
1000
0100
0010
0001
1000
0010
1000
0001
0010
0100
1000
0010
0100
0001
1000
,
0100
0010
0001
0010
0100
0010
0001
0100
0010
1000
0100
1000
0001
0100
0010
0100
,
0001
1000
0100
0010
0001
0100
0010
0100
0001
0010
0001
0100
0010
1000
0001
1000
,
0100
0010
0100
0010
0001
0100
0010
1000
0001
0010
0100
0010
0001
0100
0010
1000
,
0100
0010
0001
0010
0100
0010
0001
0100
0010
1000
0001
0100
0001
0010
0100
1000
,
0001
0100
0001
0100
0010
1000
0100
1000
0001
0010
0100
1000
0010
0100
0001
0100
,
0010
1000
0100
0010
0001
0100
0010
0100
0001
0010
0001
0100
0010
1000
0100
1000
,
0001
0100
0001
0100
0010
1000
0100
0010
0001
0100
0001
1000
0100
0010
0001
0010
,
0100
1000
0010
0100
0001
1000
0100
1000
0001
0100
0010
1000
0100
0010
0001
1000
,
0010
0100
0001
0100
0010
0100
0001
0010
0100
1000
0010
1000
0001
0010
0100
0010
,
0001
1000
0010
0100
0001
0010
0100
0010
0001
0100
0001
0010
0100
1000
0001
1000
,
0010
0100
0010
1000
0001
0100
0001
1000
0100
0010
0100
1000
0010
0100
0001
1000
,
0001
0010
0100
1000
0001
0010
0001
1000
0010
0100
0010
1000
0100
0010
0001
1000
,
0010
0100
0010
1000
0001
0100
0001
1000
0100
0010
0100
1000
0010
0100
0010
1000
,
0002
0003
0020
0030
0200
0300
2000
3000
,
1000
0010
0100
0001
0010
0100
1000
0001
0100
0010
1000
0100
0010
0001
1000
0001
,
0100
0010
0100
0001
0100
0010
1000
0100
0010
0001
1000
0010
1000
0100
0010
0001
,
0100
0010
0100
0001
1000
0010
1000
0001
0010
0001
0100
0001
1000
0100
0010
0100
,
1000
0010
1000
0100
0010
0001
0100
0001
1000
0100
1000
0010
0100
0010
1000
0100
,
1000
0010
0100
0001
1000
0100
1000
0001
0100
0010
1000
0100
0010
0001
1000
0010
,
1000
0100
0010
0100
1000
0001
0100
0010
0100
0001
0010
0100
1000
0010
0100
0001
,
1000
0100
0010
0001
0100
0010
1000
0001
0010
0001
1000
0010
0100
0001
0010
0001
,
1000
0010
1000
0001
1000
0010
0100
0010
1000
0001
0010
0001
1000
0100
1000
0010
,
1000
0100
0010
0001
0100
0010
1000
0001
0010
0100
1000
0010
0100
0001
1000
0001
,
0010
0100
0010
0001
0010
0100
1000
0010
0100
0001
1000
0100
1000
0010
0100
0001
,
0010
0100
0010
0001
1000
0100
1000
0001
0100
0001
0010
0001
1000
0010
0100
0010
,
1000
0100
1000
0010
0100
0001
0010
0001
1000
0010
1000
0100
0010
0100
1000
0010
,
1000
0100
0010
0001
1000
0010
1000
0001
0010
0100
1000
0010
0100
0001
1000
0100
,
1000
0010
0100
0010
1000
0001
0010
0100
0010
0001
0100
0010
1000
0100
0010
0001
,
1000
0010
0100
0001
0010
0100
1000
0001
0100
0001
1000
0100
0010
0001
0100
0001
,
1000
0100
1000
0001
1000
0100
0010
0100
1000
0001
0100
0001
1000
0010
1000
0100
,
0010
0001
1000
0100
0010
0001
4000
0000
0000
0000
0000
0000
0000
0000
0000
0000
0000
0000
0000
0000
0000
0000
0000
0000
,
0000
0000
0000
0000
0000
0000
0000
0000
0000
3000
0000
0000
00M0
0000
0000
0000
0M00
0000
0000
0000
M000
0000
0000
0000
,
00M0
0000
000M
0000
0M00
0000
00M0
0000
000M
0000
M000
0000
,
00M0
0000
M000
0000
000M
0000
00M0
0000
0M00
0000
000M
0000
,
1000
0010
1000
0100
0010
0100
1000
0010
1000
0001
0010
0001
1000
0010
1000
0001
,
0010
0001
1000
0010
1000
0001
0010
0001
1000
0010
1000
0001
0010
0001
1000
0010
,
1000
0001
0010
0001
1000
0010
1000
0001
0010
0001
1000
0010
1000
0001
0010
0001
,
1000
0010
1000
0001
0010
0001
1000
0010
1000
0001
0010
0001
1000
0010
1000
0001
,
0010
0001
1000
0100
1000
0010
0100
0010
1000
0100
1000
0010
0100
0010
1000
0100
,
1000
0010
0100
0010
1000
0100
1000
0010
0100
0010
1000
0100
1000
0010
0100
0010
,
1000
0100
1000
0010
0100
0010
1000
0100
1000
0010
0100
0010
1000
0100
1000
0010
,
0100
0010
1000
0100
1000
0010
0100
0010
1000
0100
1000
0010
0100
0000
0100
0000
,
0001
0100
0001
0010
0100
0010
0001
0100
0001
1000
0100
1000
0001
0100
0001
1000
,
0100
1000
0001
0100
0001
1000
0100
1000
0001
0100
0001
1000
0100
1000
0001
0100
,
0001
1000
0100
1000
0001
0100
0001
1000
0100
1000
0001
0100
0001
1000
0100
1000
,
0001
0100
0001
1000
0100
1000
0001
0100
0001
1000
0100
1000
0001
0100
0001
1000
,
0100
1000
0001
0010
0001
0100
0010
0100
0001
0010
0001
0100
0010
0100
0001
0010
,
0001
0100
0010
0100
0001
0010
0001
0100
0010
0100
0001
0010
0001
0100
0010
0100
,
0001
0010
0001
0100
0010
0100
0001
0010
0001
0100
0010
0100
0001
0010
0001
0100
,
0010
0100
0000
0100
0001
0010
0100
1000
0010
0100
0001
0000
0000
0000
0001
0000
,
1000
0100
0010
0001
0100
0010
0100
0001
1000
0100
1000
0010
0100
0010
1000
0100
,
1000
0001
0100
0001
1000
0001
0010
0100
1000
0010
1000
0100
0010
0100
1000
0010
,
0100
0001
0100
0001
0010
0100
1000
0001
0100
0001
0010
0100
1000
0010
1000
0001
,
0100
0010
0100
0001
0010
0100
0010
0001
1000
0010
1000
0001
0010
0001
1000
0010
,
1000
0100
0010
0001
0100
0010
0100
0001
1000
0100
1000
0010
0100
0001
0010
0100
,
1000
0010
1000
0001
0100
0001
0010
0100
0010
0001
0100
0010
1000
0100
0010
0001
,
1000
0010
1000
0100
1000
0010
1000
0100
0010
0001
0100
0010
0100
0001
1000
0001
,
0010
0100
1000
0100
0010
0100
1000
0010
0100
0001
0010
0100
0010
0001
1000
0100
,
1000
0010
0100
0001
0010
0100
0010
0001
1000
0010
1000
0100
0010
0100
1000
0010
,
1000
0001
0010
0001
1000
0001
0100
0010
1000
0100
1000
0010
0100
0010
1000
0100
,
0010
0001
0010
0001
0100
0010
1000
0001
0010
0001
0100
0010
1000
0100
1000
0001
,
0010
0100
0010
0001
0100
0010
0100
0001
1000
0100
1000
0001
0100
0001
1000
0100
,
1000
0010
0100
0001
0010
0100
0010
0001
1000
0010
1000
0100
0010
0001
0100
0010
,
1000
0100
1000
0001
0010
0001
0100
0010
0100
0001
0010
0100
1000
0010
0100
0001
,
1000
0100
1000
0010
1000
0100
1000
0010
0100
0001
0010
0100
0010
0001
1000
0001
,
0100
0010
1000
0010
0100
0010
1000
0100
0010
0001
0100
0010
0100
0001
1000
0010
,
1000
0100
0010
0001
0100
0010
0100
0001
1000
0100
1000
0010
0100
0010
1000
0100
,
1000
0001
0100
0001
1000
0001
0010
0100
1000
0010
1000
0100
0010
0100
1000
0010
,
0100
0001
0100
0001
0010
0100
1000
0001
0100
0001
0010
0100
1000
0010
1000
0001
,
0100
0010
0100
0001
0010
0100
0010
0001
1000
0010
1000
0001
0010
0001
1000
0010
,
1000
0100
0010
0001
0100
0010
0100
0001
1000
0100
1000
0010
0100
0001
0010
0100
,
1000
0010
1000
0001
0100
0001
0010
0100
0010
0001
0100
0010
1000
0100
0010
0001
,
1000
0010
1000
0100
1000
0010
1000
0100
0010
0001
0100
0010
0100
0001
1000
0001
,
0010
0000
0000
0100
0000
0000
1000
0000
0000
0100
0000
0000
0010
0000
0000
0100
0000
0000
1000
0000
0000
0010
0000
0000
0100
0000
0001
0000
1000
0000
0010
0000
0100
0000
0001
0000
1000
0000
0000
0000
0000
0000
0000
0000
0000
0000
0000
0000
,
0001
0100
0010
1000
0100
0010
0100
1000
0001
0100
0001
0010
0100
0010
0001
0100
,
0001
1000
0100
1000
0001
1000
0010
0100
0001
0010
0001
0100
0010
0100
0001
0010
,
0100
1000
0100
1000
0010
0100
0001
1000
0100
1000
0010
0100
0001
0010
0001
1000
,
0100
0010
0100
1000
0010
0100
0010
1000
0001
0010
0001
1000
0010
1000
0001
0010
,
0001
0100
0010
1000
0100
0010
0100
1000
0001
0100
0001
0010
0100
1000
0010
0100
,
0001
0010
0001
1000
0100
1000
0010
0100
0010
1000
0100
0010
0001
0100
0010
1000
,
0001
0010
0001
0100
0001
0010
0001
0100
0010
1000
0100
0010
0100
1000
0001
1000
,
0010
0100
0001
0100
0010
0100
0001
0010
0100
0000
0000
0000
0000
0000
4000
3000
,
0001
0100
0010
0100
0001
0010
0100
1000
0010
1000
0001
0100
0001
0010
0100
1000
,
0010
0100
0010
1000
0100
0010
0001
1000
0010
0100
0001
0010
0100
1000
0001
0100
,
0010
1000
0010
0100
0010
1000
0100
0010
0001
0100
0010
0100
0001
0010
0100
1000
,
0010
0100
0010
1000
0010
0100
0001
0010
0100
1000
0010
1000
0100
0010
0001
0100
,
0010
1000
0100
1000
0001
0010
0100
1000
0010
1000
0100
1000
0010
0100
0001
0010
,
0100
1000
0010
0100
0010
1000
0100
0010
0001
0100
0010
0100
0001
1000
0010
1000
,
0100
0010
0001
1000
0010
0100
0010
1000
0100
1000
0010
0100
0001
0010
0100
1000
,
0001
0100
0001
1000
0100
0010
0001
1000
0010
0100
0010
1000
0100
1000
0010
0100
,
0001
0010
0100
0010
0001
0100
0010
1000
0100
1000
0001
0010
0001
0100
0010
1000
,
0100
0010
0100
1000
0010
0100
0001
1000
0100
0010
0001
0100
0010
1000
0001
0010
,
0100
1000
0100
0010
0100
1000
0010
0100
0001
0010
0100
0010
0001
0100
0010
1000
,
0100
0010
0100
1000
0100
0010
0001
0100
0010
1000
0100
1000
0010
0100
0001
0010
,
0100
1000
0010
1000
0001
0100
0010
1000
0100
1000
0010
1000
0100
0010
0001
0100
,
0010
1000
0100
0010
0100
1000
0010
0100
0001
0010
0100
0010
0001
1000
0100
1000
,
0010
0100
0001
1000
0100
0010
0100
1000
0010
1000
0100
0010
0001
0100
0010
1000
,
0001
0010
0001
1000
0010
0100
0001
1000
0100
0010
0100
1000
0001
0000
0001
0000
,
1000
0100
1000
0010
0100
0001
1000
0100
1000
0010
0100
0010
1000
0100
1000
0001
,
0100
0001
0010
0100
1000
0010
1000
0001
0100
0001
0010
0100
0010
0001
1000
0010
,
1000
0100
1000
0001
0010
0001
0100
0010
0100
0001
0010
0001
1000
0010
0100
0001
,
0010
0100
1000
0100
0010
0100
1000
0010
0100
0001
1000
0001
0100
0010
1000
0100
,
0010
0001
0100
0010
0100
0001
1000
0100
0010
0001
0100
0010
0100
0001
0010
0001
,
0100
0010
0100
0001
0100
0010
1000
0100
0010
0001
0100
0001
1000
0010
1000
0001
,
1000
0100
0010
0001
0100
0010
0100
0001
0010
0100
1000
0010
1000
0001
0100
0001
,
0010
0100
0010
0001
0100
0010
1000
0001
0100
0001
0010
0100
1000
0001
0010
0001
,
1000
0010
1000
0100
0010
0001
1000
0010
1000
0100
0010
0100
1000
0010
1000
0001
,
0010
0001
0100
0010
1000
0100
1000
0001
0010
0001
0100
0010
0100
0001
1000
0100
,
1000
0010
1000
0001
0100
0001
0010
0100
0010
0001
0100
0001
1000
0100
0010
0001
,
0100
0010
1000
0010
0100
0010
1000
0100
0010
0001
1000
0001
0010
0100
1000
0010
,
0100
0001
0010
0100
0010
0001
1000
0010
0100
0001
0010
0100
0010
0001
0100
0001
,
0010
0100
0010
0001
0010
0100
1000
0010
0100
0001
0010
0001
1000
0100
1000
0001
,
1000
0010
0100
0001
0010
0100
0010
0001
0100
0010
1000
0100
1000
0001
0010
0001
,
0100
0010
0100
0001
0010
0100
1000
0001
0010
0001
0100
0010
1000
0001
0100
0001
,
1000
0100
1000
0010
0100
0001
1000
0100
1000
0010
0100
0010
1000
0100
1000
0001
,
0100
0001
0010
0100
1000
0010
1000
0001
0100
0001
0010
0100
0010
0001
1000
0010
,
1000
0100
1000
0001
0010
0001
0100
0010
0100
0001
0010
0001
1000
0010
0100
0001
,
0010
0100
1000
0010
0100
0010
1000
0100
1000
0001
0100
0010
0100
0001
1000
0100
,
0010
0001
0100
0010
0100
0001
1000
0100
0010
0001
0100
0010
0100
0001
0010
0001
,
0100
0010
0100
0001
1000
0010
1000
0100
0010
0001
0100
0001
1000
0010
0100
0001
,
1000
0100
0010
0001
0100
0010
0100
0001
0010
0100
1000
0010
1000
0001
0100
0001
,
0010
0100
0010
0001
0100
0010
1000
0001
0100
0001
0010
0100
1000
0001
0010
0001
,
1000
0010
1000
0100
0010
0001
1000
0010
1000
0100
0010
0100
1000
0010
1000
0001
,
0010
0001
0100
0010
1000
0100
1000
0001
0010
0001
0100
0010
0100
0001
1000
0100
,
1000
0010
1000
0001
0100
0001
0010
0100
0010
0001
0100
0001
1000
0100
0010
0001
,
0100
0010
1000
0100
0010
0100
1000
0010
1000
0001
0010
0100
0010
0001
1000
0010
,
0100
0001
0010
0100
0010
0001
1000
0010
0100
0001
0010
0100
0010
0001
0100
0001
,
0010
0100
0010
0001
1000
0100
1000
0010
0100
0001
0010
0001
1000
0100
0010
0001
,
1000
0010
0100
0001
0010
0100
0010
0001
0100
0010
1000
0100
1000
0001
0010
0001
,
0100
0010
0100
0001
0010
0100
1000
0001
0010
0001
0100
0010
0100
0001
1000
0010
,
1000
0001
0010
0001
0100
0010
1000
0100
1000
0010
0100
0001
0010
0001
1000
0100
,
0010
0001
1000
0100
1000
0010
0100
0001
0010
0001
0100
0010
1000
0100
1000
0001
,
0010
0100
1000
0001
1000
0010
0100
0010
1000
0001
0100
0001
0010
0100
1000
0010
,
1000
0100
0010
0001
0100
0001
0010
0100
1000
0010
1000
0100
0010
0001
1000
0100
,
1000
0001
0100
0010
0100
0001
0010
0001
1000
0100
0010
0001
0100
0010
1000
0001
,
0010
0001
0100
0010
1000
0001
1000
0100
0010
0001
1000
0010
1000
0100
0010
0001
,
1000
0001
0100
0010
0100
0001
0010
0001
1000
0100
0010
0001
1000
0100
1000
0001
,
0100
0001
1000
0100
1000
0010
0100
0001
1000
0001
0010
0100
1000
0010
0100
0001
,
1000
0001
0100
0010
0100
0001
0010
0001
1000
0100
0010
0001
0100
0010
1000
0001
,
0010
0001
0100
0010
1000
0100
1000
0010
0100
0001
0010
0001
1000
0100
1000
0001
,
1000
0010
0100
0001
0010
0100
1000
0001
0010
0001
1000
0100
1000
0010
0100
0001
,
1000
0001
0100
0010
0100
0001
0010
0100
1000
0001
0100
0001
1000
0001
0010
0100
,
1000
0001
0100
0010
0100
0001
0010
0001
1000
0100
0010
0001
0100
0010
0100
0001
,
1000
0001
0100
0010
0100
0001
0010
0001
1000
0100
0010
0001
0100
0010
1000
0001
,
1000
0010
0100
0001
0010
0001
1000
0100
0010
0001
0100
0001
1000
0010
0100
0010
,
1000
0001
0100
0010
0100
0001
0010
0001
1000
0100
0010
0100
1000
0010
0100
0010
,
1000
0001
0100
0001
0010
0100
1000
0010
1000
0100
0010
0001
0100
0001
1000
0010
,
0100
0001
1000
0010
1000
0100
0010
0001
0100
0001
0010
0100
1000
0010
1000
0001
,
0100
0010
1000
0001
1000
0100
0010
0100
1000
0001
0010
0001
0100
0010
1000
0100
,
1000
0010
0100
0001
0010
0001
0100
0010
1000
0100
1000
0010
0100
0001
1000
0010
,
1000
0001
0010
0100
0010
0001
0100
0001
1000
0010
0100
0001
0010
0100
1000
0001
,
0100
0001
0010
0100
1000
0001
1000
0010
0100
0001
1000
0100
1000
0010
0100
0001
,
1000
0001
0010
0100
0010
0001
0100
0001
1000
0010
0100
0001
1000
0010
1000
0001
,
0010
0001
1000
0010
1000
0100
0010
0001
1000
0001
0100
0010
1000
0100
0010
0001
,
1000
0001
0010
0100
0010
0001
0100
0001
1000
0010
0100
0001
0010
0100
1000
0001
,
0100
0001
0010
0100
1000
0010
1000
0100
0010
0001
0100
0001
1000
0010
1000
0001
,
1000
0100
0010
0001
0100
0010
1000
0001
0100
0001
1000
0010
1000
0100
0010
0001
,
1000
0001
0010
0100
0010
0001
0100
0010
1000
0001
0010
0001
1000
0001
0100
0010
,
1000
0001
0010
0100
0010
0001
0100
0001
1000
0010
0100
0001
0010
0100
0010
0001
,
1000
0001
0010
0100
0010
0001
0100
0001
1000
0010
0100
0001
0010
0100
1000
0001
,
1000
0100
0010
0001
0100
0001
1000
0010
0100
0001
0010
0001
1000
0100
0010
0100
,
1000
0000
0000
0001
0000
0000
0010
0000
0000
0100
0000
0000
0010
0000
0000
0001
0000
0000
0100
0000
0000
0001
0000
0000
1000
0000
0000
0010
0000
0000
0100
0000
0000
0001
0000
0000
1000
0000
0001
0000
1000
0000
0001
0000
1000
0000
0001
0000
,
2000
0000
0000
000M
0000
0M00
0000
00M0
0000
000M
0000
0M00
,
0000
000M
0000
00M0
0000
000M
0000
0M00
0000
000M
0000
00M0
,
0000
0M00
0000
000M
0000
00M0
0000
000M
0000
0M00
0000
00M0
,
0000
000M
0000
0000
00M0
0000
0M00
0000
00M0
0000
000M
0000
,
3M20
0000
000M
0000
M000
0000
0M00
0000
000M
0000
0M00
0000
,
M000
0000
000M
0000
0M00
0000
000M
0000
M000
0000
000M
0000
,
0M00
0000
M000
0000
000M
0000
M000
0000
0M00
0000
000M
0000
,
M000
0000
0000
0000
0M00
0000
0000
0000
M000
0000
0000
0000
000M
0000
0000
0000
0M00
0000
0000
0000
000M
0030
0000
0000
,
1000
0100
1000
0010
0100
0001
0010
0100
1000
0010
1000
0100
1000
0010
0100
0001
,
0010
0100
1000
0010
0100
0001
0010
0001
1000
0100
0010
0001
0100
0010
0100
0001
,
1000
0100
1000
0010
0100
0001
0010
0100
1000
0010
0100
0001
1000
0100
0010
0001
,
1000
0100
1000
0010
0100
0001
0010
0100
1000
0010
0100
0001
1000
0100
0010
0001
,
1000
0010
0100
0001
0010
0001
0100
0010
1000
0100
0010
0001
0100
0001
0010
0100
,
1000
0010
0100
0001
0010
0001
1000
0100
1000
0001
0100
0010
1000
0100
0010
0001
,
0100
0010
0100
0001
1000
0100
1000
0001
1000
0100
1000
0001
0100
0010
1000
0001
,
1000
0000
0200
0300
0000
0020
0030
0000
0020
0030
0001
0000
0000
1000
0000
0000
,
0001
0100
0001
0010
0100
1000
0010
0100
0001
0010
0001
0100
0001
0010
0100
1000
,
0010
0100
0001
0010
0100
1000
0010
1000
0001
0100
0010
1000
0100
0010
0100
1000
,
0001
0100
0001
0010
0100
1000
0010
0100
0001
0010
0100
1000
0001
0100
0010
1000
,
0001
0100
0001
0010
0100
1000
0010
0100
0001
0010
0100
1000
0001
0100
0010
1000
,
0001
0010
0100
1000
0010
1000
0100
0010
0001
0100
0010
1000
0100
1000
0010
0100
,
0001
0010
0100
1000
0010
1000
0001
0100
0001
1000
0100
0010
0001
0100
0010
1000
,
0100
0010
0100
1000
0001
0100
0010
1000
0001
0010
0001
1000
0001
0100
0010
1000
,
0100
0000
0000
0010
0000
0000
0100
0000
0000
1000
0000
0000
0100
0000
0000
0010
0000
0000
0001
0000
0000
0100
0000
0000
0010
0000
0000
1000
0000
0000
0010
0000
0000
0100
0000
0000
0001
0000
1000
0000
0001
0000
1000
0000
0001
0000
1000
0000
,
0001
0010
0001
0100
0010
1000
0100
0010
0001
0100
0001
0010
0001
0100
0010
1000
,
0100
0010
0001
0100
0010
1000
0100
1000
0001
0010
0100
1000
0010
0100
0010
1000
,
0001
0010
0001
0100
0010
1000
0100
0010
0001
0100
0010
1000
0001
0010
0100
1000
,
0001
0010
0001
0100
0010
1000
0100
0010
0001
0100
0010
1000
0001
0010
0100
1000
,
0001
0100
0010
1000
0100
1000
0010
0100
0001
0010
0100
1000
0010
1000
0100
0010
,
0001
0100
0010
1000
0100
1000
0001
0010
0001
1000
0010
0100
0001
0010
0100
1000
,
0010
0100
0010
1000
0001
0010
0100
1000
0010
0100
0001
1000
0100
0010
0001
1000
,
0010
0100
0010
1000
0100
0010
0001
1000
0010
0100
0010
1000
0100
0010
0100
1000
,
0001
0100
0000
0100
0000
0001
0100
0010
1000
0100
1000
0010
1000
0100
0010
0001
,
0100
0010
1000
0100
0010
0001
0100
0001
1000
0010
0100
0001
0010
0100
0010
0001
,
1000
0010
1000
0100
0010
0001
0100
0010
1000
0100
0010
0001
1000
0010
0100
0001
,
1000
0010
1000
0100
0010
0001
0100
0010
1000
0100
0010
0001
1000
0010
0100
0001
,
1000
0100
0010
0001
0100
0001
0010
0100
1000
0010
0100
0001
0010
0001
0100
0010
,
1000
0100
0010
0001
0100
0001
1000
0010
1000
0001
0010
0100
1000
0010
0100
0001
,
0010
0100
0010
0001
1000
0010
0100
0001
0010
0100
1000
0001
0100
0010
1000
0001
,
0010
0000
0000
0100
0000
0000
0010
0000
0000
0001
0000
0000
0100
0000
0000
0010
0000
0000
1000
0000
0000
0100
0000
0000
1000
0000
0000
0010
0000
0000
0100
0000
0000
0001
0000
0000
1000
0000
0001
0000
1000
0000
0001
0000
0000
0000
0000
0000
,
1000
0100
0010
0001
1000
0100
0010
0100
1000
0010
0100
0001
1000
0100
0010
0001
,
1000
0010
0100
0010
1000
0001
0100
0001
1000
0010
1000
0001
0100
0010
1000
0100
,
1000
0001
0010
0100
1000
0001
0010
0100
0010
0001
1000
0100
0010
0001
1000
0100
,
1000
0001
0100
0010
0100
0001
1000
0010
1000
0001
0100
0001
1000
0010
1000
0001
,
0010
0001
0100
0010
1000
0100
1000
0010
0100
0001
0010
0001
0100
0010
1000
0100
,
1000
0001
0100
0010
1000
0100
0010
0001
0100
0001
0010
0100
1000
0010
1000
0100
,
0010
0001
0100
0001
0010
0100
1000
0010
1000
0001
0010
0100
1000
0010
0100
0001
,
0010
0001
0100
0010
1000
0100
1000
0010
0100
0001
0010
0100
1000
0010
1000
0100
,
0010
0001
1000
0001
0010
0100
1000
0001
0010
0001
1000
0100
0010
0001
1000
0001
,
0100
0010
1000
0001
0100
0010
0100
0001
1000
0010
1000
0001
0100
0010
1000
0100
,
1000
0001
0010
0100
1000
0001
0010
0100
0010
0001
1000
0100
0010
0001
1000
0100
,
1000
0001
0100
0010
0100
0001
1000
0010
1000
0001
0100
0001
1000
0010
1000
0001
,
0010
0100
1000
0001
0010
0001
1000
0100
0010
0001
1000
0100
0010
0100
1000
0001
,
0100
0010
1000
0001
0100
0001
1000
0010
0100
0010
1000
0001
0100
0010
1000
0100
,
1000
0001
0010
0001
1000
0100
0010
0001
1000
0001
0010
0100
0010
0001
1000
0100
,
1000
0001
0100
0010
0100
0001
1000
0010
0100
0010
1000
0001
0100
0001
0010
0100
,
2000
0000
0000
0000
,
0000
0000
0000
0000
,
0000
0000
0000
0000
,
0000
0000
0000
0000
,
0000
0000
3000
0000
,
0000
0000
0000
0000
,
0000
0000
0000
0000
,
0000
0M00
0000
0000
;

//---------------dance-single - @@ & Zaia----------------
#NOTES:
     dance-single:
     @@ & Zaia:
     Easy:
     18:
     1.000,1.000,0.000,0.024,1.000,5454.000,0.000,12.000,62.000,0.000:
1000
0100
1000
0010
0100
0001
1000
0100
0010
0001
0100
0010
1000
0001
0100
0001
,
1000
0010
0100
0010
1000
0001
0010
0100
1000
0100
0010
0001
1000
0010
1000
0001
,
0010
0001
0100
0010
1000
0100
1000
0001
0010
0100
1000
0001
1000
0010
0100
0010
,
1000
0100
1000
0001
0100
0010
0100
0001
1000
0100
0010
0001
0100
0001
1000
0001
,
0010
0100
0010
0001
1000
0100
0010
0001
1000
0010
0100
0010
1000
0100
1000
0010
,
0100
0010
1000
0100
1000
0001
0010
0001
0100
0010
0100
0001
1000
0010
1000
0100
,
0010
0000
0001
0000
1000
0000
0100
0000
0010
0000
0001
0000
1000
0000
0000
0010
0000
0000
0100
0000
0000
0001
0000
0000
0010
0000
0000
0100
0000
0000
1000
0000
0000
0010
0000
0000
1000
0000
0000
0001
0000
0000
1000
0000
0000
0100
0000
0000
,
0010
0001
0100
0001
1000
0010
1000
0100
0010
0001
0000
0000
0000
0000
0000
0000
,
1000
0010
0100
0010
1000
0100
0010
0001
1000
0100
0010
0100
1000
0010
0100
0001
,
0010
0000
0000
0001
0000
0000
1000
0000
0000
0001
0000
0000
0100
0000
0010
0000
1000
0000
0001
0000
0000
0100
0000
0000
0001
0000
0000
1000
0000
0000
0010
0000
0000
0100
0000
0000
0001
0000
0000
0010
0000
0000
0100
0000
0000
1000
0000
0000
,
0001
1000
0100
0010
0001
0100
0001
1000
0001
0010
0100
0010
0001
0100
0010
1000
,
0001
1000
0010
0100
0001
0010
0100
0010
0001
1000
0100
0010
0001
0100
0001
1000
,
0010
1000
0001
0100
0001
0010
0100
1000
0001
0010
0100
0010
0001
0100
0010
0100
,
0001
0000
0000
1000
0000
0000
0001
0000
0000
0010
0000
0000
0001
0000
1000
0000
0010
0000
0100
0000
0000
0001
0000
0000
1000
0000
0000
0010
0000
0000
0100
0000
0000
0001
0000
0000
0010
0000
0000
0100
0000
0000
1000
0000
0000
0001
0000
0000
,
0010
0001
1000
0100
1000
0010
0100
0010
1000
0100
0010
0001
0100
0010
0100
0001
,
1000
0100
1000
0100
0010
0001
0100
0010
0100
0010
1000
0010
0100
0001
1000
0100
,
1000
0010
0100
0001
1000
0100
1000
0010
0100
0010
1000
0001
0010
0001
0100
0010
,
1000
0100
0010
0001
0100
0001
1000
0010
1000
0001
1000
0100
0010
0001
0100
0001
,
1000
0010
1000
0100
0010
0001
1000
0010
0100
0001
0010
0001
0100
0010
0100
0001
,
1000
0001
0010
0100
1000
0010
1000
0100
0010
0001
0100
0010
1000
0010
0100
0001
,
0010
0001
0100
0010
1000
0001
1000
0100
1000
0010
0100
0010
1000
0100
0010
0001
,
0100
0010
0100
0001
1000
0010
1000
0100
0010
0001
1000
0010
1000
0001
1000
0100
,
0010
0001
0100
0010
1000
0100
1000
0001
0100
0001
1000
0010
1000
0100
0010
0001
,
1000
0010
1000
0001
0100
0001
0010
0100
1000
0001
0100
0010
1000
0001
0010
0001
,
0100
0010
0100
0001
0010
0001
1000
0010
1000
0001
1000
0100
0010
0001
0100
0010
,
1000
0001
0010
0001
1000
0001
0100
0010
1000
0100
0010
0001
0100
0001
1000
0010
,
0100
0001
0010
0001
1000
0010
0100
0010
1000
0001
0010
0100
1000
0010
1000
0001
,
0100
0001
0010
0100
0010
0001
0100
0010
1000
0001
0100
0001
1000
0100
2000
3000
,
0010
1000
0010
0100
0010
1000
0100
0010
0001
0100
0010
0100
0001
1000
0100
1000
,
0001
1000
0010
0100
0001
0010
0100
1000
0010
0100
0001
0010
0001
1000
0001
0100
,
0010
1000
0100
1000
0001
0010
0100
1000
0010
1000
0001
0100
0001
0010
0100
1000
,
0001
0010
0001
0100
0010
1000
0001
0100
0001
1000
0010
1000
0100
0010
0200
0300
,
1000
0100
0010
0001
0100
0010
1000
0001
1000
0010
1000
0001
0010
0100
1000
0100
,
0010
0001
1000
0001
0100
0010
1000
0100
0010
0001
0100
0010
1000
0100
1000
0010
,
0100
0010
1000
0001
0010
0100
1000
0010
1000
0001
0100
0001
0010
0100
1000
0010
,
1000
0100
0010
0001
0100
0001
0010
0001
1000
0010
1000
0100
1000
0001
0100
0001
,
0010
0100
1000
0010
1000
0001
0100
0001
1000
0100
1000
0010
1000
0100
0010
0001
,
0100
0001
1000
0001
0010
0100
1000
0010
1000
0001
0010
0100
1000
0100
0010
0001
,
0100
0010
0100
0001
0010
0100
1000
0010
1000
0001
1000
0100
0010
0001
0100
0010
,
1000
0001
1000
0010
1000
0001
0100
0010
1000
0100
0010
0001
0100
0001
1000
0100
,
1000
0010
0100
0001
0010
0100
1000
0001
1000
0100
1000
0001
0100
0010
1000
0010
,
0100
0001
1000
0001
0010
0100
1000
0010
0100
0001
0010
0100
1000
0010
1000
0100
,
0010
0100
1000
0001
0100
0010
1000
0100
1000
0001
0010
0001
0100
0010
1000
0100
,
1000
0010
0100
0001
0010
0001
0100
0001
1000
0100
1000
0010
1000
0001
0010
0001
,
0100
0010
1000
0100
1000
0001
0010
0001
1000
0010
1000
0100
1000
0010
0100
0001
,
0010
0001
1000
0001
0100
0010
1000
0100
1000
0001
0100
0010
1000
0010
0100
0001
,
0010
0100
0010
0001
0100
0010
1000
0100
1000
0001
1000
0010
0100
0001
0010
0100
,
1000
0001
1000
0100
1000
0001
0010
0100
1000
0010
0100
0001
0010
0001
1000
0010
,
1000
0100
0010
0001
0100
0010
1000
0001
1000
0010
1000
0001
0010
0100
1000
0100
,
0010
0001
1000
0001
0100
0010
1000
0100
0010
0001
0100
0010
1000
0100
1000
0010
,
0100
0010
1000
0001
0010
0100
1000
0010
1000
0001
0100
0001
0010
0100
1000
0010
,
1000
0100
0010
0001
0100
0001
0010
0001
1000
0010
1000
0100
1000
0001
0100
0001
,
0010
0100
1000
0010
1000
0001
0100
0001
1000
0100
1000
0010
1000
0100
0010
0001
,
0100
0001
1000
0001
0010
0100
1000
0010
1000
0001
0010
0100
1000
0100
0010
0001
,
0100
0010
0100
0001
0010
0100
1000
0010
1000
0001
1000
0100
0010
0001
0100
0010
,
1000
0001
1000
0010
1000
0001
0100
0010
1000
0100
0010
0001
0100
0001
1000
0100
,
1000
0010
0100
0001
0010
0100
1000
0001
1000
0100
1000
0001
0100
0010
1000
0010
,
0100
0001
1000
0001
0010
0100
1000
0010
0100
0001
0010
0100
1000
0010
1000
0100
,
0010
0100
1000
0001
0100
0010
1000
0100
1000
0001
0010
0001
0100
0010
1000
0100
,
1000
0010
0100
0001
0010
0001
0100
0001
1000
0100
1000
0010
1000
0001
0010
0001
,
0100
0010
1000
0100
1000
0001
0010
0001
1000
0010
1000
0100
1000
0010
0100
0001
,
0010
0001
1000
0001
0100
0010
1000
0100
1000
0001
0100
0010
1000
0010
0100
0001
,
0010
0100
0010
0001
0100
0010
1000
0100
1000
0001
1000
0010
0100
0001
0010
0100
,
1000
0000
0000
0001
0000
0000
1000
0000
0000
0100
0000
0000
1000
0000
0000
0001
0000
0000
0010
0000
0000
0100
0000
0000
1000
0000
0000
0010
0000
0000
0100
0000
0000
0001
0000
0000
0010
0000
0000
0000
0000
0000
0001
0000
1000
0000
0001
0000
,
1000
0100
0010
0001
1000
0100
1000
0010
0100
0001
0010
0100
1000
0001
0100
0001
,
1000
0010
1000
0100
0010
0001
1000
0100
1000
0010
0100
0001
1000
0100
1000
0001
,
0100
0010
0100
0001
0010
0100
0010
0001
0100
0010
1000
0001
1000
0100
0010
0001
,
0100
0010
0100
0001
0100
0010
1000
0100
0010
0001
0100
0001
1000
0010
1000
0001
,
0100
0010
0100
0001
1000
0010
1000
0100
0010
0001
0100
0010
1000
0001
0010
0001
,
1000
0100
1000
0010
0100
0001
1000
0010
1000
0100
0010
0001
1000
0010
1000
0001
,
0010
0100
0010
0001
0100
0010
0100
0001
0010
0100
1000
0001
1000
0010
0100
0001
,
1000
0001
0000
0001
0100
0000
0010
1000
0001
0010
0001
1000
0010
1000
0100
0010
,
0001
1000
0100
1000
0001
0010
0001
0100
0010
1000
0100
0010
0001
1000
0010
1000
,
0001
0100
0001
0010
0100
1000
0001
0010
0001
0100
0010
1000
0001
0010
0001
1000
,
0010
0100
0010
1000
0100
0010
0100
1000
0010
0100
0001
1000
0001
0010
0100
1000
,
0010
0100
0010
1000
0010
0100
0001
0010
0100
1000
0010
1000
0001
0100
0001
1000
,
0010
0100
0010
1000
0001
0100
0001
0010
0100
1000
0010
0100
0001
1000
0100
1000
,
0001
0010
0001
0100
0010
1000
0001
0100
0001
0010
0100
1000
0001
0100
0001
1000
,
0100
0010
0100
1000
0010
0100
0010
1000
0100
0010
0001
1000
0001
0100
0010
1000
,
0100
0010
0001
1000
0010
0100
0001
1000
0100
0010
0001
0010
0100
1000
0010
0100
,
0001
1000
0010
1000
0001
0100
0001
0010
0100
1000
0010
0100
0001
1000
0100
1000
,
0001
0010
0001
0100
0010
1000
0001
0100
0001
0010
0100
1000
0001
0100
0001
1000
,
0100
0010
0100
1000
0010
0100
0010
1000
0100
0010
0001
1000
0001
0100
0010
1000
,
0100
0010
0100
1000
0100
0010
0001
0100
0010
1000
0100
1000
0001
0010
0001
1000
,
0100
0010
0100
1000
0001
0010
0001
0100
0010
1000
0100
0010
0001
1000
0010
1000
,
0001
0100
0001
0010
0100
1000
0001
0010
0001
0100
0010
1000
0001
0010
0001
1000
,
0010
0100
0010
1000
0100
0010
0100
1000
0010
0100
0001
1000
0001
0010
0100
1000
,
0010
0100
0001
1000
0100
0010
0001
1000
0010
0100
0001
0100
0010
1000
0100
0010
,
0001
1000
0100
0010
0100
1000
0010
0100
0001
0010
0100
0010
0001
1000
0010
1000
,
0001
0100
0001
0010
0100
1000
0100
0010
0001
0100
0010
1000
0001
0010
0001
1000
,
0010
0100
0010
1000
0100
0010
0100
1000
0010
0100
0001
1000
0001
0010
0100
1000
,
0010
0100
0010
1000
0010
0100
0001
0010
0100
1000
0010
0100
0001
1000
0001
0100
,
0010
1000
0001
0100
0010
0100
0001
0010
0100
1000
0010
0100
0001
1000
0100
1000
,
0001
0010
0001
0100
0010
1000
0001
0100
0001
0010
0100
1000
0001
0100
0001
1000
,
0100
0010
0100
1000
0010
0100
0001
0010
0100
0010
0001
1000
0001
0100
0010
1000
,
0100
0010
0100
1000
0001
0100
0001
1000
0100
0010
0001
0010
0100
1000
0010
0100
,
0001
0000
0000
1000
0000
0000
0100
0000
0000
1000
0000
0000
0001
0000
0100
0000
0010
0000
1000
0000
0001
0000
1000
0000
0010
0000
1000
0000
0001
0000
0010
0000
0100
0000
1000
0000
0001
0000
1000
0000
0100
0000
1000
0000
0001
0000
0100
0000
,
0010
0000
0100
0000
0001
0000
1000
0000
0001
0000
1000
0000
0010
0000
0000
0100
0000
0000
0010
0000
0000
1000
0000
0000
0001
0000
0010
0000
0100
0000
1000
0000
0001
0000
1000
0000
0100
0000
1000
0000
0001
0000
0100
0000
0010
0000
1000
0000
,
0001
0000
1000
0000
0010
0000
1000
0000
0001
0000
0010
0000
0100
0000
0010
0000
0001
0000
1000
0000
0001
0000
0100
0000
0010
0000
0000
1000
0000
0000
0001
0000
0000
1000
0000
0000
0100
0000
0010
0000
0001
0000
1000
0000
0100
0000
1000
0000
,
0001
0000
0100
0000
0010
0000
1000
0000
0001
0000
0100
0000
0010
0000
1000
0000
0001
0000
1000
0000
0000
0100
0000
0000
0010
0000
0000
0001
0000
0000
1000
0000
0001
0000
0100
0000
0010
0000
0100
0000
0001
0000
1000
0000
0001
0000
0010
0000
,
0001
1000
0010
0100
0010
1000
0001
0100
0001
1000
0010
1000
0001
0010
0100
1000
,
0001
0010
0001
1000
0100
0010
0001
1000
0001
0100
0010
1000
0001
0100
0001
1000
,
0010
0100
0010
1000
0001
0010
0100
1000
0100
0010
0001
1000
0001
0010
0100
1000
,
0001
0100
0010
1000
0001
0100
0001
1000
0010
0100
0010
1000
0001
0010
0001
0100
,
0001
0000
0000
1000
0000
0000
0010
0000
0000
1000
0000
0000
0001
0000
0010
0000
0100
0000
1000
0000
0001
0000
1000
0000
0100
0000
1000
0000
0001
0000
0100
0000
0010
0000
1000
0000
0001
0000
1000
0000
0010
0000
1000
0000
0001
0000
0010
0000
,
0100
0000
0010
0000
0001
0000
1000
0000
0001
0000
1000
0000
0010
0000
0000
0100
0000
0000
0010
0000
0000
1000
0000
0000
0001
0000
0100
0000
0010
0000
1000
0000
0001
0000
1000
0000
0100
0000
1000
0000
0001
0000
0010
0000
0100
0000
1000
0000
,
0001
0000
1000
0000
0100
0000
1000
0000
0001
0000
0100
0000
0010
0000
0100
0000
0001
0000
1000
0000
0001
0000
0010
0000
0100
0000
0000
1000
0000
0000
0001
0000
0000
1000
0000
0000
0010
0000
0100
0000
0001
0000
1000
0000
0010
0000
1000
0000
,
0001
0000
0010
0000
0100
0000
1000
0000
0001
0000
0010
0000
0100
0000
1000
0000
0001
0000
1000
0000
0000
0010
0000
0000
0100
0000
0000
0001
0000
0000
1000
0000
0001
0000
0010
0000
0100
0000
0010
0000
0001
0000
1000
0000
0001
0000
0100
0000
,
0001
1000
0100
0010
0100
1000
0001
0010
0001
1000
0100
1000
0001
0100
0010
1000
,
0001
0100
0001
1000
0010
0100
0001
1000
0001
0010
0100
1000
0001
0010
0001
1000
,
0100
0010
0100
1000
0001
0100
0010
1000
0010
0100
0001
1000
0001
0100
0010
1000
,
0001
0000
0000
0000
0000
0000
0000
0000
0000
0001
0000
0000
0000
0000
0000
0000
0000
0000
0001
0000
0000
0000
0000
0000
0000
0000
0000
0001
0000
0000
0000
0000
0000
0000
0000
0000
0001
0000
0000
0000
0000
0000
0100
0000
0001
0000
0100
0000
,
0001
1000
0001
1000
0100
0010
0001
0100
0010
1000
0001
0100
0001
1000
0001
0010
,
0100
1000
0010
0100
0010
1000
0010
0100
0001
0010
0100
1000
0010
1000
0001
0010
,
0001
0100
0010
1000
0001
1000
0010
0100
0001
0010
0001
0100
0010
1000
0001
0010
,
0100
1000
0010
1000
0001
1000
0010
1000
0001
0100
0001
0010
0001
0100
0001
1000
,
0100
0010
0100
0010
0001
0100
0010
1000
0001
0010
0001
1000
0010
0100
0010
1000
,
0100
0010
0001
1000
0001
0010
0100
1000
0001
0100
0001
1000
0001
0010
0100
1000
,
0010
1000
0001
0100
0001
0010
0100
0010
0001
1000
0010
1000
0001
0100
0010
0100
,
0001
0010
0100
1000
0010
1000
0100
0010
0001
1000
0010
0100
0010
1000
0100
0010
,
0001
1000
0001
1000
0010
0100
0001
0010
0100
1000
0001
0010
0001
1000
0001
0100
,
0010
1000
0100
0010
0100
1000
0100
0010
0001
0100
0010
1000
0100
1000
0001
0100
,
0001
0010
0100
1000
0001
1000
0100
0010
0001
0100
0001
0010
0100
1000
0001
0100
,
0010
1000
0100
1000
0001
1000
0100
1000
0001
0010
0001
0100
0001
0010
0001
1000
,
0010
0100
0010
0100
0001
0010
0100
1000
0001
0100
0001
1000
0100
0010
0100
1000
,
0010
0100
0001
1000
0001
0100
0010
1000
0001
0010
0001
1000
0001
0100
0010
1000
,
0100
1000
0001
0010
0001
0100
0010
0100
0001
1000
0100
1000
0001
0010
0100
0010
,
0001
0100
0010
1000
0100
1000
0010
0100
0001
1000
0001
1000
0010
0100
0010
0100
,
0001
0010
0001
0010
0100
1000
0010
0100
0001
0010
0001
1000
0010
0100
0001
0100
,
0010
1000
0100
0010
0001
1000
0010
1000
0001
0010
0100
1000
0010
0100
0001
1000
,
0100
0010
0001
0010
0100
0010
0001
0100
0010
1000
0100
1000
0001
0100
0010
0100
,
0001
1000
0100
0010
0001
0100
0010
0100
0001
0010
0001
0100
0010
1000
0001
1000
,
0100
0010
0100
0010
0001
0100
0010
1000
0001
0010
0100
0010
0001
0100
0010
1000
,
0100
0010
0001
0010
0100
0010
0001
0100
0010
1000
0001
0100
0001
0010
0100
1000
,
0001
0100
0001
0100
0010
1000
0100
1000
0001
0010
0100
1000
0010
0100
0001
0100
,
0010
1000
0100
0010
0001
0100
0010
0100
0001
0010
0001
0100
0010
1000
0100
1000
,
0001
0100
0001
0100
0010
1000
0100
0010
0001
0100
0001
1000
0100
0010
0001
0010
,
0100
1000
0010
0100
0001
1000
0100
1000
0001
0100
0010
1000
0100
0010
0001
1000
,
0010
0100
0001
0100
0010
0100
0001
0010
0100
1000
0010
1000
0001
0010
0100
0010
,
0001
1000
0010
0100
0001
0010
0100
0010
0001
0100
0001
0010
0100
1000
0001
1000
,
0010
0100
0010
1000
0001
0100
0001
1000
0100
0010
0100
1000
0010
0100
0001
1000
,
0001
0010
0100
1000
0001
0010
0001
1000
0010
0100
0010
1000
0100
0010
0001
1000
,
0010
0100
0010
1000
0001
0100
0001
1000
0100
0010
0100
1000
0010
0100
0010
1000
,
0002
0003
0020
0030
0200
0300
2000
3000
,
1000
0010
0100
0001
0010
0100
1000
0001
0100
0010
1000
0100
0010
0001
1000
0001
,
0100
0010
0100
0001
0100
0010
1000
0100
0010
0001
1000
0010
1000
0100
0010
0001
,
0100
0010
0100
0001
1000
0010
1000
0001
0010
0001
0100
0001
1000
0100
0010
0100
,
1000
0010
1000
0100
0010
0001
0100
0001
1000
0100
1000
0010
0100
0010
1000
0100
,
1000
0010
0100
0001
1000
0100
1000
0001
0100
0010
1000
0100
0010
0001
1000
0010
,
1000
0100
0010
0100
1000
0001
0100
0010
0100
0001
0010
0100
1000
0010
0100
0001
,
1000
0100
0010
0001
0100
0010
1000
0001
0010
0001
1000
0010
0100
0001
0010
0001
,
1000
0010
1000
0001
1000
0010
0100
0010
1000
0001
0010
0001
1000
0100
1000
0010
,
1000
0100
0010
0001
0100
0010
1000
0001
0010
0100
1000
0010
0100
0001
1000
0001
,
0010
0100
0010
0001
0010
0100
1000
0010
0100
0001
1000
0100
1000
0010
0100
0001
,
0010
0100
0010
0001
1000
0100
1000
0001
0100
0001
0010
0001
1000
0010
0100
0010
,
1000
0100
1000
0010
0100
0001
0010
0001
1000
0010
1000
0100
0010
0100
1000
0010
,
1000
0100
0010
0001
1000
0010
1000
0001
0010
0100
1000
0010
0100
0001
1000
0100
,
1000
0010
0100
0010
1000
0001
0010
0100
0010
0001
0100
0010
1000
0100
0010
0001
,
1000
0010
0100
0001
0010
0100
1000
0001
0100
0001
1000
0100
0010
0001
0100
0001
,
1000
0100
1000
0001
1000
0100
0010
0100
1000
0001
0100
0001
1000
0010
1000
0100
,
0010
0001
1000
0100
0010
0001
4000
0000
0000
0000
0000
0000
0000
0000
0000
0000
0000
0000
0000
0000
0000
0000
0000
0000
,
0000
0000
0000
0000
0000
0000
0000
0000
0000
3000
0000
0000
00M0
0000
0000
0000
0M00
0000
0000
0000
M000
0000
0000
0000
,
00M0
0000
000M
0000
0M00
0000
00M0
0000
000M
0000
M000
0000
,
00M0
0000
M000
0000
000M
0000
00M0
0000
0M00
0000
000M
0000
,
1000
0010
1000
0100
0010
0100
1000
0010
1000
0001
0010
0001
1000
0010
1000
0001
,
0010
0001
1000
0010
1000
0001
0010
0001
1000
0010
1000
0001
0010
0001
1000
0010
,
1000
0001
0010
0001
1000
0010
1000
0001
0010
0001
1000
0010
1000
0001
0010
0001
,
1000
0010
1000
0001
0010
0001
1000
0010
1000
0001
0010
0001
1000
0010
1000
0001
,
0010
0001
1000
0100
1000
0010
0100
0010
1000
0100
1000
0010
0100
0010
1000
0100
,
1000
0010
0100
0010
1000
0100
1000
0010
0100
0010
1000
0100
1000
0010
0100
0010
,
1000
0100
1000
0010
0100
0010
1000
0100
1000
0010
0100
0010
1000
0100
1000
0010
,
0100
0010
1000
0100
1000
0010
0100
0010
1000
0100
1000
0010
0100
0000
0100
0000
,
0001
0100
0001
0010
0100
0010
0001
0100
0001
1000
0100
1000
0001
0100
0001
1000
,
0100
1000
0001
0100
0001
1000
0100
1000
0001
0100
0001
1000
0100
1000
0001
0100
,
0001
1000
0100
1000
0001
0100
0001
1000
0100
1000
0001
0100
0001
1000
0100
1000
,
0001
0100
0001
1000
0100
1000
0001
0100
0001
1000
0100
1000
0001
0100
0001
1000
,
0100
1000
0001
0010
0001
0100
0010
0100
0001
0010
0001
0100
0010
0100
0001
0010
,
0001
0100
0010
0100
0001
0010
0001
0100
0010
0100
0001
0010
0001
0100
0010
0100
,
0001
0010
0001
0100
0010
0100
0001
0010
0001
0100
0010
0100
0001
0010
0001
0100
,
0010
0100
0000
0100
0001
0010
0100
1000
0010
0100
0001
0000
0000
0000
0001
0000
,
1000
0100
0010
0001
0100
0010
0100
0001
1000
0100
1000
0010
0100
0010
1000
0100
,
1000
0001
0100
0001
1000
0001
0010
0100
1000
0010
1000
0100
0010
0100
1000
0010
,
0100
0001
0100
0001
0010
0100
1000
0001
0100
0001
0010
0100
1000
0010
1000
0001
,
0100
0010
0100
0001
0010
0100
0010
0001
1000
0010
1000
0001
0010
0001
1000
0010
,
1000
0100
0010
0001
0100
0010
0100
0001
1000
0100
1000
0010
0100
0001
0010
0100
,
1000
0010
1000
0001
0100
0001
0010
0100
0010
0001
0100
0010
1000
0100
0010
0001
,
1000
0010
1000
0100
1000
0010
1000
0100
0010
0001
0100
0010
0100
0001
1000
0001
,
0010
0100
1000
0100
0010
0100
1000
0010
0100
0001
0010
0100
0010
0001
1000
0100
,
1000
0010
0100
0001
0010
0100
0010
0001
1000
0010
1000
0100
0010
0100
1000
0010
,
1000
0001
0010
0001
1000
0001
0100
0010
1000
0100
1000
0010
0100
0010
1000
0100
,
0010
0001
0010
0001
0100
0010
1000
0001
0010
0001
0100
0010
1000
0100
1000
0001
,
0010
0100
0010
0001
0100
0010
0100
0001
1000
0100
1000
0001
0100
0001
1000
0100
,
1000
0010
0100
0001
0010
0100
0010
0001
1000
0010
1000
0100
0010
0001
0100
0010
,
1000
0100
1000
0001
0010
0001
0100
0010
0100
0001
0010
0100
1000
0010
0100
0001
,
1000
0100
1000
0010
1000
0100
1000
0010
0100
0001
0010
0100
0010
0001
1000
0001
,
0100
0010
1000
0010
0100
0010
1000
0100
0010
0001
0100
0010
0100
0001
1000
0010
,
1000
0100
0010
0001
0100
0010
0100
0001
1000
0100
1000
0010
0100
0010
1000
0100
,
1000
0001
0100
0001
1000
0001
0010
0100
1000
0010
1000
0100
0010
0100
1000
0010
,
0100
0001
0100
0001
0010
0100
1000
0001
0100
0001
0010
0100
1000
0010
1000
0001
,
0100
0010
0100
0001
0010
0100
0010
0001
1000
0010
1000
0001
0010
0001
1000
0010
,
1000
0100
0010
0001
0100
0010
0100
0001
1000
0100
1000
0010
0100
0001
0010
0100
,
1000
0010
1000
0001
0100
0001
0010
0100
0010
0001
0100
0010
1000
0100
0010
0001
,
1000
0010
1000
0100
1000
0010
1000
0100
0010
0001
0100
0010
0100
0001
1000
0001
,
0010
0000
0000
0100
0000
0000
1000
0000
0000
0100
0000
0000
0010
0000
0000
0100
0000
0000
1000
0000
0000
0010
0000
0000
0100
0000
0001
0000
1000
0000
0010
0000
0100
0000
0001
0000
1000
0000
0000
0000
0000
0000
0000
0000
0000
0000
0000
0000
,
0001
0100
0010
1000
0100
0010
0100
1000
0001
0100
0001
0010
0100
0010
0001
0100
,
0001
1000
0100
1000
0001
1000
0010
0100
0001
0010
0001
0100
0010
0100
0001
0010
,
0100
1000
0100
1000
0010
0100
0001
1000
0100
1000
0010
0100
0001
0010
0001
1000
,
0100
0010
0100
1000
0010
0100
0010
1000
0001
0010
0001
1000
0010
1000
0001
0010
,
0001
0100
0010
1000
0100
0010
0100
1000
0001
0100
0001
0010
0100
1000
0010
0100
,
0001
0010
0001
1000
0100
1000
0010
0100
0010
1000
0100
0010
0001
0100
0010
1000
,
0001
0010
0001
0100
0001
0010
0001
0100
0010
1000
0100
0010
0100
1000
0001
1000
,
0010
0100
0001
0100
0010
0100
0001
0010
0100
0000
0000
0000
0000
0000
4000
3000
,
0001
0100
0010
0100
0001
0010
0100
1000
0010
1000
0001
0100
0001
0010
0100
1000
,
0010
0100
0010
1000
0100
0010
0001
1000
0010
0100
0001
0010
0100
1000
0001
0100
,
0010
1000
0010
0100
0010
1000
0100
0010
0001
0100
0010
0100
0001
0010
0100
1000
,
0010
0100
0010
1000
0010
0100
0001
0010
0100
1000
0010
1000
0100
0010
0001
0100
,
0010
1000
0100
1000
0001
0010
0100
1000
0010
1000
0100
1000
0010
0100
0001
0010
,
0100
1000
0010
0100
0010
1000
0100
0010
0001
0100
0010
0100
0001
1000
0010
1000
,
0100
0010
0001
1000
0010
0100
0010
1000
0100
1000
0010
0100
0001
0010
0100
1000
,
0001
0100
0001
1000
0100
0010
0001
1000
0010
0100
0010
1000
0100
1000
0010
0100
,
0001
0010
0100
0010
0001
0100
0010
1000
0100
1000
0001
0010
0001
0100
0010
1000
,
0100
0010
0100
1000
0010
0100
0001
1000
0100
0010
0001
0100
0010
1000
0001
0010
,
0100
1000
0100
0010
0100
1000
0010
0100
0001
0010
0100
0010
0001
0100
0010
1000
,
0100
0010
0100
1000
0100
0010
0001
0100
0010
1000
0100
1000
0010
0100
0001
0010
,
0100
1000
0010
1000
0001
0100
0010
1000
0100
1000
0010
1000
0100
0010
0001
0100
,
0010
1000
0100
0010
0100
1000
0010
0100
0001
0010
0100
0010
0001
1000
0100
1000
,
0010
0100
0001
1000
0100
0010
0100
1000
0010
1000
0100
0010
0001
0100
0010
1000
,
0001
0010
0001
1000
0010
0100
0001
1000
0100
0010
0100
1000
0001
0000
0001
0000
,
1000
0100
1000
0010
0100
0001
1000
0100
1000
0010
0100
0010
1000
0100
1000
0001
,
0100
0001
0010
0100
1000
0010
1000
0001
0100
0001
0010
0100
0010
0001
1000
0010
,
1000
0100
1000
0001
0010
0001
0100
0010
0100
0001
0010
0001
1000
0010
0100
0001
,
0010
0100
1000
0100
0010
0100
1000
0010
0100
0001
1000
0001
0100
0010
1000
0100
,
0010
0001
0100
0010
0100
0001
1000
0100
0010
0001
0100
0010
0100
0001
0010
0001
,
0100
0010
0100
0001
0100
0010
1000
0100
0010
0001
0100
0001
1000
0010
1000
0001
,
1000
0100
0010
0001
0100
0010
0100
0001
0010
0100
1000
0010
1000
0001
0100
0001
,
0010
0100
0010
0001
0100
0010
1000
0001
0100
0001
0010
0100
1000
0001
0010
0001
,
1000
0010
1000
0100
0010
0001
1000
0010
1000
0100
0010
0100
1000
0010
1000
0001
,
0010
0001
0100
0010
1000
0100
1000
0001
0010
0001
0100
0010
0100
0001
1000
0100
,
1000
0010
1000
0001
0100
0001
0010
0100
0010
0001
0100
0001
1000
0100
0010
0001
,
0100
0010
1000
0010
0100
0010
1000
0100
0010
0001
1000
0001
0010
0100
1000
0010
,
0100
0001
0010
0100
0010
0001
1000
0010
0100
0001
0010
0100
0010
0001
0100
0001
,
0010
0100
0010
0001
0010
0100
1000
0010
0100
0001
0010
0001
1000
0100
1000
0001
,
1000
0010
0100
0001
0010
0100
0010
0001
0100
0010
1000
0100
1000
0001
0010
0001
,
0100
0010
0100
0001
0010
0100
1000
0001
0010
0001
0100
0010
1000
0001
0100
0001
,
1000
0100
1000
0010
0100
0001
1000
0100
1000
0010
0100
0010
1000
0100
1000
0001
,
0100
0001
0010
0100
1000
0010
1000
0001
0100
0001
0010
0100
0010
0001
1000
0010
,
1000
0100
1000
0001
0010
0001
0100
0010
0100
0001
0010
0001
1000
0010
0100
0001
,
0010
0100
1000
0010
0100
0010
1000
0100
1000
0001
0100
0010
0100
0001
1000
0100
,
0010
0001
0100
0010
0100
0001
1000
0100
0010
0001
0100
0010
0100
0001
0010
0001
,
0100
0010
0100
0001
1000
0010
1000
0100
0010
0001
0100
0001
1000
0010
0100
0001
,
1000
0100
0010
0001
0100
0010
0100
0001
0010
0100
1000
0010
1000
0001
0100
0001
,
0010
0100
0010
0001
0100
0010
1000
0001
0100
0001
0010
0100
1000
0001
0010
0001
,
1000
0010
1000
0100
0010
0001
1000
0010
1000
0100
0010
0100
1000
0010
1000
0001
,
0010
0001
0100
0010
1000
0100
1000
0001
0010
0001
0100
0010
0100
0001
1000
0100
,
1000
0010
1000
0001
0100
0001
0010
0100
0010
0001
0100
0001
1000
0100
0010
0001
,
0100
0010
1000
0100
0010
0100
1000
0010
1000
0001
0010
0100
0010
0001
1000
0010
,
0100
0001
0010
0100
0010
0001
1000
0010
0100
0001
0010
0100
0010
0001
0100
0001
,
0010
0100
0010
0001
1000
0100
1000
0010
0100
0001
0010
0001
1000
0100
0010
0001
,
1000
0010
0100
0001
0010
0100
0010
0001
0100
0010
1000
0100
1000
0001
0010
0001
,
0100
0010
0100
0001
0010
0100
1000
0001
0010
0001
0100
0010
0100
0001
1000
0010
,
1000
0000
0000
0001
0000
0000
0010
0000
0000
0001
0000
0000
1000
0000
0010
0000
0100
0000
0001
0000
1000
0000
0001
0000
0100
0000
0001
0000
1000
0000
0100
0000
0010
0000
0001
0000
1000
0000
0001
0000
0010
0000
0001
0000
1000
0000
0010
0000
,
0100
0000
0010
0000
1000
0000
0001
0000
1000
0000
0001
0000
0100
0000
0000
0010
0000
0000
0100
0000
0000
0001
0000
0000
1000
0000
0100
0000
0010
0000
0001
0000
1000
0000
0001
0000
0010
0000
0001
0000
1000
0000
0010
0000
0100
0000
0001
0000
,
1000
0000
0001
0000
0100
0000
0001
0000
1000
0000
0100
0000
0010
0000
0100
0000
1000
0000
0001
0000
1000
0000
0010
0000
0100
0000
0000
0001
0000
0000
1000
0000
0000
0001
0000
0000
0010
0000
0100
0000
1000
0000
0001
0000
0010
0000
0001
0000
,
1000
0000
0010
0000
0100
0000
0001
0000
1000
0000
0010
0000
0100
0000
0001
0000
1000
0000
0001
0000
0000
0010
0000
0000
0100
0000
0000
1000
0000
0000
0001
0000
1000
0000
0010
0000
0100
0000
0010
0000
1000
0000
0001
0000
1000
0000
0100
0000
,
1000
0001
0100
0010
0100
0001
0010
0001
1000
0100
0010
0001
0100
0010
1000
0001
,
0010
0001
0100
0010
1000
0001
1000
0100
0010
0001
1000
0010
1000
0100
0010
0001
,
1000
0001
0100
0010
0100
0001
0010
0001
1000
0100
0010
0001
1000
0100
1000
0001
,
0100
0001
1000
0100
1000
0010
0100
0001
1000
0001
0010
0100
1000
0010
0100
0001
,
1000
0001
0100
0010
0100
0001
0010
0001
1000
0100
0010
0001
0100
0010
1000
0001
,
0010
0001
0100
0010
1000
0100
1000
0010
0100
0001
0010
0001
1000
0100
1000
0001
,
1000
0010
0100
0001
0010
0100
1000
0001
0010
0001
1000
0100
1000
0010
0100
0001
,
1000
0001
0100
0010
0100
0001
0010
0100
1000
0001
0100
0001
1000
0001
0010
0100
,
1000
0001
0100
0010
0100
0001
0010
0001
1000
0100
0010
0001
0100
0010
0100
0001
,
1000
0001
0100
0010
0100
0001
0010
0001
1000
0100
0010
0001
0100
0010
1000
0001
,
1000
0010
0100
0001
0010
0001
1000
0100
0010
0001
0100
0001
1000
0010
0100
0010
,
1000
0001
0100
0010
0100
0001
0010
0001
1000
0100
0010
0100
1000
0010
0100
0010
,
1000
0000
0000
0001
0000
0000
0100
0000
0000
0001
0000
0000
1000
0000
0100
0000
0010
0000
0001
0000
1000
0000
0001
0000
0010
0000
0001
0000
1000
0000
0010
0000
0100
0000
0001
0000
1000
0000
0001
0000
0100
0000
0001
0000
1000
0000
0100
0000
,
0010
0000
0100
0000
1000
0000
0001
0000
1000
0000
0001
0000
0010
0000
0000
0100
0000
0000
0010
0000
0000
0001
0000
0000
1000
0000
0010
0000
0100
0000
0001
0000
1000
0000
0001
0000
0100
0000
0001
0000
1000
0000
0100
0000
0010
0000
0001
0000
,
1000
0000
0001
0000
0010
0000
0001
0000
1000
0000
0010
0000
0100
0000
0010
0000
1000
0000
0001
0000
1000
0000
0100
0000
0010
0000
0000
0001
0000
0000
1000
0000
0000
0001
0000
0000
0100
0000
0010
0000
1000
0000
0001
0000
0100
0000
0001
0000
,
1000
0000
0100
0000
0010
0000
0001
0000
1000
0000
0100
0000
0010
0000
0001
0000
1000
0000
0001
0000
0000
0100
0000
0000
0010
0000
0000
1000
0000
0000
0001
0000
1000
0000
0100
0000
0010
0000
0100
0000
1000
0000
0001
0000
1000
0000
0010
0000
,
1000
0001
0010
0100
0010
0001
0100
0001
1000
0010
0100
0001
0010
0100
1000
0001
,
0100
0001
0010
0100
1000
0001
1000
0010
0100
0001
1000
0100
1000
0010
0100
0001
,
1000
0001
0010
0100
0010
0001
0100
0001
1000
0010
0100
0001
1000
0010
1000
0001
,
0010
0001
1000
0010
1000
0100
0010
0001
1000
0001
0100
0010
1000
0100
0010
0001
,
1000
0001
0010
0100
0010
0001
0100
0001
1000
0010
0100
0001
0010
0100
1000
0001
,
0100
0001
0010
0100
1000
0010
1000
0100
0010
0001
0100
0001
1000
0010
1000
0001
,
1000
0100
0010
0001
0100
0010
1000
0001
0100
0001
1000
0010
1000
0100
0010
0001
,
1000
0001
0010
0100
0010
0001
0100
0010
1000
0001
0010
0001
1000
0001
0100
0010
,
1000
0001
0010
0100
0010
0001
0100
0001
1000
0010
0100
0001
0010
0100
0010
0001
,
1000
0001
0010
0100
0010
0001
0100
0001
1000
0010
0100
0001
0010
0100
1000
0001
,
1000
0100
0010
0001
0100
0001
1000
0010
0100
0001
0010
0001
1000
0100
0010
0100
,
1000
0000
0000
0001
0000
0000
0010
0000
0000
0100
0000
0000
0010
0000
0000
0001
0000
0000
0100
0000
0000
0001
0000
0000
1000
0000
0000
0010
0000
0000
0100
0000
0000
0001
0000
0000
1000
0000
0001
0000
1000
0000
0001
0000
1000
0000
0001
0000
,
2000
0000
0000
000M
0000
0M00
0000
00M0
0000
000M
0000
0M00
,
0000
000M
0000
00M0
0000
000M
0000
0M00
0000
000M
0000
00M0
,
0000
0M00
0000
000M
0000
00M0
0000
000M
0000
0M00
0000
00M0
,
0000
000M
0000
0000
00M0
0000
0M00
0000
00M0
0000
000M
0000
,
3M20
0000
000M
0000
M000
0000
0M00
0000
000M
0000
0M00
0000
,
M000
0000
000M
0000
0M00
0000
000M
0000
M000
0000
000M
0000
,
0M00
0000
M000
0000
000M
0000
M000
0000
0M00
0000
000M
0000
,
M000
0000
0000
0000
0M00
0000
0000
0000
M000
0000
0000
0000
000M
0000
0000
0000
0M00
0000
0000
0000
000M
0030
0000
0000
,
1000
0100
1000
0010
0100
0001
0010
0100
1000
0010
1000
0100
1000
0010
0100
0001
,
0010
0100
1000
0010
0100
0001
0010
0001
1000
0100
0010
0001
0100
0010
0100
0001
,
1000
0100
1000
0010
0100
0001
0010
0100
1000
0010
0100
0001
1000
0100
0010
0001
,
1000
0100
1000
0010
0100
0001
0010
0100
1000
0010
0100
0001
1000
0100
0010
0001
,
1000
0010
0100
0001
0010
0001
0100
0010
1000
0100
0010
0001
0100
0001
0010
0100
,
1000
0010
0100
0001
0010
0001
1000
0100
1000
0001
0100
0010
1000
0100
0010
0001
,
0100
0010
0100
0001
1000
0100
1000
0001
1000
0100
1000
0001
0100
0010
1000
0001
,
1000
0000
0200
0300
0000
0020
0030
0000
0020
0030
0001
0000
0000
1000
0000
0000
,
0001
0100
0001
0010
0100
1000
0010
0100
0001
0010
0001
0100
0001
0010
0100
1000
,
0010
0100
0001
0010
0100
1000
0010
1000
0001
0100
0010
1000
0100
0010
0100
1000
,
0001
0100
0001
0010
0100
1000
0010
0100
0001
0010
0100
1000
0001
0100
0010
1000
,
0001
0100
0001
0010
0100
1000
0010
0100
0001
0010
0100
1000
0001
0100
0010
1000
,
0001
0010
0100
1000
0010
1000
0100
0010
0001
0100
0010
1000
0100
1000
0010
0100
,
0001
0010
0100
1000
0010
1000
0001
0100
0001
1000
0100
0010
0001
0100
0010
1000
,
0100
0010
0100
1000
0001
0100
0010
1000
0001
0010
0001
1000
0001
0100
0010
1000
,
0100
0000
0000
0010
0000
0000
0100
0000
0000
1000
0000
0000
0100
0000
0000
0010
0000
0000
0001
0000
0000
0100
0000
0000
0010
0000
0000
1000
0000
0000
0010
0000
0000
0100
0000
0000
0001
0000
1000
0000
0001
0000
1000
0000
0001
0000
1000
0000
,
0001
0010
0001
0100
0010
1000
0100
0010
0001
0100
0001
0010
0001
0100
0010
1000
,
0100
0010
0001
0100
0010
1000
0100
1000
0001
0010
0100
1000
0010
0100
0010
1000
,
0001
0010
0001
0100
0010
1000
0100
0010
0001
0100
0010
1000
0001
0010
0100
1000
,
0001
0010
0001
0100
0010
1000
0100
0010
0001
0100
0010
1000
0001
0010
0100
1000
,
0001
0100
0010
1000
0100
1000
0010
0100
0001
0010
0100
1000
0010
1000
0100
0010
,
0001
0100
0010
1000
0100
1000
0001
0010
0001
1000
0010
0100
0001
0010
0100
1000
,
0010
0100
0010
1000
0001
0010
0100
1000
0010
0100
0001
1000
0100
0010
0001
1000
,
0010
0100
0010
1000
0100
0010
0001
1000
0010
0100
0010
1000
0100
0010
0100
1000
,
0001
0100
0000
0100
0000
0001
0100
0010
1000
0100
1000
0010
1000
0100
0010
0001
,
0100
0010
1000
0100
0010
0001
0100
0001
1000
0010
0100
0001
0010
0100
0010
0001
,
1000
0010
1000
0100
0010
0001
0100
0010
1000
0100
0010
0001
1000
0010
0100
0001
,
1000
0010
1000
0100
0010
0001
0100
0010
1000
0100
0010
0001
1000
0010
0100
0001
,
1000
0100
0010
0001
0100
0001
0010
0100
1000
0010
0100
0001
0010
0001
0100
0010
,
1000
0100
0010
0001
0100
0001
1000
0010
1000
0001
0010
0100
1000
0010
0100
0001
,
0010
0100
0010
0001
1000
0010
0100
0001
0010
0100
1000
0001
0100
0010
1000
0001
,
0010
0000
0000
0100
0000
0000
0010
0000
0000
0001
0000
0000
0100
0000
0000
0010
0000
0000
1000
0000
0000
0100
0000
0000
1000
0000
0000
0010
0000
0000
0100
0000
0000
0001
0000
0000
1000
0000
0001
0000
1000
0000
0001
0000
0000
0000
0000
0000
,
1000
0100
0010
0001
1000
0100
0010
0100
1000
0010
0100
0001
1000
0100
0010
0001
,
1000
0010
0100
0010
1000
0001
0100
0001
1000
0010
1000
0001
0100
0010
1000
0100
,
1000
0001
0010
0100
1000
0001
0010
0100
0010
0001
1000
0100
0010
0001
1000
0100
,
1000
0001
0100
0010
0100
0001
1000
0010
1000
0001
0100
0001
1000
0010
1000
0001
,
0010
0000
0000
0001
0000
0000
0100
0000
0000
0010
0000
0000
1000
0000
0010
0000
0100
0000
0001
0000
1000
0000
0001
0000
0100
0000
0001
0000
1000
0000
0100
0000
0010
0000
0001
0000
1000
0000
0001
0000
0010
0000
0001
0000
1000
0000
0010
0000
,
0100
0000
0010
0000
1000
0000
0001
0000
1000
0000
0001
0000
0100
0000
0000
0010
0000
0000
0100
0000
0000
0001
0000
0000
1000
0000
0100
0000
0010
0000
0001
0000
1000
0000
0001
0000
0010
0000
0001
0000
1000
0000
0010
0000
0100
0000
0001
0000
,
1000
0000
0001
0000
0100
0000
0001
0000
1000
0000
0100
0000
0010
0000
0100
0000
1000
0000
0001
0000
1000
0000
0010
0000
0100
0000
0000
0001
0000
0000
1000
0000
0000
0001
0000
0000
0010
0000
0100
0000
1000
0000
0001
0000
0010
0000
0001
0000
,
1000
0000
0010
0000
0100
0000
0001
0000
1000
0000
0010
0000
0100
0000
0001
0000
1000
0000
0001
0000
0000
0010
0000
0000
0100
0000
0000
1000
0000
0000
0001
0000
1000
0000
0010
0000
0100
0000
0010
0000
1000
0000
0001
0000
1000
0000
0100
0000
,
0010
0001
1000
0001
0010
0100
1000
0001
0010
0001
1000
0100
0010
0001
1000
0001
,
0100
0010
1000
0001
0100
0010
0100
0001
1000
0010
1000
0001
0100
0010
1000
0100
,
1000
0001
0010
0100
1000
0001
0010
0100
0010
0001
1000
0100
0010
0001
1000
0100
,
1000
0001
0100
0010
0100
0001
1000
0010
1000
0001
0100
0001
1000
0010
1000
0001
,
0010
0100
1000
0001
0010
0001
1000
0100
0010
0001
1000
0100
0010
0100
1000
0001
,
0100
0010
1000
0001
0100
0001
1000
0010
0100
0010
1000
0001
0100
0010
1000
0100
,
1000
0001
0010
0001
1000
0100
0010
0001
1000
0001
0010
0100
0010
0001
1000
0100
,
1000
0001
0100
0010
0100
0001
1000
0010
0100
0010
1000
0001
0100
0001
0010
0100
,
2000
0000
0000
0000
,
0000
0000
0000
0000
,
0000
0000
0000
0000
,
0000
0000
0000
0000
,
0000
0000
3000
0000
,
0000
0000
0000
0000
,
0000
0000
0000
0000
,
0000
0M00
0000
0000
;
