#TITLE:Above the Winter Moonlight;
#SUBTITLE:;
#ARTIST:Dragonforce;
#TITLETRANSLIT:;
#SUBTITLETRANSLIT:;
#ARTISTTRANSLIT:;
#CREDIT:B. Abear;
#BANNER:Bn-Winter.png;
#BACKGROUND:Bg-Winter.png;
#LYRICSPATH:;
#CDTITLE:;
#MUSIC:Above the Winter Moonlight.ogg;
#OFFSET:-4.588;
#SAMPLESTART:54.694;
#SAMPLELENGTH:19.339;
#SELECTABLE:YES;
#BPMS:0.000=100.000,36.000=200.000,679.000=100.000,713.000=200.000,1089.000=100.000,1097.000=200.000,1177.000=180.000,1327.500=155.000,1328.000=150.000,1328.500=145.000,1329.000=80.000,1330.000=72.000,1331.000=65.000,1332.000=60.000,1332.500=50.000,1333.000=22.500,1336.000=20.995,1337.500=90.000;
#STOPS:394.000=0.300
;
#BGCHANGES:;
// cache tags:
#FIRSTBEAT:4.000;
#LASTBEAT:1339.250;
#SONGFILENAME:Songs/Dragonforce/Above the Winter Moonlight/Above the Winter Moonlight.sm;
#HASMUSIC:1;
#HASBANNER:1;
#MUSICLENGTH:451.082;
// end cache tags

//---------------dance-single - B. Abear----------------
#NOTES:
     dance-single:
     B. Abear:
     Challenge:
     13:
     1.000,1.000,0.534,0.368,0.748,2790.000,241.000,166.000,111.000,2.000:

0000
0000
0000
0000
,
2000
0000
0000
3002
0203
0000
0320
2030
,
3002
0000
0000
0023
0230
0000
2300
3002
,
0023
0000
0000
0230
2300
3200
0320
0032
,
2003
3200
0302
0203
0000
2300
3002
0000
,
0203
0000
0000
0320
2030
3020
0230
0302
,
0023
0000
0000
0031
0002
0000
2003
3020
,
0230
0000
0000
0302
0203
0320
2030
3002
,
0203
2300
3200
0302
0000
2003
3200
0000
,
M31M
0000
0001
0000
1000
0001
1000
0000
0001
0000
0100
0000
0010
1000
0010
0000
,
1000
0000
0100
0000
0010
0001
0010
0000
0100
0000
0010
0000
0100
1000
0100
0000
,
1000
0000
0001
0000
0100
0001
0100
0000
0010
0000
1000
0000
0001
0010
0001
0000
,
1000
0000
0100
0000
1000
0001
1000
0000
0010
0000
0100
0000
0001
0100
0001
0000
,
1001
0000
1000
0000
0001
0010
0001
0000
1000
0000
0100
0000
0010
0100
0010
0000
,
0100
0000
0010
0000
0001
0100
0001
0000
1000
0000
0010
0000
1000
0001
1000
0000
,
0004
0043
0230
4300
,
3001
0100
0001
0100
0010
1000
0010
1000
0001
1000
0001
1000
0001
0010
0001
0010
,
0100
0000
1000
0000
0001
0100
0001
0000
1000
0000
0100
0000
0010
0001
0010
0000
,
0002
2003
3020
0230
,
0304
0000
0000
1003
,
1MM1
1100
0000
1MM1
0101
0000
1001
1000
,
0100
0000
0010
0000
0001
1000
0001
0000
0100
0000
0010
0000
1000
0010
1000
0000
,
0001
0000
0010
0000
0100
1000
0100
0000
0010
0000
0001
0000
1000
0010
1000
0000
,
0001
0000
0010
0000
0100
1000
0100
0000
0010
0000
0001
0000
1000
0010
1000
0000
,
0001
0000
1000
0000
0001
0010
0001
0000
1000
0000
0010
0000
0100
0001
0100
0000
,
0101
0010
0010
1000
0100
0100
0010
0001
,
0001
1000
0100
1000
1MM1
0000
M1M1
0000
,
1010
0100
0100
0001
0010
0010
0100
1000
,
1000
0001
0010
0001
MM11
0000
1MM1
0000
,
1010
0001
0001
1000
0100
0100
0010
0001
,
0001
0000
1000
0000
0010
0000
1000
0000
1M1M
0000
0000
0000
0010
0100
0010
0100
,
M002
0000
0000
0000
0000
00M0
0000
0000
M000
0000
0000
0M00
0000
0000
0000
0000
00M0
0000
M000
0000
0000
0000
0M00
0000
,
1003
0100
1000
0100
0010
0001
0010
0001
1000
0001
1000
0001
1000
0010
1000
0010
,
0100
0000
0001
0000
1000
0100
1000
0000
0001
0000
0010
0000
0100
0010
0100
0000
,
1000
0000
0001
0000
0100
0010
0100
0000
0010
0000
1000
0000
0001
0010
0001
0000
,
0011
0000
0010
0000
0100
1000
0100
0000
0010
0000
0001
0000
1000
0010
1000
0000
,
0010
0000
0100
0000
0001
0100
0001
0000
1000
0000
0010
0000
1000
0001
1000
0000
,
1001
0000
0001
0000
1000
0100
1000
0000
0001
0000
0010
0000
0100
0010
0100
0000
,
0010
0000
0001
0000
1000
0010
1000
0000
0001
0000
0010
0000
0100
1000
0100
0000
,
1100
0000
1000
0000
0001
0010
0001
0000
1000
0000
0010
0000
0100
0001
0100
0000
,
0010
1000
0000
0001
0010
0100
0000
1000
0001
0100
0001
0100
0010
1000
0010
1000
,
0001
0000
1000
0000
0001
0010
0001
0000
1000
0000
0010
0000
0100
0010
0100
0000
,
0101
0000
0001
0000
1000
0100
1000
0000
1100
0000
0100
0000
0010
0001
0010
0000
,
0011
0000
0001
0000
1000
0010
1000
0000
0010
0000
1000
0000
0001
0010
0001
0000
,
0022
0033
0220
0330
2200
3300
2002
3003
,
1000
0000
0010
0000
0100
0001
0100
0000
0010
0000
1000
0000
0001
0010
0001
0000
,
0011
0000
0010
0000
0001
1000
0001
0000
1001
0000
1000
0000
0010
0100
0010
0000
,
0110
0000
0100
0000
0001
0100
0001
0000
1000
0000
0001
0000
1000
0100
1000
0000
,
0001
0010
0100
1000
0001
0010
0100
1000
0001
0010
0100
1000
0001
1000
0001
0000
,
0101
1000
0001
0010
1100
0001
0100
0010
,
0101
1000
0010
0100
0020
0200
0330
0000
,
0101
1000
0001
0010
1001
0010
1000
0001
,
1000
0010
0100
0001
0100
0001
1000
0010
0100
0001
0100
0001
1000
0010
1000
0000
,
1010
0001
0010
0100
0011
1000
0010
0100
,
1001
0010
0100
0001
2000
0200
3300
0000
,
1001
0010
1000
0001
1100
0000
1001
0000
,
0001
0100
0010
1000
0010
1000
0001
0100
0010
1000
0010
1000
0001
0010
0001
0000
,
2000
0000
0000
3001
0011
0000
0010
0000
,
0200
0000
0000
0300
1100
0000
1000
0000
,
0001
0000
0000
0100
0010
1000
0001
0000
0000
1000
0000
0000
,
0010
0000
0000
0000
0000
0000
0110
0000
0000
0000
0000
0000
0100
0000
0000
0000
0001
0000
0000
0000
1000
0000
0000
0000
0001
0000
0000
0000
0000
0000
0000
0000
0000
0000
0000
0000
1000
0000
0000
0100
0000
0000
0010
0000
0000
0001
0000
0000
,
2000
0000
0000
3001
0101
0000
0100
0000
,
0020
0000
0000
0130
0101
0000
0001
0000
,
0020
0000
0000
0130
1100
0000
1000
0000
,
0001
0000
0000
0000
0000
0000
1000
0000
0001
0000
0100
0000
0010
0000
0000
0100
0000
0000
0001
0000
0000
0010
0000
0000
,
0011
0001
1000
0010
0101
0010
1000
0001
,
1001
1000
0100
0010
1100
0001
0100
0010
,
0110
0100
0001
1000
0101
0010
1000
0001
,
0011
0010
0100
1000
0011
0100
1000
0001
,
0101
0100
0010
1000
0101
0010
1000
0001
,
1001
1000
0100
0010
1100
0001
0100
0010
,
0110
0100
0001
0100
1010
0001
1000
0100
,
1000
0001
1000
0000
0010
0000
1000
0001
1000
0001
0100
0010
0100
0010
0100
0010
,
2000
0000
0001
0000
3001
0100
0010
0000
1000
0000
0001
0000
0010
0001
1000
0000
,
0001
0000
0010
0000
0100
1000
0001
0000
0100
0000
0010
0000
1000
0010
0100
0000
,
0001
0000
1000
0000
0100
0010
0001
0000
1000
0000
0001
0000
0100
0010
1000
0000
,
0001
0000
0100
0000
0001
0010
0100
0000
1000
0000
0001
0000
1000
0001
0100
0000
,
0010
0000
1000
0000
0001
1000
0100
0000
0010
0000
0001
0000
1000
0100
0010
0000
,
0100
0000
1000
0000
0001
0100
0010
0000
1000
0000
0001
0000
0010
0100
1000
0000
,
0001
0000
0100
0000
0010
1000
0100
0000
0010
0000
0100
0000
1000
0001
0100
0000
,
0020
0000
2030
3200
0000
0000
0320
0000
,
0032
0000
1000
0000
1003
0010
0100
0000
0001
0000
1000
0000
0100
1000
0001
0000
,
0100
0000
0010
0000
0100
0001
1000
0000
0100
0000
0010
0000
0100
1000
0001
0000
,
0101
0000
0100
0000
0010
1000
0001
0000
0100
0000
0010
0000
1000
0100
0010
0000
,
0110
0000
0100
0000
1000
0001
0100
0000
0010
0000
1000
0000
0001
0010
0001
0000
,
1001
0000
1000
0000
0010
0100
0001
0000
1000
0000
0100
0000
0010
0100
1000
0000
,
0001
0000
0100
0000
0010
1000
0100
0000
1000
0000
0001
0000
0010
0001
0100
0000
,
0101
0000
0001
0000
1000
0100
0010
0000
0001
0000
1000
0000
0010
0100
0001
0000
,
0100
0010
1000
0001
1000
0001
0100
0010
1000
0001
1000
0001
0100
0010
1000
0001
,
0100
0100
0001
0001
0010
0010
0100
0100
,
1000
1000
0001
0001
0010
0010
0100
0100
,
110M
00M0
0M00
M000
0M00
00M0
000M
00M0
0M00
M000
0M00
00M0
000M
00M0
0M00
M000
,
0M00
00M0
000M
00M0
0M00
M000
0M00
00M0
000M
00M0
0M00
M000
0M00
00M0
000M
0000
,
2002
0000
0000
0000
,
0000
0000
0000
0000
0000
0000
0003
0000
3001
0100
0010
1000
0001
0010
0001
1000
,
1010
0000
000M
00M0
0M00
M000
0M00
00M0
000M
00M0
0M00
M000
0M00
00M0
000M
00M0
,
0M00
M000
0M00
00M0
000M
00M0
0M00
M000
0M00
00M0
000M
00M0
0M00
M000
000M
0000
,
0220
0000
0000
0000
0000
0000
0000
0300
,
0130
0001
1000
0100
0010
0001
1000
0001
1MM1
0000
0000
0000
0001
0000
0010
0000
,
0001
0010
0001
0000
1000
0000
0100
0000
0010
0100
0010
0000
0001
0000
1000
0000
,
0010
0100
0010
0000
0100
0000
0001
0000
1000
0100
1000
0000
1100
0000
0100
0000
,
0010
0001
0010
0000
0100
0000
1000
0000
0001
0100
0001
0000
0100
0000
0010
0000
,
1000
0010
1000
0000
0001
0000
0100
0000
0001
1000
0001
0000
1001
0000
1000
0000
,
0001
0010
0001
0000
1000
0000
0100
0000
0010
0100
0010
0000
0100
0000
1000
0000
,
0001
0100
0001
0000
1000
0000
0100
0000
0010
0001
0010
0000
0011
0000
0001
0000
,
1000
0100
1000
0000
0001
0000
0100
0000
0010
1000
0010
0000
0100
0001
0000
1000
,
0100
0010
0000
0001
1000
0010
1000
0010
0100
0001
0100
0001
1000
0000
0001
0000
,
1000
0100
1000
0000
0001
0000
0100
0000
0010
0100
0010
0000
1010
0000
1000
0000
,
0001
0010
0001
0000
0011
0000
0010
0000
0100
1000
0100
0000
1100
0000
1000
0000
,
0001
0000
0000
0100
0000
0000
0001
0000
0000
0000
0000
0000
0100
0000
0000
0000
0000
0000
0001
0000
0000
0000
0000
0000
1000
0000
0000
0100
0000
0000
1000
0000
0000
0000
0000
0000
0100
0000
0000
0000
0010
0000
0000
0000
0001
0000
0000
0000
,
1000
0000
0001
0000
0100
0000
0000
0000
0010
0000
0100
0000
0001
0000
1000
0000
0100
0000
0010
0000
0000
0001
0000
0000
,
1000
0001
1000
0000
0010
0000
1000
0000
0001
0010
0001
0000
0011
0000
0010
0000
,
0001
1000
0001
0000
1001
0000
1000
0000
0010
0100
0010
0000
0110
0000
0100
0000
,
0001
0100
0001
0000
1000
0000
0001
0000
1000
0100
1000
0000
0001
0010
0100
1000
,
0001
0010
0100
1000
0001
0010
0100
1000
0001
1000
0001
0000
0101
0000
1000
0000
,
0001
0010
1100
0001
0100
0010
0101
1000
,
0010
0100
0020
0200
0330
0000
0101
1000
,
0001
0000
0010
0000
1001
0000
0010
0000
1000
0000
0001
0000
1000
0010
0100
0001
,
0100
0001
1000
0010
0100
0001
0100
0001
1000
0010
1000
0000
1010
0000
0001
0000
,
0010
0100
0011
1000
0010
0100
1001
0010
,
0100
0001
2000
0200
3300
0000
1001
0010
,
1000
0000
0001
0000
1100
0000
0000
0000
1001
0000
0000
0000
0001
0100
0010
1000
,
0010
1000
0001
0100
0010
1000
0010
1000
0001
0010
0001
0000
2000
0000
0000
0000
,
0000
3001
0011
0000
0010
0000
0200
0000
,
0000
0300
1100
0000
1000
0000
0001
0000
,
0100
0000
0010
0000
1000
0000
0001
0000
0000
0000
0000
0000
1000
0000
0000
0000
0000
0000
0010
0000
0000
0110
0000
0000
,
0100
0000
0000
0000
0001
0000
0000
0000
1000
0000
0000
0000
0001
0000
0000
0000
0000
0000
0000
0000
0000
0000
0000
0000
1000
0000
0000
0100
0000
0000
0010
0000
0000
0001
0000
0000
2000
0000
0000
0000
0000
0000
0000
0000
0000
0000
0000
0000
,
0000
3001
0101
0000
0100
0000
0020
0000
,
0000
0130
0101
0000
0001
0000
0020
0000
,
0000
0130
1100
0000
1000
0000
0001
0000
,
1000
0000
0001
0000
0100
0000
0010
0000
0000
0100
0000
0000
0001
0000
0000
0010
0000
0000
0011
0000
0000
0001
0000
0000
,
1000
0010
0101
0010
1000
0001
1001
1000
,
0100
0010
1100
0001
0100
0010
0110
0100
,
0001
1000
0101
0010
1000
0001
0011
0010
,
0100
1000
0011
0100
1000
0001
0101
0100
,
0010
1000
0101
0010
1000
0001
1001
1000
,
0100
0010
1100
0001
0100
0010
0110
0100
,
0001
0000
0100
0000
1010
0000
0001
0000
1000
0000
0100
0000
1000
0001
1000
0000
,
0010
0000
1000
0001
1000
0001
0100
0010
0100
0010
0100
0010
2000
0000
0001
0000
,
3001
0100
0010
0000
1000
0000
0001
0000
0010
0001
1000
0000
0001
0000
0010
0000
,
0100
1000
0001
0000
0100
0000
0010
0000
1000
0010
0100
0000
0001
0000
1000
0000
,
0100
0010
0001
0000
1000
0000
0001
0000
0100
0010
1000
0000
0001
0000
0100
0000
,
0001
0010
0100
0000
1000
0000
0001
0000
1000
0001
0100
0000
0010
0000
1000
0000
,
0001
1000
0100
0000
0010
0000
0001
0000
1000
0100
0010
0000
0100
0000
1000
0000
,
0001
0100
0010
0000
1000
0000
0001
0000
0010
0100
1000
0000
0001
0000
0100
0000
,
0010
1000
0100
0000
0010
0000
0100
0000
1000
0001
0100
0000
0020
0000
0000
0000
,
2030
3200
0000
0000
0320
0000
0032
1000
,
1003
0010
0100
0000
0001
0000
1000
0000
0100
1000
0001
0000
0100
0000
0010
0000
,
0100
0001
1000
0000
0100
0000
0010
0000
0100
1000
0001
0000
0101
0000
0100
0000
,
0010
1000
0001
0000
0100
0000
0010
0000
1000
0100
0010
0000
0110
0000
0100
0000
,
1000
0001
0100
0000
0010
0000
1000
0000
0001
0010
0001
0000
1001
0000
1000
0000
,
0010
0100
0001
0000
1000
0000
0100
0000
0010
0100
1000
0000
0001
0000
0100
0000
,
0010
1000
0100
0000
1000
0000
0001
0000
0010
0001
0100
0000
0101
0000
0001
0000
,
1000
0100
0010
0000
0001
0000
1000
0000
0010
0100
0001
0000
0100
0010
1000
0001
,
1000
0001
0100
0010
1000
0001
1000
0001
0100
0010
1000
0001
0100
0000
0100
0000
,
0002
1003
0200
0310
0010
0200
1300
1000
,
0002
0013
0200
1300
0002
0103
0010
0010
,
0200
0301
2000
3001
0001
2000
3100
0100
,
0020
0031
2000
3010
0200
0301
1000
1000
,
0002
0013
0200
1300
1000
0002
0103
0100
,
0020
1030
0002
1003
0200
0310
0022
0000
,
0000
0000
0000
0000
0000
0000
0000
0000
0000
0000
0003
0000
0031
1000
0001
1000
,
0001
0100
0001
0100
0010
0100
0010
0100
0010
1000
0010
1000
0001
0000
0100
0000
,
0010
0110
0000
0100
0001
1001
0000
1000
,
0100
0110
0000
0010
0001
1000
1001
0001
,
0100
0110
0000
0010
1000
1100
0000
0100
,
0010
0011
0000
0001
1001
0000
1010
1000
,
0010
0110
0000
0100
0001
1001
0000
1000
,
0100
0110
0000
0010
0001
1000
1010
0010
,
0100
0101
0000
0001
1000
2MM2
0000
0000
,
0010
0000
0000
3003
1000
0000
0100
0000
0010
0000
0001
0000
0100
0000
0001
0000
,
1000
0010
0100
0001
0010
0100
1000
0001
,
0010
0000
0001
0000
1000
0000
0001
0100
0010
0000
1000
0001
0010
0000
0100
1000
,
0001
0000
0100
0000
0010
0000
0100
0001
1000
0000
0001
0010
0100
0000
1000
0010
,
0100
0000
0010
0000
1000
0000
0001
0100
0010
0000
0100
0001
1000
0000
0100
0010
,
0001
0000
1000
0000
0010
0000
1000
0001
0100
0000
0001
1000
0100
0000
0010
0001
,
1000
0000
0010
0000
0100
0000
0001
0100
0010
0000
1000
0001
0010
0000
0100
1000
,
0001
0000
1000
0000
0100
0000
0010
0001
0100
0000
0010
1000
0001
0000
1000
0100
,
0010
0001
4000
0010
0000
0001
0000
0001
,
0000
0010
0000
0001
0000
0100
0000
0010
,
0000
3001
0400
0010
0000
0001
0000
0010
,
0000
0010
0000
0001
0000
0010
0000
0010
,
0000
0301
4000
0100
0000
0001
0000
0001
,
0000
0010
0000
0001
0000
0100
0000
0010
,
0000
3001
0040
0100
0000
0001
0000
0001
,
0000
0130
1000
0100
0001
0100
1000
0001
,
0100
0000
0000
0010
0000
0000
0100
0000
0001
0000
1000
0000
0100
0000
0000
0000
0000
0000
0010
0000
0001
0000
0100
0000
,
1000
0000
0000
0100
0000
0000
0001
0000
1000
0000
0100
0000
0010
0000
0000
0000
0000
0000
0100
0000
0001
0000
0100
0000
,
1000
0000
0000
0001
0000
0000
1000
0000
0010
0000
0100
0000
0001
0000
0000
0000
0000
0000
1000
0000
0100
0000
0001
0000
,
0100
0000
0000
0010
0000
0000
0001
0000
1000
0000
0001
0000
1000
0000
0000
0000
0000
0000
0010
0000
0001
0000
0010
0000
,
1000
0000
0001
0000
1000
0010
1000
0000
0001
0000
1000
0010
1000
0000
0001
0000
,
1000
0010
1000
0000
0001
0010
0001
0000
1000
0000
0001
0010
0001
0000
1000
0000
,
0001
0010
0001
0000
0100
0010
0100
0000
0001
0000
0100
0010
0100
0000
0001
0000
,
0100
0010
0100
0000
0001
1000
0001
1000
0001
0010
0001
0010
0100
0010
0100
0010
,
0100
1000
0100
1000
0001
0000
1000
0000
0100
0000
0110
0000
0000
0000
0010
0000
,
0001
1001
0000
1000
0010
0110
0000
0100
,
0001
1000
1100
0100
0010
0011
0000
0001
,
1000
1010
0000
0010
0100
0101
0000
0001
,
1001
0000
1100
0100
0010
0011
0000
0001
,
1000
1010
0000
0010
0100
0101
0000
0001
,
1000
0100
0110
0010
0001
1001
0000
1000
,
0010
0100
0101
0001
1000
1100
0000
0100
,
0010
0001
0011
0010
0100
1100
0000
1000
,
0001
0101
0000
0100
0010
1010
0000
1000
,
0001
0010
0110
0100
1000
1010
0000
0010
,
0100
0101
0000
0001
1000
1001
0001
0001
,
1001
0000
0000
0000
1000
0001
1000
0001
1000
0001
1000
0001
1000
0001
1000
0001
,
1000
0001
1000
0001
0100
0010
0100
0010
0100
0010
0100
0010
0100
0010
0100
0010
,
0100
0010
0100
0010
1000
0000
1000
0000
0001
0000
0010
0000
0100
0000
0000
1000
,
0000
0000
0001
0000
0100
0000
0000
0010
0000
0000
1000
0000
0001
0000
1000
0000
,
0100
0010
0002
0000
1003
0010
2000
0000
,
3002
0000
2003
0000
0000
3200
0000
0000
,
0300
0000
0020
0030
0010
0010
0020
0030
,
0010
0000
0000
0000
0000
0000
0010
0000
0000
0000
0000
0000
0100
0000
0000
0000
0000
0000
0020
0000
0000
0000
0000
0000
0000
0000
0000
0000
0000
0000
0230
0000
0000
0000
0000
0000
0000
0000
0000
0000
0000
0000
0300
2000
0000
0000
0000
0000
,
0000
3002
0103
0010
1000
0001
0010
0001
,
1000
0000
0100
0000
1000
0001
1000
0001
0100
0001
0100
0001
0100
0010
0100
0010
,
1000
0010
1000
0010
0100
0000
0100
0000
0002
0000
0000
0000
1003
0000
0100
0000
,
1000
1000
0002
0013
0010
0200
1300
1000
,
0004
0000
1003
1000
0020
0130
0100
0002
,
1003
0000
0000
0000
0000
0000
0000
0000
1000
0000
0000
0000
0000
0000
0000
0100
0000
0000
0000
0010
0000
0000
0000
0001
0000
0000
0000
1000
0000
0000
0000
0000
0001
0000
0000
0000
0000
0000
0000
0000
0100
0000
0000
0000
0000
0000
0000
0000
0000
0000
0000
0000
0000
0000
0000
0000
0010
0000
0000
0000
0000
0000
0000
0000
,
0400
0000
0301
0001
2000
3100
0100
0020
,
0031
0000
0000
0001
0000
0000
0100
0000
0000
0000
0010
0000
0000
0000
1000
0000
0000
0000
0001
0000
0000
0000
1000
0000
,
0000
0000
0100
0000
0000
0000
0020
0000
0000
0031
0000
1000
0000
0010
0000
0100
0000
0001
0000
1000
0000
0100
0000
0010
,
0000
0000
0001
0000
0000
0000
1000
0000
0000
0000
0000
0000
0001
0000
0000
0100
0000
0000
0010
0000
0000
1000
0000
0000
0001
0000
0000
0100
0000
0000
0010
0000
0000
1000
0000
0000
0001
0000
0000
0100
0000
0000
0010
0000
0000
1000
0000
0000
,
0001
0100
0010
1000
0001
0100
0001
0100
0040
0000
1030
0100
1000
0100
0040
0000
,
0031
1000
0001
1000
0400
0000
0310
0001
0010
0001
4000
0000
3010
0100
0010
0100
,
0004
0000
1003
0010
0100
0001
0100
0001
4000
0000
3001
0010
0001
0010
0400
0000
,
1300
0001
1000
0001
0400
0000
0301
1000
0001
1000
0040
0000
0130
0001
0100
0001
,
1000
0001
0100
0001
1000
0100
0010
0001
1000
0001
0100
0010
0100
0001
1000
0100
,
0010
0001
1000
0010
1000
0001
0100
0000
0101
0000
0001
1000
0100
0000
1100
0000
,
1000
0000
1001
0000
0101
0000
0100
0010
1000
0001
1000
0100
0010
0001
0010
0000
,
0100
1000
0100
0000
1000
0010
1000
0010
0100
0010
0100
0010
1000
0010
1000
0010
,
0100
0001
1000
0100
0010
0000
0001
0000
1000
0100
1000
0000
0001
0000
1000
0000
,
0010
0100
0010
0000
0100
0000
0001
0000
1000
0100
1000
0000
0001
0000
0010
0000
,
0100
1000
0100
0000
0010
0000
0001
0000
1000
0010
1000
0000
0001
0000
0100
0000
,
0001
1000
0001
0000
1000
0000
0001
0000
1000
0010
1000
0000
0001
0000
1000
0000
,
0100
0010
0100
0000
1100
0000
1000
0000
0001
0100
0001
0000
1000
0000
0100
0000
,
0010
0001
0010
0000
0011
0000
0001
0000
1000
0100
1000
0000
0001
0000
0100
0000
,
0010
0100
0010
0000
1000
0000
0001
0000
0010
0001
0010
0000
0100
0000
1000
0000
,
0001
0100
0001
0000
1000
0100
0010
0001
1000
0100
0010
0001
1000
0100
0010
0001
,
1000
0100
0010
0001
2000
0000
0000
0000
0000
0000
3001
0000
0101
0000
0000
0000
,
0100
0010
2000
0000
0000
3001
0011
0000
,
0010
0000
0000
0100
0000
0000
2000
0000
0000
0000
0000
0000
3001
0000
0100
0000
0010
0000
1000
0000
0000
0000
0000
0000
,
0001
0000
0000
0000
0000
0000
1000
0000
0000
1001
0000
0000
0001
0000
0010
0000
0100
0000
1000
0000
0000
0000
0000
0000
,
0001
0100
0010
1000
0001
0000
0100
0000
0010
0000
1000
0001
0010
0000
0100
0000
,
1000
0000
0001
0000
0100
0010
1000
0001
1000
0000
0100
0000
0010
0000
0100
0000
,
1000
0000
0001
0000
1000
0010
0100
0001
1000
0100
1000
0001
0010
0100
1000
0001
,
1000
0100
0010
0001
0010
0100
1000
0001
0100
0010
1000
0001
0100
0000
0001
0000
,
0010
0100
1100
1000
0001
1100
1000
0001
,
1100
0000
0000
1000
0000
0000
0001
0000
0000
0100
0000
0000
0010
0000
1000
0000
0001
0000
1000
0000
0000
0001
0000
0000
,
0010
0100
0010
0001
1100
0010
0001
1100
,
0010
0000
0000
0001
0000
0000
1100
0000
0000
0000
1001
0000
0000
0000
0101
0000
0000
0000
0220
0000
0000
0000
0000
0000
,
0000
0000
0300
0000
0130
0001
1000
0100
0010
0001
1000
0001
0100
0010
1000
0010
,
0100
0001
1000
0100
1000
0001
0010
0001
1000
0010
0100
0001
1000
0100
0010
0001
,
2000
0000
0000
0000
3001
0010
0001
1000
0100
0010
0001
1000
0010
1000
0001
0100
,
0010
1000
0100
1000
0001
0010
0100
1000
0001
0100
0010
1000
0001
0010
0001
0010
,
0100
1000
0001
0100
0020
0000
0000
0000
0000
0000
1000
0000
0000
0000
0000
0000
,
0130
0001
2000
0000
0000
0001
0000
0000
,
3200
0000
0320
0000
0000
0001
0000
0000
,
0230
2300
0000
0000
,
3001
0100
0020
0000
1030
0020
0000
0130
,
0001
0000
2000
0000
0000
0000
3001
0000
0010
0100
0010
0100
1000
0001
1000
0001
,
0100
0000
0010
0000
1000
0001
1000
0001
0100
0010
0100
0010
1000
0001
0010
0100
,
1000
0001
1000
1000
0001
0010
0100
0010
,
0100
1000
0001
0001
0100
0010
1000
0001
,
1000
0100
0040
0030
0000
0400
1300
0001
,
0100
0000
0000
0010
0000
0000
0100
0000
0000
0100
0000
0000
0001
2000
0000
0000
0000
3000
0100
0000
0000
0100
0000
0000
,
1000
0000
0002
0000
0000
0000
0000
0000
0000
0000
0003
0000
0100
0000
0000
0010
0000
0000
1000
0000
0000
0001
0000
0000
0010
0000
0000
0001
0000
0000
1000
0000
0000
0100
0000
0000
0010
0000
0000
0001
0000
0000
1000
0000
0000
0010
0000
0000
,
0100
0001
1000
0100
0010
0000
0100
1000
0001
0100
0001
1000
0040
0400
0000
0000
,
0000
0000
0030
0300
0001
1000
0100
0010
0001
1000
0010
0100
0004
0400
0000
0000
,
0000
0000
0000
0000
0000
0000
0003
0000
0000
0300
0000
0000
0010
0000
0000
1000
0000
0000
0001
0000
0000
1000
0000
0000
0100
0000
0000
0000
0010
0000
0000
0000
0001
0000
0000
0000
1000
0000
0000
0001
0000
0000
1000
0000
0000
0100
0000
0000
,
0010
0001
1000
0010
1000
0100
0010
0001
1000
0100
0010
0100
1000
0001
0100
0001
,
1000
0010
1000
0010
M200
0000
0000
0000
000M
0000
0000
0000
00M0
0000
0000
0000
,
M000
0000
0000
M3M1
0000
0M00
0000
000M
M000
0000
00M0
0000
,
0M00
0000
0000
0000
0000
0000
0000
0000
000M
0000
0000
0000
1000
0000
0000
0000
0000
0000
0001
0000
0000
0000
0000
0000
1000
0000
0000
0100
0000
0000
0010
0000
0000
0000
0000
0000
0001
0000
0000
0000
0000
0000
1000
0000
0000
0000
0000
0000
,
0001
0100
0010
0000
0100
0000
0010
0000
1000
0100
0010
0000
0001
0000
0100
0000
,
0010
0100
0001
0000
1000
0000
0001
0000
1000
0100
0010
0000
0001
0000
0010
0000
,
0100
0010
0001
0000
1000
0000
0001
0000
0100
0001
0010
0000
0001
0000
0010
0000
,
0001
1000
0100
0000
2000
0000
0001
0000
3001
0100
0010
0000
1000
0000
0001
0000
,
0010
0001
1000
0000
0001
0000
0010
0000
0100
1000
0001
0000
0100
0000
0010
0000
,
1000
0010
0100
0000
0001
0000
1000
0000
0100
0010
0001
0000
1000
0000
0001
0000
,
0100
0010
1000
0000
0001
0000
0100
0000
0001
0010
0100
0000
1000
0001
1000
0001
,
0100
0010
0100
0010
1000
0000
0001
0000
1000
0001
0010
0000
0100
0000
1000
0000
,
0001
0100
0010
0000
1000
0000
0001
0000
1000
0100
0010
0000
0100
0000
0010
0000
,
0001
1000
0010
0000
1010
0000
1000
0000
0001
0100
0010
0000
1000
0000
0001
0000
,
0010
0001
0100
0000
0010
0000
1000
0000
0001
0010
0100
0000
1000
0000
0001
0000
,
0100
0010
1000
0000
2010
0000
0010
0000
3010
0100
0001
0000
1000
0000
0100
0000
,
0010
0001
1000
0000
0001
0000
1000
0000
0100
0010
0001
0000
1000
0000
0010
0000
,
0100
0001
1000
0000
1001
0000
0001
0000
1000
0100
0010
0000
0100
0000
1000
0000
,
0100
1000
0010
0000
0100
0000
0001
0000
1000
0100
0010
0000
0001
0000
1000
0000
,
0010
0100
0001
0000
0101
0000
0100
0000
0010
1000
0001
0000
0010
0000
0100
0000
,
1000
0001
0100
0000
0010
0000
1000
0000
0001
0100
0001
0000
1000
0000
0100
0000
,
0010
0001
0100
0000
0001
0100
0010
1000
0010
1000
0001
0100
0010
1000
0010
1000
,
0001
0010
0001
0010
0100
0010
0100
0010
0100
1000
0100
1000
0001
1000
0001
1000
,
0001
0100
0001
0000
0102
0000
0000
0000
0000
0000
1003
0000
1010
0000
0000
0000
,
0000
0001
1001
0000
0000
1000
1100
0000
,
0100
0120
0000
0031
,
0000
0000
1000
0000
0001
0100
0110
0000
,
0010
0000
0200
0000
0000
0301
1001
0000
,
1000
0000
0200
0000
0000
0310
0011
0000
,
0001
2000
0000
3001
,
0100
0010
1010
0000
0000
0101
0000
0000
,
1001
0000
2001
0000
0000
3001
0011
0000
,
0000
0000
0010
0000
0100
1000
1001
0000
,
0001
0100
0120
0000
0000
1030
1100
0000
,
0100
0000
0000
0010
0000
0000
0000
0000
0000
0100
1000
0001
,
1000
0000
0000
0000
0010
0000
0000
0000
0100
0000
0000
0000
0002
0000
0000
0000
0000
0000
0000
0000
0000
0000
0000
0000
1003
0000
0000
0100
0000
0000
0010
0000
0000
0001
0000
0000
1000
0000
0000
0000
0000
0000
0000
0000
0000
0000
0000
0000
,
0001
0000
0200
0000
0000
0310
1010
0000
,
1000
0000
0000
0000
0001
0000
0000
0000
1000
0010
0100
0001
1000
0000
0000
0000
,
0100
0000
0000
0000
0010
0001
1000
0001
1000
0000
0000
0000
0001
0000
0000
0000
,
1000
0000
0100
0000
0010
0000
0001
0000
0000
0000
0000
0000
1000
0000
0000
0010
0000
0000
0100
0000
0000
0000
0000
0000
,
0001
1000
0100
0000
0000
0010
0011
0001
,
1000
0000
0000
0000
1001
0000
0000
0000
0001
0010
0100
1000
0001
0000
0100
0000
,
0000
0001
1001
0100
0M00
0100
0M00
0100
,
1001
0000
0000
0001
0000
0000
0101
0000
0000
0000
0000
0000
0000
0000
0001
1000
0001
1000
0001
0000
0000
0000
0000
0000
,
0000
0000
1100
0000
0100
0010
0001
0000
,
1000
0000
0010
0000
0110
0000
0000
0000
0000
0000
0100
0001
0010
0000
0100
0000
,
0010
0000
0000
0001
0010
0100
1000
0001
0100
0010
1000
0001
,
1000
0000
0100
0000
0010
0000
0011
0000
0000
0000
0000
0000
0001
0000
0000
1000
0000
0000
1100
0000
0000
0000
0000
0000
,
1000
0000
0001
0000
0100
0000
0000
0000
0000
0000
0001
0100
0010
0000
0100
0000
,
0010
0000
1010
0000
0000
1000
1001
0000
,
0000
0001
1001
0100
0M00
0100
0M00
0100
,
1001
0000
0011
0000
0001
0010
0110
0000
,
0100
1000
0001
0000
0000
0100
0101
0001
,
1000
0000
1001
0000
0000
0001
0011
0000
,
1001
0000
0000
0000
1000
0100
1000
0100
1000
0000
0000
0000
0001
0100
0001
0100
,
0001
0000
0101
0100
1000
0100
0001
0100
,
1000
0100
0001
0100
1000
0100
0010
1000
,
0001
0010
0110
0100
0001
0100
1000
0100
,
0001
0000
0000
0100
0000
0000
1000
0000
0000
0100
0000
0000
0001
0000
0000
0100
0000
0000
1000
0000
0010
0000
0100
0000
,
0001
0000
1000
0000
0010
0000
0110
0000
0000
0100
0000
0000
1000
0000
0000
0100
0000
0000
0001
0000
0000
0100
0000
0000
,
1000
0100
0001
0100
1000
0100
0101
0001
,
1001
1000
1100
0000
1001
0100
0101
0000
,
1001
0110
2002
0000
0000
0000
0000
0000
,
00M0
0000
0M00
0000
00M0
0000
0M00
0000
00M0
0000
0M00
0000
00M0
0000
0M00
0000
0000
0000
3223
0000
0000
0000
0000
0000
0000
0000
0000
0000
0000
0000
0000
0000
0000
0000
0000
0000
0030
0000
0000
0300
0000
0000
0000
0000
0000
0000
0000
0000
;
