#TITLE:Revolution;
#SUBTITLE:;
#ARTIST:Lazarus A.D.;
#TITLETRANSLIT:;
#SUBTITLETRANSLIT:;
#ARTISTTRANSLIT:;
#CREDIT:Braeden47;
#BANNER:../Banner.png;
#BACKGROUND:../BG.PNG;
#LYRICSPATH:;
#CDTITLE:../CDTitleBRAEDEN.png;
#MUSIC:Revolution.ogg;
#OFFSET:-0.323;
#SAMPLESTART:39.456;
#SAMPLELENGTH:12.660;
#SELECTABLE:YES;
#BPMS:0.000=195.392,1.000=195.363,2.000=195.392,3.000=195.363,4.000=195.392,5.000=195.363,7.000=195.392,8.000=195.363,9.000=195.392,10.000=195.363,11.000=195.392,12.000=195.363,13.000=195.392,14.000=195.363,15.000=195.392,16.000=195.363,18.000=195.392,19.000=195.363,20.000=195.392,21.000=195.363,22.000=195.392,23.000=195.363,24.000=195.392,25.000=195.363,27.000=195.392,28.000=195.363,29.000=195.392,30.000=195.363,31.000=195.392,32.000=195.363,34.000=195.392,35.000=195.363,36.000=195.392,37.000=195.363,38.000=195.378,39.000=195.363,40.000=195.378,41.000=195.363,43.000=195.378,44.000=195.363,45.000=195.378,46.000=195.363,47.000=195.378,48.000=195.363,50.000=195.378,51.000=195.363,52.000=195.378,53.000=195.363,54.000=195.378,55.000=195.363,56.000=195.378,57.000=195.363,58.000=195.378,59.000=195.363,60.000=195.378,61.000=195.363,62.000=195.378,63.000=195.363,64.000=195.378,65.000=195.363,66.000=195.378,67.000=195.363,68.000=195.378,69.000=195.363,70.000=195.378,71.000=195.363,72.000=195.378,73.000=195.363,74.000=195.378,75.000=195.363,76.000=195.378,77.000=195.363,78.000=195.378,79.000=195.363,80.000=195.378,81.000=195.363,82.000=195.378,83.000=195.363,84.000=195.378,85.000=195.363,86.000=195.378,87.000=195.363,88.000=195.378,89.000=195.363,90.000=195.378,91.000=195.363,92.000=195.378,93.000=195.363,94.000=195.378,95.000=195.363,96.000=195.378,97.000=195.363,98.000=195.378,99.000=195.363,100.000=195.378,101.000=195.363,102.000=195.378,103.000=195.363,104.000=195.378,105.000=195.363,106.000=195.378,107.000=195.363,108.000=195.378,109.000=195.363,110.000=195.378,111.000=195.363,112.000=195.378,113.000=195.363,114.000=195.378,115.000=195.363,116.000=195.378,117.000=195.363,118.000=195.378,119.000=195.363,120.000=195.378,121.000=195.363,122.000=195.378,123.000=195.363,124.000=195.378,125.000=195.363,126.000=195.378,127.000=195.363,128.000=195.378,129.000=195.363,130.000=195.378,131.000=195.363,132.000=195.378,133.000=195.363,134.000=195.378,135.000=195.363,136.000=195.378,137.000=195.363,138.000=195.378,139.000=195.363,140.000=195.378,141.000=195.363,142.000=195.378,143.000=195.363,144.000=195.378,145.000=195.363,146.000=195.378,147.000=195.363,148.000=195.378,149.000=195.363,150.000=195.378,151.000=195.363,152.000=195.378,153.000=195.363,154.000=195.378,155.000=195.363,156.000=195.378,157.000=195.363,158.000=195.378,159.000=195.363,160.000=195.378,161.000=195.363,162.000=195.378,163.000=195.363,164.000=195.378,165.000=195.363,166.000=195.378,167.000=195.363,168.000=195.378,169.000=195.363,170.000=195.378,171.000=195.363,172.000=195.378,173.000=195.363,174.000=195.378,175.000=195.363,176.000=195.378,177.000=195.363,178.000=195.378,179.000=195.363,180.000=195.378,181.000=195.363,182.000=195.378,183.000=195.363,184.000=195.378,185.000=195.363,186.000=195.378,187.000=195.363,188.000=195.378,189.000=195.363,190.000=195.378,191.000=195.363,192.000=195.378,193.000=195.363,194.000=195.378,195.000=195.363,196.000=195.378,197.000=195.363,198.000=195.378,199.000=195.363,200.000=195.378,201.000=195.363,202.000=195.378,203.000=195.363,204.000=195.378,205.000=195.363,206.000=195.378,207.000=195.363,208.000=195.378,209.000=195.363,210.000=195.378,211.000=195.363,212.000=195.378,213.000=195.363,214.000=195.378,215.000=195.363,216.000=195.378,217.000=195.363,218.000=195.378,219.000=195.363,220.000=195.378,221.000=195.363,222.000=195.378,223.000=195.363,224.000=195.378,225.000=195.363,226.000=195.378,227.000=195.363,228.000=195.378,229.000=195.363,230.000=195.378,231.000=195.363,232.000=195.378,233.000=195.363,234.000=195.378,235.000=195.363,236.000=195.378,237.000=195.363,238.000=195.378,239.000=195.363,240.000=195.378,241.000=195.363,242.000=195.378,243.000=195.363,244.000=195.378,245.000=195.363,246.000=195.378,247.000=195.363,248.000=195.378,249.000=195.363,250.000=195.378,251.000=195.363,252.000=195.378,253.000=195.363,254.000=195.378,255.000=195.363,256.000=195.378,257.000=195.363,258.000=195.378,259.000=195.363,260.000=195.378,261.000=195.363,262.000=195.378,263.000=195.363,264.000=195.378,265.000=195.363,266.000=195.378,267.000=195.363,268.000=195.378,269.000=195.363,270.000=195.378,271.000=195.363,272.000=195.378,273.000=195.363,274.000=195.378,275.000=195.363,276.000=195.378,277.000=195.363,278.000=195.378,279.000=195.363,280.000=195.378,281.000=195.363,282.000=195.378,283.000=195.363,284.000=195.378,285.000=195.363,287.000=195.378,288.000=195.363,289.000=195.378,290.000=195.363,291.000=195.378,292.000=195.363,293.000=195.378,294.000=195.363,295.000=195.378,296.000=195.363,297.000=195.378,298.000=195.363,299.000=195.378,300.000=195.363,301.000=195.378,302.000=195.363,303.000=195.378,304.000=195.363,305.000=195.378,306.000=195.363,307.000=195.378,308.000=195.363,309.000=195.378,310.000=195.363,311.000=195.378,312.000=195.363,313.000=195.378,314.000=195.363,315.000=195.378,316.000=195.363,317.000=195.378,318.000=195.363,319.000=195.378,320.000=195.363,321.000=195.378,322.000=195.363,323.000=195.378,324.000=195.363,325.000=195.378,326.000=195.363,327.000=195.378,328.000=195.363,329.000=195.378,330.000=195.363,331.000=195.378,332.000=195.363,333.000=195.378,334.000=195.363,335.000=195.378,336.000=195.363,337.000=195.378,338.000=195.363,339.000=195.378,340.000=195.363,341.000=195.378,342.000=195.363,343.000=195.378,344.000=195.363,345.000=195.378,346.000=195.363,347.000=195.378,348.000=195.363,349.000=195.378,350.000=195.363,351.000=195.378,352.000=195.363,353.000=195.378,354.000=195.363,355.000=195.378,356.000=195.363,357.000=195.378,358.000=195.363,359.000=195.378,360.000=195.363,361.000=195.378,362.000=195.363,363.000=195.378,364.000=195.363,365.000=195.378,366.000=195.363,367.000=195.378,368.000=195.363,369.000=195.378,370.000=195.363,371.000=195.378,372.000=195.363,373.000=195.378,374.000=195.363,375.000=195.378,376.000=195.363,377.000=195.378,378.000=195.363,379.000=195.378,380.000=195.363,381.000=195.378,382.000=195.363,383.000=195.378,384.000=195.363,385.000=195.378,386.000=195.363,387.000=195.378,388.000=195.363,389.000=195.378,390.000=195.363,391.000=195.378,392.000=195.363,393.000=195.378,394.000=195.363,395.000=195.378,396.000=195.363,397.000=195.378,398.000=195.363,399.000=195.378,400.000=195.363,401.000=195.378,402.000=195.363,403.000=195.378,404.000=195.363,405.000=195.378,406.000=195.363,407.000=195.378,408.000=195.363,409.000=195.378,410.000=195.363,411.000=195.378,412.000=195.363,413.000=195.378,414.000=195.363,415.000=195.378,416.000=195.363,417.000=195.378,418.000=195.363,419.000=195.378,420.000=195.363,421.000=195.378,422.000=195.363,423.000=195.378,424.000=195.363,425.000=195.378,426.000=195.363,427.000=195.378,428.000=195.363,429.000=195.378,430.000=195.363,431.000=195.378,432.000=195.363,433.000=195.378,434.000=195.363,435.000=195.378,436.000=195.363,437.000=195.378,438.000=195.363,439.000=195.378,440.000=195.363,441.000=195.378,442.000=195.363,443.000=195.378,444.000=195.363,445.000=195.378,446.000=195.363,447.000=195.378,448.000=195.363,449.000=195.378,450.000=195.363,451.000=187.833,452.000=197.168,453.000=185.009,454.000=184.996,457.000=185.009,458.000=184.996,460.000=185.009,461.000=184.996,463.000=185.009,464.000=184.996,467.000=185.009,468.000=184.996,470.000=185.009,471.000=184.996,474.000=185.009,475.000=184.996,477.000=185.009,478.000=184.996,480.000=185.009,481.000=184.996,484.000=185.009,485.000=184.996,487.000=185.009,488.000=184.996,491.000=185.009,492.000=184.996,494.000=185.009,495.000=184.996,497.000=185.009,498.000=184.996,501.000=185.009,502.000=184.996,504.000=185.009,505.000=184.996,507.000=185.009,508.000=184.996,511.000=185.009,512.000=184.996,514.000=179.001,515.000=189.501,527.000=189.487,528.000=189.501,543.000=189.487,544.000=189.501,559.000=189.487,560.000=189.501,575.000=189.487,576.000=189.501,589.000=189.487,590.000=189.501,603.000=189.487,604.000=189.514,605.000=189.487,606.000=189.501,620.000=189.487,621.000=189.501,637.000=189.487,638.000=189.501,652.000=189.487,653.000=189.514,654.000=189.487,655.000=189.501,669.000=189.487,670.000=189.501,684.000=189.487,685.000=189.514,686.000=189.487,687.000=189.514,688.000=189.487,689.000=189.514,690.000=189.487,691.000=189.501,699.000=189.487,700.000=189.514,701.000=189.487,702.000=189.514,703.000=189.487,704.000=189.514,705.000=189.487,706.000=189.501,718.000=189.487,719.000=189.514,720.000=189.487,721.000=189.501,735.000=189.487,736.000=189.501,750.000=189.487,751.000=189.514,752.000=189.487,753.000=189.501,765.000=189.487,766.000=189.514,767.000=189.487,768.000=189.514,769.000=189.487,770.000=189.514,771.000=189.487,772.000=189.501,780.000=189.487,781.000=189.514,782.000=189.487,783.000=189.514,784.000=189.487,785.000=189.514,786.000=189.487,787.000=189.501,797.000=189.487,798.000=189.514,799.000=189.501,801.000=189.487,802.000=189.501,816.000=189.487,817.000=189.514,818.000=189.487,819.000=189.501,821.000=189.514,822.000=189.487,823.000=189.501,831.000=189.487,832.000=189.514,833.000=189.487,834.000=189.514,835.000=189.487,836.000=189.514,837.000=189.487,838.000=189.501,843.000=181.196,844.000=212.325,845.000=200.000;
#STOPS:;
#BGCHANGES:;
// cache tags:
#FIRSTBEAT:0.000;
#LASTBEAT:972.000;
#SONGFILENAME:Songs/Index Fusion/Revolution - [Braeden]/Revolution.sm;
#HASMUSIC:1;
#HASBANNER:1;
#MUSICLENGTH:304.204;
// end cache tags

//---------------dance-single - ----------------
#NOTES:
     dance-single:
     :
     Challenge:
     18:
     1.000,1.000,0.329,0.339,1.000,2469.000,100.000,103.000,71.000,0.000:

1000
0100
0010
0001
0010
0100
1000
0400
,
0000
0310
0001
0010
0100
1000
0100
0010
,
0002
0023
0130
2000
3020
0130
0002
0403
,
0000
0310
1000
1000
0010
0010
0100
0100
,
0001
0010
0100
1000
0001
0100
0010
4000
,
0000
3001
0100
0010
1000
0100
0010
0001
,
0200
0320
1030
0200
0320
0031
2000
3400
,
0000
0000
0310
0000
0001
0000
0010
0001
0100
0000
0010
0000
1000
0000
1000
0000
,
0100
0010
0011
0001
0100
0010
0110
0040
,
0000
0000
1030
0000
0001
0000
1000
0100
0010
0000
0001
0010
0100
0000
1000
0001
,
0100
0010
1010
0100
0001
0010
0011
0004
,
0000
0000
0013
0000
0100
0000
1000
0001
0100
0000
0010
1000
0001
0000
0100
0010
,
1000
0001
1001
1000
0010
1000
1010
0400
,
0000
0000
0301
0000
0011
0000
0001
0010
0100
0000
1000
0001
0100
0000
0010
1000
,
0001
0010
0011
0100
1000
0100
1100
0040
,
0000
0000
0130
0000
0101
0000
0100
0010
1000
0010
0100
0001
0010
0000
0100
0000
,
1000
0000
0001
0000
0100
0010
0100
0000
0001
0000
0100
0000
0010
1000
0400
0000
,
0000
0000
0310
0000
0001
1000
0001
0000
0100
0000
0010
0000
1000
0100
1000
0000
,
0001
0000
0010
0000
0001
0100
0010
0000
1000
0000
0010
0000
0100
0001
0400
0000
,
0000
0000
0310
0000
1000
0100
0010
0000
0001
0000
0010
0000
0100
1000
0001
0000
,
0100
0000
0010
0000
1000
0100
1000
0000
0001
0000
0100
0000
0010
1000
0040
0000
,
0000
0000
0130
0000
0001
0100
0001
0000
1000
0000
0010
0000
0100
0001
0100
0000
,
0010
0000
1000
0000
0100
0010
0001
0000
0100
0000
0010
0000
1000
0100
0040
0000
,
0000
0000
0031
0000
1000
0001
0010
0000
0100
0000
0010
0000
0100
0000
0010
0000
,
1001
MMMM
MMMM
MMMM
,
MMMM
MMMM
0000
0000
,
1000
0100
M000
0M00
0000
0000
0000
0000
,
0000
0000
0000
0000
0000
0000
0000
0000
0000
0010
0001
0010
0100
0000
0000
1000
0000
0000
0MMM
0000
0000
0000
0000
0000
,
0011
0000
0000
0000
,
0000
0000
0000
0000
,
1001
0000
1000
0010
0100
0001
1000
0000
1010
0000
0100
0001
1000
0100
0010
0000
,
0110
0000
0100
0001
0100
0010
1000
0100
0010
0001
0010
0100
1000
0001
0010
0000
,
0010
0001
0100
0010
1000
0001
0010
0100
1000
0001
0100
0010
1000
0100
0010
0100
,
1000
0001
0100
0001
1000
0010
1000
0001
0010
0100
1000
0001
0100
0010
1000
0001
,
0010
0001
1000
0010
0100
0001
0100
0010
1000
0001
0010
0100
1000
0001
0010
0100
,
0010
0001
1000
0010
0100
0001
1000
0100
0010
0100
1000
0001
0010
0100
1000
0001
,
0100
0010
1000
0100
0010
0001
1000
0010
0100
0001
0010
0100
1000
0001
0100
0010
,
1000
0100
0010
0001
0010
0001
1000
0010
0100
0001
0100
0010
0100
0001
0010
0100
,
1000
0001
0100
0010
1000
0100
0010
0001
0010
0100
1000
0001
0100
0010
0100
0001
,
0100
0010
0100
0001
0010
0100
1000
0001
0100
0010
1000
0100
0010
0001
0100
0010
,
2000
3010
0200
0302
0103
0010
2000
3200
,
0320
0032
1003
0020
0130
0001
0200
0310
,
1000
0200
0320
0031
0200
0310
2000
3100
,
2000
3020
0130
0002
0103
0010
1000
0001
,
0020
0130
2000
3200
0310
0001
0020
0230
,
2300
3200
0310
0002
0103
0010
2000
3100
,
0020
0031
0100
0002
0103
0010
2000
3010
,
0200
0301
0010
2000
3100
0010
0002
1003
,
0020
0000
0230
0020
0330
0000
0MM0
0000
,
1001
0000
2000
0002
3003
0000
M00M
0000
,
0110
0000
0001
1000
0001
0100
0001
0010
,
0001
0000
1000
0000
0001
0000
0010
0000
0100
1000
0001
0010
0100
0000
0010
0000
,
0100
0000
1000
0000
0010
0100
0001
0000
0100
0000
0010
0000
1000
0100
0010
0000
,
0001
0000
0010
0000
0100
1000
0001
0000
0100
0000
0010
0000
1000
0001
0100
0000
,
0010
0000
1000
0000
0100
0010
0001
0000
0010
0000
0100
0000
1000
0001
0100
0000
,
0010
0000
1000
0000
0001
0100
0010
0000
1000
0000
0001
0000
0101
0000
0100
0000
,
0001
0100
0010
1000
0010
1000
0010
0100
,
0001
0100
0010
1000
0100
0010
0110
0010
,
0001
0100
0010
1000
0001
0010
0011
0100
,
1000
0000
0001
0000
0100
0000
0010
0000
0001
0100
0010
1000
0001
0000
0100
0000
,
0010
0000
1000
0000
0001
0100
0001
0000
1000
0000
0010
0000
0100
0010
0100
0000
,
0001
0000
0100
0000
0010
0100
0010
0000
1000
0000
0100
0000
0010
0001
0010
0000
,
0100
0000
1000
0000
0001
1000
0001
0000
0100
0000
0010
0000
1000
0010
1000
0000
,
0001
0000
0100
0000
0001
0100
0001
0000
1000
0000
0010
0000
1000
0100
0010
0000
,
0100
1000
0010
0100
0011
0100
1000
0004
,
0000
0000
1003
0000
0010
0000
0100
0001
0100
0000
0010
1000
0010
0000
0100
0001
,
0100
0010
1010
0100
0001
0100
0101
0040
,
0000
0000
1030
0000
0010
0000
1000
0001
0100
0000
0010
1000
0001
0000
0100
0010
,
1000
0100
0110
0010
0001
0100
0101
4000
,
0000
0000
3001
0000
1000
0000
0001
0100
0001
0000
1000
0010
1000
0000
0001
0100
,
0010
1000
0110
0001
0100
0001
0101
0040
,
0000
0000
0130
0000
1000
0000
0001
0100
0010
0000
1000
0001
0100
0000
0010
1000
,
0001
0100
0101
0010
1000
0010
1010
0400
,
0000
0000
0301
0000
0010
0000
0100
1000
0001
0000
0100
0010
1000
0000
0001
0010
,
0100
1000
1010
0100
0001
0010
1100
0040
,
0000
0000
0031
0000
0100
0000
0010
1000
0010
0000
0100
0001
1000
0000
0010
0100
,
0001
1000
1010
0100
0001
0100
0101
0040
,
0000
0000
0130
0000
1000
0000
0001
0100
0010
0000
1000
0001
0100
0000
0010
1000
,
0001
0100
0110
0010
1000
0010
0100
0004
,
0000
0000
1003
0010
0100
0000
0001
0100
0010
0000
1000
0000
0100
0000
0010
0000
,
1001
1000
0100
1000
0110
0001
0100
0010
,
1010
0100
0001
0100
1100
0010
0001
0100
,
1010
1000
1010
0010
0110
0100
0001
0100
,
0110
0000
0010
0000
1000
0000
0010
0000
0100
0001
0100
0001
0010
0000
0100
0000
,
1000
0100
0010
0001
1000
0010
0100
0001
1000
0010
0100
0001
0010
0100
1000
0100
,
0010
0001
1000
0010
0100
0001
0010
0100
0010
0001
1000
0100
0010
0001
1000
0010
,
0100
0001
0010
0100
0010
0001
1000
0010
0100
0001
0010
0100
1000
0100
0010
0001
,
1000
0100
0010
0001
1000
0010
0100
0010
1000
0100
0010
0001
1000
0010
0100
0001
,
1000
0010
0100
0002
0013
0100
0020
0032
,
0023
0230
1300
0010
0200
0301
0020
0130
,
1000
0002
2003
3010
2000
3010
2000
3001
,
0020
0130
2000
3020
1030
0001
0100
0002
,
0203
0301
2000
3200
0310
0001
0200
0302
,
2003
3010
0200
0302
0103
0010
2000
3020
,
0230
0310
2000
3020
0130
0020
0130
0002
,
0103
0002
1003
0010
1000
0001
1000
0000
,
1001
0000
1000
0000
0001
0100
0010
0000
1010
0000
1000
0000
0001
0100
0001
0000
,
0110
0000
0100
0000
0010
1000
0010
0000
0200
0000
0302
0000
0203
0000
0301
0000
,
0101
0000
0010
0000
1000
0010
1000
0000
1010
0000
0100
0000
0001
0010
0001
0000
,
1000
0000
0100
0000
0010
0001
0100
0000
0010
0000
1000
0000
0001
0010
0100
1000
,
0001
1000
0100
0010
0011
0001
0001
0020
,
0000
0130
1000
0001
0100
0010
1010
0100
,
0010
0002
0203
0310
2000
3001
2000
3200
,
0000
0310
0011
0001
1000
0010
1010
1000
,
0010
0200
0302
0103
0020
1030
0002
4003
,
0000
0000
3001
0000
0010
0000
0100
1000
0001
0000
0100
0010
1000
0000
0001
0010
,
0100
1000
0001
0100
0010
1000
0010
0400
,
0000
0000
0301
0000
0010
0000
0100
1000
0001
0000
0100
0010
1000
0000
0100
0000
,
0010
0001
0100
0010
1000
0100
0010
0004
,
0000
0000
0103
0000
0010
0000
1000
0100
1000
0000
0001
0010
0100
0000
1000
0001
,
0100
0010
1000
0100
0010
0100
1000
0004
,
0000
0000
0103
0000
0010
0000
1000
0100
1000
0000
0001
0010
0100
0000
1000
0001
,
0100
0000
0010
0000
1000
0000
0001
0010
0001
0000
0100
0000
0010
0000
0220
0000
,
0000
0000
0330
0000
1000
0001
1000
0000
0001
0100
0001
0000
1000
0010
1000
0000
,
0001
0100
0001
0000
1000
0010
1000
0000
0001
0100
0010
0000
1000
0001
0100
0000
,
0010
1000
0100
0000
0010
0001
0010
0000
0100
1000
0001
0000
0100
0010
1000
0000
,
0001
0000
0000
0000
0000
0000
0010
0000
0000
0000
0000
0000
0100
0000
0000
0000
0000
0000
1000
0000
0000
0000
0000
0000
0100
0000
0000
0000
0000
0000
0010
0000
0000
0000
0000
0000
0001
0000
0000
0000
0000
0100
0000
0000
0000
0000
0000
0000
,
0000
0000
0000
0000
0010
1000
0010
0000
0100
0001
0100
0000
0010
1000
0010
0000
,
0100
0001
0010
0000
0100
1000
0001
0000
0100
0010
0100
0000
0001
0010
0100
0000
,
1000
0001
1000
0000
0010
0100
0001
0000
1000
0100
0010
0000
0001
1000
0100
0000
,
0010
0001
0100
0010
1000
0010
0100
0020
,
0000
0000
0030
0000
0100
0001
0100
0000
0010
0001
0010
0000
0100
1000
0001
0000
,
0100
0010
1000
0000
0001
0010
0100
0000
1000
0001
0100
0000
0010
1000
0100
0000
,
0010
0001
0010
0000
0100
1000
0001
0000
0100
0010
1000
0000
0100
0010
0001
0000
,
1000
0000
0000
0000
0000
0000
0000
0000
0000
0000
0000
0000
0000
0000
0000
0000
0000
0000
0000
0000
0000
0000
0000
0000
0100
0000
0000
0000
0000
0000
0000
0000
0000
0000
0000
0000
0000
0000
0000
0000
0000
0000
0000
0000
0000
0000
0000
0000
0010
0000
0000
0000
0000
0000
0000
0000
0000
0000
0000
0000
0000
0000
0000
0000
0000
0000
0000
0000
0000
0000
0000
0000
0001
0000
0000
0000
0000
0000
0000
0000
0000
0000
0000
0000
0000
0000
0000
0000
0000
0000
0000
0000
0000
0000
0000
0000
0010
0000
0000
0000
0000
0000
0000
0000
0000
0000
0000
0000
0000
0000
0000
0000
0000
0000
0000
0000
0000
0000
0000
0000
0100
0000
0000
0000
0000
0000
0000
0000
0000
0000
0000
0000
0000
0000
0000
0000
0000
0000
0000
0000
0000
0000
0000
0000
0010
0000
0000
0000
0000
0000
0000
0000
0000
0000
0000
0000
0000
0000
0000
0000
0000
0000
0000
0000
0000
0000
0000
0000
0000
0100
0000
0000
0000
0000
0000
0000
0000
0000
0000
0000
0000
0000
0000
0000
0000
0000
0000
0000
0000
0000
0000
0000
,
0000
0000
0000
0000
0001
1000
0001
0000
1000
0100
0010
0000
0001
0010
0100
0000
,
1000
0001
0100
0000
0010
1000
0001
0000
0010
0100
1000
0000
0001
0100
0010
0000
,
1000
0001
0010
0000
0100
0010
0001
0000
0100
0010
1000
0000
0001
0100
0010
0000
,
0100
0001
0010
0100
1000
0100
0010
0001
,
0000
0000
1001
0000
1000
1000
0000
M010
,
0000
10M0
0000
M010
0010
0000
01M0
0100
,
0000
0M01
0001
0000
100M
1000
0000
M110
,
0000
M1M1
0000
0M01
0001
0000
100M
1000
,
0000
M010
0010
0000
01M0
0100
0000
M1M1
,
0000
1M1M
0000
1000
1000
0000
M001
0001
,
0000
100M
1000
0000
M001
0001
0000
M11M
,
0010
0100
1000
0001
0100
0010
1000
0010
,
1001
0000
M0M4
0400
0000
0000
M0M0
0000
,
0000
M0M0
0000
M3M3
,
0000
0000
4M0M
0040
0000
0000
0M0M
0000
,
0000
0000
0M0M
0000
0000
0000
0M0M
3030
,
0000
0000
00M4
1000
0000
0100
00M0
1000
,
0000
0010
M000
0100
0000
1000
00M0
0003
,
0000
0000
1010
0000
0010
0010
0000
1010
,
1000
0001
0100
0010
1000
0100
0010
0000
,
0001
0100
0010
1000
0001
0010
0100
1000
0001
0100
0010
1000
0001
0010
0100
1000
,
0001
0100
0010
1000
0100
0010
0100
1000
0001
0100
0010
1000
0100
0010
0100
1000
,
0001
0010
0100
1000
0001
0100
0010
1000
0100
0010
0100
1000
0001
0010
0100
1000
,
0001
0100
0010
1000
0100
0010
0100
1000
0001
0010
0100
1000
0001
0100
0010
0100
,
0001
0010
0100
1000
0001
0100
0010
1000
0001
1000
0100
1000
0001
0100
0001
1000
,
0010
0100
0001
1000
0100
0010
0100
1000
0001
0010
0100
1000
0001
0100
0010
1000
,
0001
0010
0100
1000
0001
0100
0010
1000
0100
0010
0100
1000
0001
0010
0100
0010
,
0001
0100
0010
1000
0001
0010
0100
1000
0001
0100
0010
1000
0001
0010
0100
1000
,
0001
0100
0010
0100
0001
0010
0100
1000
0001
0100
0010
1000
0001
0010
0100
1000
,
0100
0010
0001
0100
0010
0100
0001
0010
0100
1000
0001
0100
0010
1000
0100
0010
,
0001
0010
0100
1000
0001
0100
0010
1000
0001
0010
0100
1000
0001
0100
0010
0100
,
0001
0010
0100
1000
0001
0100
0010
1000
0100
0010
0001
0010
0100
1000
0001
0100
,
0010
0100
0001
0010
0100
1000
0001
0100
0010
1000
0100
0010
0001
0010
0100
1000
,
0001
0100
0010
1000
0001
0010
0100
1000
0001
0100
0010
1000
0001
1000
0400
0000
,
0000
0310
0001
4000
0000
3100
0001
0040
,
0000
0130
1000
0010
0000
0100
0001
1000
,
0001
1000
0100
0010
0001
1000
0100
0010
0100
1000
0010
0100
0001
1000
0010
0100
,
0001
0000
0000
0000
0000
0000
0000
0000
0000
0000
0000
0100
0000
0000
0000
0000
0000
0000
0000
0000
0000
0000
0000
0010
0000
0000
0000
0000
0000
0000
0000
0000
0000
0000
0000
0000
1000
0000
0000
0000
0000
0000
0100
0000
0000
0000
0000
0000
0010
0000
0000
0000
0000
0000
0001
0000
0000
0000
0000
0000
0010
0000
0000
0000
0000
0000
0000
0000
0000
0000
0000
0000
0100
0000
0000
0000
0000
0000
0000
0000
0000
0000
0000
0000
0000
0000
0000
1000
0000
0000
0000
0000
0000
0000
0000
0000
0000
0010
0000
0000
0000
0000
0000
0000
0000
0000
0000
0000
0100
0000
0000
0000
0000
0000
0000
0000
0000
0000
0000
0000
0001
0000
0000
0000
0000
0000
0000
0000
0000
0100
0000
0000
0010
0000
0000
0000
0000
0000
0000
0000
0000
0000
0000
0000
1000
0000
0000
0000
0000
0000
0000
0000
0000
0000
0000
0001
0000
0000
0000
0000
0000
0000
0000
0000
0000
0000
0010
0000
0000
0000
0000
0000
0000
0000
0000
0000
0100
0000
0000
0000
0000
0000
0000
0000
1000
0000
0000
0000
0000
0000
0000
0000
,
0001
0001
0100
0010
1000
0010
0100
0010
,
1000
0001
0100
0001
0010
0100
1000
0100
,
0010
0001
0100
0001
1000
0010
0100
0010
,
1000
0010
0100
0001
0010
0100
1000
0100
,
0010
0001
0100
0010
1000
0010
0100
0001
,
0100
0010
1000
0001
0010
0100
1000
0001
,
0100
0010
1000
0100
0010
0001
0010
0100
,
1000
0000
1000
0000
0010
0000
0010
0000
0100
0001
0100
0000
0010
0000
1000
0001
,
1000
0010
0100
0010
1000
0010
0100
0001
,
1000
0001
0000
0010
0100
1000
0100
0010
,
0001
0100
0010
1000
0010
0100
0010
1000
,
0010
0100
0001
0010
0100
1000
0100
0010
,
0001
1000
0001
0100
0001
1000
0010
0100
,
0010
1000
0010
0100
0001
1000
0001
1000
,
0010
0100
0001
0010
0100
1000
0100
0010
,
0001
0100
0010
1000
0001
0010
0100
1000
0001
0000
1000
0100
0010
0000
0001
0010
,
0001
0000
0100
0000
0010
0000
1000
0000
0001
0000
0100
0000
0010
0000
0000
0000
1000
0000
0000
0000
0010
0000
0000
0000
0100
0000
0000
0001
0000
0000
0100
0000
0010
0000
1000
0000
0010
0000
0000
0000
0100
0000
0000
0000
0001
0000
0000
0000
,
1000
0010
0100
0001
1000
0010
1000
0100
0010
0001
1000
0010
,
0100
0000
0000
0000
0000
0000
0000
0000
0001
0000
0000
0000
0000
0000
0000
0000
0100
0000
0000
0000
0000
0000
0000
0000
0000
0000
0000
0000
0000
0000
0000
0000
0010
0000
0000
0000
0000
0000
0000
0000
0000
0000
0000
0000
0000
0000
0000
0000
1000
0000
0000
0000
0000
0000
0000
0000
0000
0000
0000
0000
0000
0000
0000
0000
0001
0000
0000
0000
0000
0000
0000
0000
0000
0000
0000
0000
0000
0000
0000
0000
0010
0000
0000
0000
0000
0000
0000
0000
0000
0000
0000
0000
0000
0000
0000
0000
0100
0000
0000
0000
0000
0000
0000
0000
0000
0000
0000
0000
1000
0000
0000
0000
0000
0000
0000
0000
0000
0000
0000
0000
0000
0000
0000
0000
0000
0000
0100
0000
0000
0000
0000
0000
0000
0000
0000
0000
0000
0000
0000
0000
0000
0000
0000
0000
0010
0000
0000
0000
0000
0000
0000
0000
0000
0000
0000
0000
0001
0000
0000
0000
0000
0000
0000
0000
0000
0000
0000
0000
0000
0000
0000
0000
0000
0000
0100
0000
0000
0000
0000
0000
0000
0000
0000
0000
0000
0000
0000
0000
0000
0000
0000
0000
,
0010
1000
0010
0100
0001
0100
0010
1000
0001
0100
0010
1000
,
0020
0000
0000
0000
0000
0000
0000
0000
0000
0000
0000
0000
0000
0000
0000
0000
0000
0000
0000
0000
0000
0000
0000
0000
0000
0000
0000
0000
0000
0000
0000
0000
0000
0000
0000
0000
0000
0000
0000
0000
0000
0000
0000
0000
0000
0000
0000
0000
0000
0000
0000
0000
0000
0000
0000
0000
0000
0000
0000
0000
0000
0000
0000
0000
0030
0000
0000
0000
0000
0000
0000
0000
2000
0000
0000
0000
0000
0000
0000
0000
0000
0000
0000
0000
0000
0000
0000
0000
0000
0000
0000
0000
0000
0000
0000
0000
0000
0000
0000
0000
0000
0000
0000
0000
0000
0000
0000
0000
0000
0000
0000
0000
0000
0000
0000
0000
0000
0000
0000
0000
0000
0000
0000
0000
0000
0000
0000
0000
0000
0000
0000
0000
0000
0000
0000
0000
0000
0000
0000
0000
0000
3000
0000
0000
0000
0000
0000
0100
0000
0000
0000
0000
0000
0000
0000
0000
0000
0000
0000
0000
0000
0000
0000
0000
0000
0000
0000
0000
1000
0000
0000
0000
0000
0000
0000
0000
0000
0000
0000
0000
0000
0000
0000
0000
0000
0000
0000
0000
0000
0000
0000
0000
,
0020
0000
0000
0000
0000
0000
0000
0000
0000
0000
0000
0000
0000
0000
0000
0000
0000
0000
0000
0000
0000
0000
0000
0000
0000
0000
0000
0000
0000
0000
0000
0000
0000
0000
0000
0000
0000
0000
0000
0000
0000
0000
0030
0000
0000
0000
0000
0000
2000
0000
0000
0000
0000
0000
0000
0000
0000
0000
0000
0000
0000
0000
0000
0000
0000
0000
0000
0000
0000
0000
0000
0000
0000
0000
0200
0000
0000
0000
0000
0000
3000
0000
0000
0000
0000
0000
0000
0000
0000
0000
0000
0000
0000
0000
0000
0000
0000
0000
0000
0000
0000
0000
0000
0000
0000
0000
0000
0000
0000
0000
0000
0000
0000
0000
0000
0000
0000
0000
0000
0000
0000
0000
0000
0000
0000
0000
0000
0000
0000
0000
0000
0000
0000
0000
0000
0000
0000
0000
0000
0000
0000
0000
0000
0000
0300
0000
0000
0000
1000
0000
0000
0000
0000
0000
0000
0000
0010
0000
0000
0000
0000
0000
0100
0000
0000
0000
0000
0000
0000
0000
0000
0000
0000
0000
0000
0000
0001
0000
0000
0000
0000
0000
0000
0000
0000
0000
0010
0000
0000
0000
0000
0000
,
0001
0000
0000
0000
0000
0000
0000
0000
0000
0000
0000
0000
0000
0000
0000
0000
0000
0000
0100
0000
0000
0000
0000
0000
0000
0000
0000
0000
0000
0000
0000
0000
0000
0000
0010
0000
0000
0000
0000
0000
0000
0000
0000
0000
0000
0000
0000
0000
0000
0000
0000
0000
0000
0000
0000
0000
0000
0000
0000
0000
0000
0000
0000
0000
0000
0000
0000
0000
0000
0000
0000
0000
0100
0000
0000
0000
0000
0000
0000
0000
0000
0000
0000
0000
0000
0000
0000
0000
0000
0000
0000
0000
0000
0000
0000
0000
0001
0000
0000
0000
0000
0000
0000
0000
0000
0000
0000
0000
0000
0000
0000
0000
0000
0000
0000
0000
0100
0000
0000
0000
0000
0000
0000
0000
0000
0000
0000
0000
0000
0000
0000
0000
0000
0000
0000
0000
0000
0000
0000
0000
0000
0000
0000
0000
0002
0000
0000
0000
0000
0000
0000
0000
0000
0000
0000
0000
0000
0000
0000
0000
0000
0000
0000
0000
0000
0000
0000
0000
0000
0000
0000
0000
0000
0000
0000
0000
0000
0000
0000
0000
0000
0000
0000
0000
0000
0000
0003
0000
0000
0000
0000
0000
,
0100
0000
0000
0000
0000
0000
0001
0000
0000
0000
0010
0100
1000
0000
0000
0100
0000
0000
0010
0000
0000
0100
0000
0000
1000
0000
0000
0001
0000
0000
0010
0000
0000
0100
0000
0000
1000
0000
0000
0001
0000
0000
0010
0000
0000
0100
0000
0000
,
1000
0100
0010
0001
0010
0100
1000
0001
0100
0010
1000
0100
0010
0001
0010
0100
1000
0001
0100
0010
1000
0100
0010
0001
,
1000
0010
0100
0001
1000
0000
0001
0100
0010
1000
0040
0000
0130
0001
0400
0000
,
0310
0000
1000
0000
0001
0000
0100
0000
0010
0000
1000
0000
0100
0000
0010
0000
0001
0000
0010
0000
0100
0000
1000
0000
0001
0000
0100
0000
0010
0000
1000
0000
0001
0000
0100
0000
0010
0000
0000
1000
0000
0000
0001
0000
0000
0100
0000
0000
,
0010
0000
0000
1000
0000
0000
0100
0000
0000
0020
0000
0000
0000
0000
0000
0031
0100
0010
1000
0000
0000
0000
0000
0000
,
0001
0000
0000
0000
0000
0000
0000
0000
0100
0000
0000
0000
0000
0000
0000
0000
0010
0000
0000
0000
0000
0000
0000
0000
1000
0000
0000
0000
0000
0000
0000
0000
0000
0000
0000
0000
0000
0000
0000
0000
0000
0000
0000
0000
0000
0000
0000
0000
0100
0000
0000
0000
0000
0000
0000
0000
0000
0000
0000
0000
0000
0000
0000
0000
0000
0000
0000
0000
0001
0000
0000
0000
0000
0000
0000
0000
0000
0000
1000
0000
0000
0000
0000
0000
0000
0000
0000
0000
0000
0000
0000
0000
0000
0000
0000
0000
0001
0000
0000
0000
0000
0000
0000
0000
0000
0000
0000
0000
0010
0000
0000
0000
0000
0000
0000
0000
0000
0000
0000
0000
0100
0000
0000
0000
0000
0000
0000
0000
0000
0000
0000
0000
0000
0000
0000
0000
0000
0000
0000
0000
0000
0000
0000
0000
1000
0000
0000
0000
0000
0000
0000
0000
0100
0000
0000
0000
0000
0000
0000
0000
0010
0000
0000
0000
0000
0000
0000
0000
0001
0000
0000
0000
0000
0000
0000
0000
0010
0000
0000
0000
0000
0000
0000
0000
0100
0000
0000
0000
0000
0000
0000
0000
,
1000
0000
0000
0000
0000
0000
0000
0000
0000
0000
0000
0000
0000
0000
0000
0000
0000
0000
0000
0000
0000
0000
0001
0000
0000
0000
0000
0000
0000
0000
0000
0000
0000
0000
0000
0000
0000
0000
0100
0000
0000
0000
0000
0000
0000
0000
0000
0000
0001
0000
0000
0000
0000
0000
0000
0000
0000
0000
0000
0000
0010
0000
0000
0000
0000
0000
0000
0000
0000
0000
0000
0000
0100
0000
0000
0000
0000
0000
0000
0000
0000
0000
0000
0000
0000
0000
0000
0000
0000
0000
0000
0000
0000
0000
0000
0000
1000
0000
0000
0000
0000
0000
0000
0000
0000
0000
0000
0000
0100
0000
0000
0000
0000
0000
0000
0000
0000
0000
0000
0000
0010
0000
0000
0000
0000
0000
0000
0000
0000
0000
0000
0000
0001
0000
0000
0000
0000
0000
0000
0000
0000
0000
0000
0000
0010
0000
0000
0000
0000
0000
0000
0000
0000
0000
0000
0000
0100
0000
0000
0000
0000
0000
0000
0000
0000
0000
0000
0000
0010
0000
0000
0000
0000
0000
0000
0000
0000
0000
0000
0000
0100
0000
0000
0000
0000
0000
0000
0000
0000
0000
0000
0000
,
1000
0000
0000
0000
0000
0000
0000
0000
0000
0000
0000
0000
0000
0000
0000
0000
0000
0000
0000
0000
0000
0000
0000
0000
0000
0000
0000
0000
0000
0000
0000
0000
0000
0000
0000
0000
0000
0000
0000
0000
0000
0000
0000
0000
0000
0000
0000
0000
0000
0000
0100
0000
0000
0000
0000
0000
0000
0000
0000
0000
0000
0000
0000
0000
0000
0000
0000
0000
0000
0000
0000
0000
0000
0000
0000
0000
0000
0000
0000
0000
0000
0000
0000
0000
0000
0000
0000
0000
0000
0000
0000
0000
1000
0000
0000
0000
0100
0000
0000
0000
0010
0000
0000
0000
0000
0000
0000
0000
0000
0000
0000
0000
0000
0000
0000
0000
0000
0000
0000
0000
0000
0000
0000
0000
0000
0000
0000
0000
0000
0000
0000
0000
0000
0000
0000
0000
0000
0000
0000
0000
0000
0000
0000
0000
0001
0000
0000
0000
0000
0000
0000
0000
0000
0000
0000
0000
0000
0000
0000
0000
0000
0000
0000
0000
0000
0000
0000
0000
0000
0000
0000
0000
0000
0000
0000
0000
0000
0000
0000
0000
0000
0000
0000
0000
0000
0000
0000
0000
0000
0000
0000
0000
,
0100
0000
0000
0000
0000
0000
0000
0000
0000
0000
0000
0000
0000
0000
0000
0000
0000
0000
0010
0000
0000
0000
0000
0000
0000
0000
0000
0000
0000
0000
0000
0000
0000
0000
0000
0000
0000
0000
0000
0000
0000
0000
0000
0000
0000
0000
0000
0000
1000
0000
0000
0000
0000
0000
0000
0000
0000
0000
0000
0000
0000
0000
0000
0000
0000
0000
0000
0000
0000
0000
0000
0010
0000
0000
0000
0000
0000
0000
0000
0000
0000
0000
0000
0000
0000
0000
0000
0000
0000
0000
0000
0000
0000
0000
0000
0000
0200
0000
0000
0000
0000
0000
0000
0000
0000
0000
0000
0000
0000
0000
0000
0000
0000
0000
0000
0000
0000
0000
0000
0000
0000
0000
0000
0000
0000
0000
0000
0000
0000
0000
0000
0000
0000
0000
0000
0000
0000
0000
0000
0000
0000
0000
0000
0000
0000
0000
0000
0000
0000
0000
0000
0000
0000
0000
0000
0000
0000
0000
0000
0000
0000
0000
0000
0000
0000
0000
0000
0000
0000
0000
0000
0000
0000
0000
0000
0000
0000
0000
0000
0000
0000
0000
0000
0000
0000
0000
0000
0000
0000
0000
0000
0000
,
0301
0100
0010
1000
0001
0100
0010
1000
0100
0010
0001
0010
0100
1000
0001
0100
,
0010
1000
0100
0010
0001
0010
0100
1000
0001
0100
0010
1000
0001
0010
0100
1000
,
0001
0100
0010
1000
0100
0010
0001
0010
0100
1000
0001
0100
0010
1000
0001
0010
,
0100
1000
0001
0100
0010
1000
0100
0010
0100
1000
0001
0100
0010
1000
0001
0100
,
0010
1000
0001
0100
0010
1000
0100
0010
0100
1000
0001
0010
0100
1000
0001
0100
,
0010
1000
0001
0100
0010
1000
0100
0010
0001
0100
0010
1000
0001
0010
0100
1000
,
0010
0100
0010
1000
0001
0100
0010
1000
0001
0010
0100
1000
0001
0100
0010
0100
,
0001
0010
0100
1000
0001
0100
0010
1000
0001
0010
0100
1000
0001
0100
0010
0100
,
0001
0010
0100
1000
0001
0100
0010
0100
0001
0010
0100
0010
0001
1000
0010
0100
,
0001
1000
0100
0010
0001
0010
0100
1000
0001
0100
0010
0100
0001
0010
0100
1000
,
0001
0100
0010
0100
0001
0010
0100
1000
0001
0100
0010
1000
0100
0010
0100
1000
,
0001
0010
0100
1000
0001
0100
0010
0100
0001
1000
0100
0010
0100
1000
0001
0100
,
0010
1000
0100
1000
0001
0010
0100
1000
0001
0100
0010
1000
0100
0010
0100
1000
,
0001
0010
0100
1000
0001
0100
0010
0100
0001
0100
0010
0100
0001
1000
0010
0100
,
0010
1000
0010
0100
0001
1000
0010
0100
0001
0100
0010
0100
0001
1000
0010
0100
,
0001
1000
0100
0010
0100
1000
0001
0010
0100
1000
0001
1000
0100
0000
0010
0000
,
0001
0100
0010
1000
0001
0010
0100
1000
,
0001
0100
0010
1000
0100
0010
0001
0000
,
1001
0000
1000
0100
2000
0000
3001
0100
,
0002
0000
0103
0010
1000
0001
0100
0010
,
1100
0000
0001
0100
0101
0000
1000
0100
,
1010
0000
1000
0001
1001
0000
0100
0000
,
0001
1000
0010
0100
0001
1000
0100
0010
0100
1000
0001
0010
0100
1000
0001
0100
,
0010
1000
0100
0010
0001
0010
0100
1000
0001
0100
0010
1000
0100
0000
0010
0000
,
0010
0000
0001
0000
0100
0010
1000
0000
0010
0000
0100
0000
0001
0100
0001
0000
,
1000
0000
0100
0000
0010
0001
0010
0000
0100
0000
1000
0000
0001
1000
0001
0000
,
0100
0000
0010
0000
1000
0100
1000
0000
0001
0000
0010
0000
0100
1000
0100
0000
,
0010
0000
0001
0000
0100
0010
0100
0000
0001
0000
1000
0000
0010
0100
0010
0000
,
0100
0000
0001
0000
0100
0010
0100
0000
0001
0000
0010
0000
0100
1000
0100
0000
,
0010
0000
0001
0000
0100
0010
0100
0000
0001
0000
1000
0000
0100
0010
0100
0000
,
1000
0000
0001
0000
0100
0010
0100
0000
0001
0000
1000
0000
0100
0010
0001
0000
,
0010
0000
0100
0000
1000
0000
0001
0000
1000
0100
0010
0000
0001
0000
0010
0000
,
0011
0000
0010
0000
0001
0100
0010
1000
0001
0010
0100
1000
0001
0100
0010
1000
,
0100
0010
0100
1000
0001
0100
0010
1000
0001
0100
0010
1000
0001
0000
0100
0000
,
0001
0000
0010
0100
1000
0001
0100
0010
1000
0100
0010
0001
0100
0010
0100
0000
,
1001
0000
1000
0001
0100
0010
1000
0100
0010
0001
0010
0100
1000
0001
0100
0010
,
1000
0000
0010
0000
1000
0100
0010
0001
0010
0100
1000
0001
0100
0010
1000
0100
,
0010
0100
1000
0001
0100
0010
1000
0001
0010
0100
1000
0100
0010
0000
0000
0000
,
1001
0000
1000
0001
0100
0010
1000
0100
0010
0100
1000
0001
0010
0100
1000
0001
,
0100
0010
1000
0100
0010
0001
0010
0100
1000
0001
0100
0010
0100
0001
1000
0001
,
0100
0010
1000
0001
1000
0010
1000
0100
1000
0001
1000
0010
0100
0001
1000
0100
,
1000
0001
1000
0100
1000
0001
1000
0010
1000
0100
0010
0001
1000
0100
0010
0100
,
1000
0001
0010
0100
1000
0001
0100
0010
1000
0001
0100
0010
1000
0100
0010
0100
,
1000
0001
0010
0100
1000
0001
0100
0010
0100
0001
0010
0100
1000
0001
0100
0010
,
1000
0100
0010
0001
0010
0100
0010
0001
1000
0001
0100
0010
1000
0001
0100
0010
,
0100
0001
1000
0001
0100
0010
1000
0001
0010
0001
1000
0100
0010
0100
1000
0001
,
0100
0010
0100
0001
1000
0100
0010
0001
0100
0001
1000
0010
0100
0001
1000
0100
,
0010
0001
0010
0100
1000
0001
0010
0100
1000
0001
0100
0010
1000
0100
0010
0001
,
1000
0000
0000
0000
;
