#TITLE:Pull Harder On The Strings Of Your Martyr;
#SUBTITLE:Ascendancy (2005);
#ARTIST:Trivium;
#TITLETRANSLIT:;
#SUBTITLETRANSLIT:;
#ARTISTTRANSLIT:;
#CREDIT:;
#BANNER:PHOTSOYM-banner.jpg;
#BACKGROUND:PHOTSOYM-bg.jpg;
#LYRICSPATH:;
#CDTITLE:!cdtitle.png;
#MUSIC:Trivium- Pull Harder On The Strings Of Your Martyr.mp3;
#OFFSET:-0.275;
#SAMPLESTART:100.000;
#SAMPLELENGTH:12.000;
#SELECTABLE:YES;
#BPMS:0.000=146.000,16.000=144.900,240.000=145.300,304.000=145.100,368.000=126.800,377.000=128.300,385.000=118.600,400.000=120.300,449.000=119.600,512.250=174.040,513.000=145.200,529.000=144.700,577.000=145.300,641.000=144.700;
#STOPS:;
#BGCHANGES:;
// cache tags:
#FIRSTBEAT:0.000;
#LASTBEAT:669.000;
#SONGFILENAME:Songs/Astronomic Metal Collection/Pull Harder On The Strings Of Your Martyr (Alioth)/Trivium- Pull Harder On The Strings Of Your Martyr.sm;
#HASMUSIC:1;
#HASBANNER:1;
#MUSICLENGTH:291.874;
// end cache tags

//---------------dance-single - ----------------
#NOTES:
     dance-single:
     :
     Challenge:
     14:
     1.000,1.000,1.000,1.000,1.000,1880.000,738.000,556.000,0.000,480.000:
0011
0000
0010
0000
0100
0000
0010
0000
1100
0000
0100
0000
0100
0010
0100
0000
0100
0000
0010
0000
0010
0000
0010
0000
0011
0000
0100
0000
0010
0000
0100
0000
,
0011
0000
0010
0000
0100
0000
0010
0000
1100
0000
0100
0000
0100
0010
0100
0000
0100
0000
0010
0000
0010
0000
0010
0000
0011
0000
0100
0000
0010
0000
0100
0000
,
0011
0000
0010
0000
0100
0000
0010
0000
1100
0000
0100
0000
0100
0010
0100
0000
0100
0000
0010
0000
0010
0000
0010
0000
0011
0000
0100
0000
0010
0000
0100
0000
,
0011
0000
0010
0000
0100
0000
0010
0000
1100
0000
0100
0000
0100
0010
0100
0000
0100
0000
0010
0000
0010
0000
0010
0000
0100
0000
0100
0000
0100
0000
0100
0000
,
1110
0000
0001
0001
0001
0000
0001
0001
0001
0000
0001
0001
0001
0000
1110
0000
,
1011
0000
0001
0001
0001
0000
0001
0001
0001
0000
0001
0001
0001
0000
1110
0000
,
1101
0000
0001
0001
0010
0100
0010
0100
0010
0100
0010
0100
0010
0100
1110
0000
,
1011
0000
0010
0010
0100
1000
0100
1000
0100
1000
0100
1000
0100
1000
0011
0000
,
1110
0000
0001
0001
0001
0000
0001
0001
0001
0000
0001
0001
0001
0000
1110
0000
,
1011
0000
0001
0001
0001
0000
0001
0001
0001
0000
0001
0001
0001
0000
1110
0000
,
1101
0000
0001
0001
0010
0100
0010
0100
0010
0100
0010
0100
0010
0100
1110
0000
,
1011
0000
0010
0010
0101
1000
0101
1001
0101
1000
0101
1001
0101
1000
0101
1001
,
2202
3303
0000
0000
2022
3033
0021
0000
0031
0000
0220
0330
1022
0033
2020
0000
,
3031
0000
0000
0000
0000
0000
0000
0000
0000
0000
0000
0000
1100
0000
0000
0000
0000
0000
0000
0000
0000
0000
0000
0000
0001
0000
0000
0000
0000
0000
0000
0000
0000
0000
0000
0000
1100
0000
0000
0000
0000
0000
0000
0000
0000
0000
0000
0020
,
2232
3303
0000
0000
2022
3033
0021
0000
0031
0000
2200
3300
2201
3300
2020
3030
,
0001
0000
0000
0000
0000
0000
2200
0000
0000
3300
0000
0000
2210
0000
0000
3300
0000
0000
2200
0000
0000
3300
0000
0000
0001
0000
0000
0000
0000
0000
0000
0000
0000
0000
0000
0000
1100
0000
0000
0000
0000
0000
0000
0000
0000
0000
0000
0020
,
2232
3303
0000
0000
2022
3033
0022
0033
0001
0000
0220
0330
2022
3033
2020
3030
,
0001
0000
0000
0000
0000
0000
0000
0000
0000
0000
0000
0000
1100
0000
0000
0000
0000
0000
0000
0000
0000
0000
0000
0000
0001
0000
0000
0000
0000
0000
0000
0000
0000
0000
0000
0000
1100
0000
0000
0000
0000
0000
0000
0000
0000
0000
0000
0020
,
2232
3303
0000
0000
2022
3033
0022
0003
0031
0000
2200
3300
2201
3300
2020
3030
,
0000
0000
1000
0100
1100
0100
0100
0000
0110
0010
0010
0000
0110
0100
0100
0100
,
1110
0000
0001
0001
2001
0000
3001
0001
2001
0000
0001
0001
3001
0000
1110
0000
,
1011
0000
0001
0001
2001
0000
3201
0001
2301
0000
0001
0001
3001
0000
1110
0000
,
1101
0000
0001
0001
2010
0100
3010
0100
2010
0100
0010
0100
3010
0100
1110
0000
,
1011
0000
0010
0010
0102
1000
0123
1000
0132
1000
0100
1000
0103
1000
0011
0000
,
1110
0000
0001
0001
2001
0000
3001
0001
2001
0000
0001
0001
3001
0000
1110
0000
,
1011
0000
0001
0001
2001
0000
3201
0001
2301
0000
0001
0001
3001
0000
1110
0000
,
1101
0000
0001
0001
2010
0100
3010
0100
2010
0100
0010
0100
3010
0100
1110
0000
,
1011
0000
0010
0010
0102
1000
0123
1000
0132
1000
0100
1000
0103
1000
0011
0000
,
1110
0000
1101
0000
1110
0000
1110
0000
1202
0300
0200
0300
0200
0303
0210
0300
,
1110
0000
1101
0010
1110
0000
0020
0030
1022
0030
0020
0030
0020
0033
0120
0030
,
1110
0000
1101
0000
1110
0000
1110
0000
1202
0300
0200
0300
0200
0303
0210
0300
,
1110
0000
0000
0000
0000
0000
1101
0000
0010
0000
0001
0000
1110
0000
0000
0000
0000
0000
0120
0000
0000
0030
0000
0000
1022
0000
0000
0030
0000
0000
0020
0000
0000
0030
0000
0000
2020
0000
0000
3033
0000
0000
1011
0000
0000
0000
0000
0000
,
1111
0000
0111
0000
1111
0000
0200
0300
1202
0300
0200
0300
0200
0303
1011
0000
,
0111
0000
0000
0000
0000
0000
0111
0000
1000
0000
1000
0000
0111
0000
0000
0000
0000
0000
0020
0000
0000
0030
0000
0000
1022
0000
0000
0030
0000
0000
0023
0000
0000
0030
0000
0000
0022
0000
0000
0033
0000
0000
1011
0000
0000
0000
0000
0000
,
0111
0000
0111
1000
0111
0000
0200
0300
1202
0300
0200
0300
0200
0303
1011
0000
,
0111
0000
0000
0000
0000
0000
0111
0000
1000
0000
1000
0000
0111
0000
0000
0000
0000
0000
2000
0000
0000
3000
0000
0000
2102
0000
0000
3010
0000
0000
2100
0000
0000
3010
0000
0000
2100
0000
0000
3013
0000
0000
2100
0000
0000
3010
0000
0000
,
1110
0000
1101
0000
1110
0000
1110
0000
2202
0303
0202
0303
0202
3303
0212
0303
,
1110
0000
0000
0000
0000
0000
1101
0000
0010
0000
0001
0000
1110
0000
0000
0000
0000
0000
0022
0000
0000
0033
0000
0000
2022
0000
0000
0033
0000
0000
3022
0000
0000
0033
0000
0000
2022
0000
0000
0033
0000
0000
3122
0000
0000
0033
0000
0000
,
1110
0000
1101
0010
1110
0000
1110
0000
2202
0303
0202
0303
0202
3303
0212
0303
,
1110
0000
0000
0000
0000
0000
1101
0000
0010
0000
0001
0000
1110
0000
0000
0000
0000
0000
0022
0000
0000
0033
0000
0000
2022
0000
0000
0033
0000
0000
0022
0000
0000
3033
0000
0000
2022
0000
0000
3033
0000
0000
1011
0000
0000
0000
0000
0000
,
0111
0000
0111
0000
0111
0000
0202
0303
2202
0303
0202
0303
0202
3303
1011
0000
,
0111
0000
0000
0000
0000
0000
0111
0000
1000
0000
1000
0000
0111
0000
0000
0000
0000
0000
0022
0000
0000
0033
0000
0000
2022
0000
0000
0033
0000
0000
3222
0000
0000
0033
0000
0000
2322
0000
0000
3033
0000
0000
1011
0000
0000
0000
0000
0000
,
0111
0000
0111
1000
2111
0000
3121
0030
2111
0000
0022
0033
3222
0033
1311
0000
,
2111
0000
0111
0000
3121
0000
0202
0333
2212
0303
0212
0303
3212
0303
0000
0000
,
0111
0000
0101
1010
0000
0101
0000
1002
,
0000
0000
1203
0000
0321
0000
0030
0000
0001
0010
0100
0010
0001
1000
0010
0100
,
0101
0000
0101
0000
1101
0000
0101
0000
0101
0000
0101
0000
1101
0000
0101
0100
,
0011
0011
1011
0011
0110
0110
1111
1010
,
0111
0000
0101
1010
0000
0101
0000
1002
,
0000
0000
1203
0000
0321
0000
0030
0000
0001
0010
0100
0010
0001
1000
0010
0100
,
0101
0000
0101
0000
1101
0000
0101
0000
0101
0000
0101
0000
1101
0000
0101
0100
,
1000
1000
0001
1000
0100
0100
0100
0000
0010
0010
0010
0000
0100
0100
0100
0100
,
1110
0000
0001
0001
2001
0001
3001
0001
2001
0001
0001
0001
3001
0001
1110
0000
,
1011
0000
0001
0001
2001
0001
3001
0001
2001
0001
0001
0001
3001
0001
1110
0000
,
1101
0000
0001
0001
2010
0100
3010
0100
2010
0100
0010
0100
3010
0100
1110
0000
,
1011
0000
0012
0010
0123
1000
0130
1000
0102
1000
0100
1000
0103
1000
0011
0000
,
1110
0000
2001
0001
3201
0001
2301
0001
3021
0001
2031
0001
3001
0001
1110
0000
,
1011
0000
2001
0001
3201
0001
2301
0001
3021
0001
2031
0001
3001
0001
1110
0000
,
1101
0000
0001
0001
2010
0100
3010
0100
2010
0100
3010
0100
2010
3100
1110
0000
,
1012
0000
0013
0010
0102
1000
0103
1000
0102
1000
0103
1000
0102
1003
0011
0000
,
1110
0000
1101
0000
1110
0000
1110
0000
1202
0300
0200
0300
0200
0303
0210
0300
,
1110
0000
0000
0000
0000
0000
1101
0000
0010
0000
0001
0000
1110
0000
0000
0000
0000
0000
0020
0000
0000
0030
0000
0000
1022
0000
0000
0030
0000
0000
0020
0000
0000
0030
0000
0000
0020
0000
0000
0033
0000
0000
0120
0000
0000
0030
0000
0000
,
1110
0000
1101
0010
1110
0000
1110
0000
1202
0300
0200
0300
0200
0303
0210
0300
,
1110
0000
0000
0000
0000
0000
1101
0000
0010
0000
0001
0000
1110
0000
0000
0000
0000
0000
0120
0000
0000
0030
0000
0000
1022
0000
0000
0030
0000
0000
0020
0000
0000
0030
0000
0000
2020
0000
0000
3033
0000
0000
1011
0000
0000
0000
0000
0000
,
1111
0000
0111
0000
1111
0000
0200
0300
1202
0300
0200
0300
0200
0303
1011
0000
,
0111
0000
0000
0000
0000
0000
0111
0000
1000
0000
1000
0000
0111
0000
0000
0000
0000
0000
0020
0000
0000
0030
0000
0000
1022
0000
0000
0030
0000
0000
0023
0000
0000
0030
0000
0000
0022
0000
0000
0033
0000
0000
1011
0000
0000
0000
0000
0000
,
0111
0000
0111
1000
0111
0000
0200
0300
1202
0300
0200
0300
0200
0303
1011
0000
,
0111
0000
0000
0000
0000
0000
0111
0000
1000
0000
1000
0000
0111
0000
0000
0000
0000
0000
2000
0000
0000
3000
0000
0000
2102
0000
0000
3010
0000
0000
2100
0000
0000
3010
0000
0000
2100
0000
0000
3013
0000
0000
2100
0000
0000
3010
0000
0000
,
1110
0000
1101
0000
1110
0000
1110
0000
2202
0303
0202
0303
0202
3303
0212
0303
,
1110
0000
0000
0000
0000
0000
1101
0000
0010
0000
0001
0000
1110
0000
0000
0000
0000
0000
0022
0000
0000
0033
0000
0000
2022
0000
0000
0033
0000
0000
3022
0000
0000
0033
0000
0000
2022
0000
0000
0033
0000
0000
3122
0000
0000
0033
0000
0000
,
1110
0000
1101
0010
1110
0000
1110
0000
2202
0303
0202
0303
0202
3303
0212
0303
,
1110
0000
0000
0000
0000
0000
1101
0000
0010
0000
0001
0000
1110
0000
0000
0000
0000
0000
0022
0000
0000
0033
0000
0000
2022
0000
0000
0033
0000
0000
0022
0000
0000
3033
0000
0000
2022
0000
0000
3033
0000
0000
1011
0000
0000
0000
0000
0000
,
0111
0000
0111
0000
0111
0000
0202
0303
2202
0303
0202
0303
0202
3303
1011
0000
,
0111
0000
0000
0000
0000
0000
0111
0000
1000
0000
1000
0000
0111
0000
0000
0000
0000
0000
0022
0000
0000
0033
0000
0000
2022
0000
0000
0033
0000
0000
3222
0000
0000
0033
0000
0000
2322
0000
0000
3033
0000
0000
1011
0000
0000
0000
0000
0000
,
0111
0000
0111
1000
2111
0000
3121
0030
2111
0000
0022
0033
3222
0033
1311
0000
,
2111
0000
0000
0000
0000
0000
0000
0000
0000
0000
0000
0000
0000
0000
0000
0000
0000
0000
0000
0000
0000
0000
0000
0000
0111
0000
0000
0000
0000
0000
0000
0000
0000
0000
0000
0000
0000
0000
0000
0000
0000
0000
0000
0000
0000
0000
0000
0000
3121
0000
0000
0000
0000
0000
0000
0000
0000
0000
0000
0000
0000
0000
0000
0000
0000
0000
0000
0000
0000
0000
0000
0000
0202
0000
0000
0000
0000
0000
0000
0000
0000
0000
0000
0000
0333
0000
0000
0000
0000
0000
0000
0000
0000
0000
0000
0000
2212
0000
0000
0000
0000
0000
0000
0000
0000
0000
0000
0000
0303
0000
0000
0000
0000
0000
0000
0000
0000
0000
0000
0000
0212
0000
0000
0000
0000
0000
0000
0000
0000
0000
0000
0000
0303
0000
0000
0000
0000
0000
0000
0000
0000
0000
0000
0000
3212
0303
0000
0000
0000
0000
0000
0000
0000
0000
0000
0000
0000
0000
0000
0000
0000
0000
0000
0000
0000
0000
0000
0000
0000
0000
0000
0000
0000
0000
0000
0000
0000
0000
0000
0000
0000
0000
0000
0000
0000
0000
0000
0000
0000
0000
0000
0000
,
0111
0000
0101
1010
0000
0101
0000
1002
,
0000
0000
1203
0000
0321
0000
0030
0000
0001
0010
0100
0010
0001
1000
0010
0100
,
0101
0000
0101
0000
1101
0000
0101
0000
0101
0000
0101
0000
1101
0000
0101
0100
,
0011
0011
1011
0011
0110
0110
1111
1010
,
0111
0000
0101
1010
0000
0101
0000
1002
,
0000
0000
1203
0000
0321
0000
0030
0000
0001
0010
0100
0010
0001
1000
0010
0100
,
0101
0000
0101
0000
1101
0000
0101
0000
0101
0000
0101
0000
1101
0000
0101
0100
,
0001
0010
0001
0100
0010
1000
0100
1000
0010
0001
0100
0010
0100
0001
0010
1000
,
0111
0000
0101
1010
0000
0101
0000
1002
,
0000
0000
1203
0000
0321
0000
0030
0000
0001
0010
0100
0010
0001
1000
0010
0100
,
0101
0000
0101
0000
1101
0000
0101
0000
0101
0000
0101
0000
1101
0000
0101
0100
,
0011
0011
1011
0011
0110
0110
1111
1010
,
0111
0000
0101
1010
0000
0101
0000
1002
,
0000
0000
1203
0000
0321
0000
0030
0000
0001
0010
0100
0010
0001
1000
0010
0100
,
0101
0000
0101
0000
1101
0000
0101
0000
0101
0000
0101
0000
1101
0000
0101
0100
,
0001
0010
0001
0100
0010
1000
0100
1000
0010
0001
0100
0010
0100
0001
0010
1000
,
0111
0000
0010
0001
0001
0100
0001
0001
1000
0001
0001
0100
0001
0001
0010
1000
,
0000
0001
0010
0001
0001
0100
0001
0001
1000
0001
0220
0330
2020
3030
0220
0330
,
0202
0303
1101
0000
0001
0001
0010
0001
0001
0100
0001
0001
1000
0001
0001
0100
,
0001
1000
0000
0010
0001
0001
0010
0001
0001
0100
0001
0001
2110
0000
0000
0000
,
0000
0000
0000
0000
3111
0011
0010
0001
0111
0101
0001
0001
1011
0011
0001
0100
,
0001
0001
1000
0000
0001
0001
0111
0011
0001
0111
0011
0001
1110
0100
1011
0100
,
0111
1000
1101
0010
1101
0101
0010
0001
1101
0101
0001
0001
1101
1001
0001
0010
,
1101
0101
1000
0000
0001
0001
1101
0101
0001
1101
0101
0001
1110
0001
1011
0100
,
0111
1000
1101
0010
0111
0011
0010
0001
0111
0101
0001
0001
1011
0011
0001
0100
,
0001
0001
1000
0000
0001
0001
0111
0011
0001
0111
0011
0001
1110
0001
1011
0100
,
0111
0001
1101
0010
1101
0101
0010
0001
1101
0101
0001
0001
1101
1001
0001
0010
,
1101
0101
1000
0000
0001
0001
1101
0101
0001
1101
0101
0001
1110
0001
1011
0100
,
0111
1000
1101
0001
1011
0001
0010
0001
0001
0100
0001
0001
1000
0001
0001
0100
,
0001
0001
1000
0000
0001
0001
0010
0001
0001
0100
0001
0001
0220
0330
2020
3030
,
0220
0330
0202
0303
0001
0001
0010
0001
0001
0100
0001
0001
1000
0001
0001
0100
,
0001
0001
1000
0000
0001
0001
0010
0001
0001
0100
0001
0001
1000
1000
0100
0100
,
0010
0010
0100
0100
1011
0001
0010
0001
0001
0100
0001
0001
1000
0001
0001
0100
,
0001
0001
1000
0000
0001
0001
0010
0001
0001
0100
0001
0001
0220
0330
2020
3030
,
0220
0330
0202
0303
0001
0001
0010
0001
0001
0100
0001
0001
1000
0001
0001
0100
,
0001
0000
0001
0000
1000
0000
0000
0000
0001
0000
0001
0000
0010
0000
0001
0000
0001
0000
0100
0000
0001
0010
0001
0000
1000
0000
1000
0000
0100
0010
0100
0000
,
0010
0000
0000
0010
0000
0000
0100
0000
0000
0100
0000
0000
0002
0000
0000
0000
0000
0000
0000
0000
0000
0000
0000
0000
0000
0000
0000
0000
0000
0000
0000
0000
0200
0003
0000
0000
0000
0000
0000
0000
0000
0000
0000
0000
0000
0000
0000
0000
,
0300
1000
0100
1000
0200
0000
0320
0000
0230
0000
0302
0000
0203
0000
0320
0000
0032
0000
2003
0000
3002
0000
0023
0000
,
0230
0000
0000
0000
0302
0000
0000
0000
2003
0000
0000
0000
3020
0000
0000
0000
0000
0000
0000
0000
0000
0000
0000
0000
0000
0000
0000
0000
0000
0000
0230
0000
0000
0302
0000
0000
2003
0000
0000
0000
0000
0000
0000
0000
0000
0000
0000
0000
,
0000
0000
0000
0000
3020
0000
0000
0000
0000
0000
0230
0300
0200
0000
0000
0000
,
0000
0000
0300
0000
0001
0001
0100
0001
0010
1000
0100
0010
0010
0100
0001
0001
,
0010
0100
1000
0001
0100
0000
0010
0000
0100
0001
1000
0010
0001
0000
0100
0000
0010
1000
0001
0100
0010
0000
0001
0000
0100
0010
1000
0001
0010
0000
0100
0000
,
0001
0100
2000
0000
0000
0000
3000
0000
0001
0000
0001
0000
0100
0000
0010
0000
0100
0000
0100
0000
0001
0000
1000
0000
1000
0000
0010
0000
0100
0000
0010
0000
,
1000
1000
0001
0100
1000
1000
0000
1000
1000
0000
1000
1000
0000
1000
1000
0000
,
1000
0000
1000
0000
1000
0000
1000
0000
2000
0000
0000
0000
0000
0000
0000
0000
0000
0000
0000
0000
3020
0030
0020
0030
0200
0000
0000
0000
0000
0000
0000
0000
,
0300
0000
0000
0000
0020
0030
0020
0030
0002
0003
0000
0000
0200
0300
0200
0300
0020
0030
0000
0000
0002
0003
0002
0003
2000
3000
1000
0000
0002
0000
0203
0000
,
0310
0000
0010
0000
1000
0000
0001
0010
0100
1000
0001
1000
0010
0100
0001
1000
0010
1000
0010
0100
0001
0010
0100
0010
0001
0100
0010
1000
0001
0100
1000
0010
,
0100
0001
0010
1000
0001
0100
0010
0100
0001
1000
0010
0001
0100
0010
1000
0001
0100
0010
0100
0001
1000
0010
0100
0001
1000
0010
0001
0100
0010
0000
0010
0000
,
0001
0000
0000
0000
0100
0000
2000
0000
3000
0000
0000
0000
0001
0010
0100
1000
0100
0010
0001
0000
0100
0000
0001
0010
0100
1000
0100
0010
0001
0000
0100
0000
,
0001
0010
0100
1000
0100
0010
0001
0000
0100
0000
0001
0010
0100
1000
0100
0010
0001
0000
0100
0000
0001
0010
0100
1000
0100
0010
0001
0000
0010
0000
0200
0000
,
0000
0000
0320
0000
0000
0000
0031
0100
0010
1000
0010
0000
0100
0000
0001
0010
0100
1000
0100
0000
0010
0000
0202
0000
0303
0000
0000
0000
0000
0100
0001
0000
,
0000
0000
0001
0000
0100
0010
1000
0001
0100
0000
0010
0000
0100
0001
1000
0010
0100
0000
0010
0000
0100
0001
1000
0010
0100
0000
0010
0000
0100
0001
1000
0010
,
0100
0010
0000
0000
2000
0000
0000
0000
0000
0000
0000
0000
0000
0000
0000
0000
,
0000
0000
0000
0000
,
3000
0000
0000
0000
0101
0001
1000
1000
1000
0000
1000
1000
0000
0100
0100
0100
,
0100
0000
0000
0010
0000
0000
0010
0000
0000
0010
0000
0000
0010
0000
0000
0100
0000
0000
0100
0000
0000
0100
0000
0000
0100
0000
0000
0010
0000
0000
0010
0000
0000
0010
0000
0000
0010
0000
0100
0000
0010
0000
0100
0000
0010
0000
0100
0000
,
0010
0000
1011
0000
1111
0000
0111
0000
1111
0000
0200
0300
1202
0300
0200
0300
,
0200
0000
0000
0303
0000
0000
1011
0000
0000
0000
0000
0000
0111
0000
0000
0000
0000
0000
0111
0000
1000
0000
1000
0000
0111
0000
0000
0000
0000
0000
0020
0000
0000
0030
0000
0000
1022
0000
0000
0030
0000
0000
0023
0000
0000
0030
0000
0000
,
0022
0033
1011
0000
0111
0000
0111
1000
0111
0000
0200
0300
1202
0300
0200
0300
,
0200
0000
0000
0303
0000
0000
1011
0000
0000
0000
0000
0000
0111
0000
0000
0000
0000
0000
0111
0000
1000
0000
1000
0000
0111
0000
0000
0000
0000
0000
2000
0000
0000
3000
0000
0000
2102
0000
0000
3010
0000
0000
2100
0000
0000
3010
0000
0000
,
2100
3013
2100
3010
1110
0000
1101
0000
1110
0000
1110
0000
2202
0303
0202
0303
,
0202
0000
0000
3303
0000
0000
0212
0000
0000
0303
0000
0000
1110
0000
0000
0000
0000
0000
1101
0000
0010
0000
0001
0000
1110
0000
0000
0000
0000
0000
0022
0000
0000
0033
0000
0000
2022
0000
0000
0033
0000
0000
3022
0000
0000
0033
0000
0000
,
2022
0033
3122
0033
1110
0000
1101
0010
1110
0000
1110
0000
2202
0303
0202
0303
,
0202
0000
0000
3303
0000
0000
0212
0000
0000
0303
0000
0000
1110
0000
0000
0000
0000
0000
1101
0000
0010
0000
0001
0000
1110
0000
0000
0000
0000
0000
0022
0000
0000
0033
0000
0000
2022
0000
0000
0033
0000
0000
0022
0000
0000
3033
0000
0000
,
2022
3033
1011
0000
0111
0000
0111
0000
0111
0000
0202
0303
2202
0303
0202
0303
,
0202
0000
0000
3303
0000
0000
1011
0000
0000
0000
0000
0000
0111
0000
0000
0000
0000
0000
0111
0000
1000
0000
1000
0000
0111
0000
0000
0000
0000
0000
0022
0000
0000
0033
0000
0000
2022
0000
0000
0033
0000
0000
3222
0000
0000
0033
0000
0000
,
2322
3033
1011
0000
0111
0000
0111
1000
2111
0000
3121
0030
2111
0000
0022
0033
,
3222
0033
1311
0000
2111
0000
0111
0000
3121
0000
0202
0333
2212
0303
0212
0303
,
3212
0303
0000
0000
0000
0000
0000
0000
0000
0000
0000
0000
0000
0000
0000
0000
0000
0000
0000
0000
0000
0000
0000
0000
0000
0000
0000
0000
0000
0000
0000
0000
0000
0000
0000
0000
0000
0000
0000
0000
0000
0000
0000
0000
0000
0000
0000
0000
0111
0000
0000
0000
0000
0000
0000
0000
0000
0000
0000
0000
0000
0000
0000
0000
0000
0000
0000
0000
0000
0000
0000
0000
0000
0000
0000
0000
0000
0000
0000
0000
0000
0000
0000
0000
0000
0000
0000
0000
0000
0000
0000
0000
0000
0000
0000
0000
0101
0000
0000
0000
0000
0000
0000
0000
0000
0000
0000
0000
0000
0000
0000
0000
0000
0000
0000
0000
0000
0000
0000
0000
1010
0000
0000
0000
0000
0000
0000
0000
0000
0000
0000
0000
0000
0000
0000
0000
0000
0000
0000
0000
0000
0000
0000
0000
0000
0000
0000
0000
0000
0000
0000
0000
0000
0000
0000
0000
0000
0000
0000
0000
0000
0000
0000
0000
0000
0000
0000
0000
0101
0000
0000
0000
0000
0000
0000
0000
0000
0000
0000
0000
0000
0000
0000
0000
0000
0000
0000
0000
0000
0000
0000
0000
,
0000
0000
1002
0000
0000
0000
1203
0000
0321
0000
0030
0000
0001
0010
0100
0010
,
0001
1000
0010
0100
0101
0000
0101
0000
1101
0000
0101
0000
0101
0000
0101
0000
,
1101
0000
0101
0100
0011
0000
0011
0000
1011
0000
0011
0000
0110
0000
0110
0000
,
1111
1010
0111
0000
0101
1010
0000
0101
,
0000
0000
1002
0000
0000
0000
1203
0000
0321
0000
0030
0000
0001
0010
0100
0010
,
0001
1000
0010
0100
0101
0000
0101
0000
1101
0000
0101
0000
0101
0000
0101
0000
,
1101
0000
0101
0100
0001
0010
0001
0100
0010
1000
0100
1000
0010
0001
0100
0010
,
0100
0001
0010
1000
0111
0000
0000
0000
0101
0000
1010
0000
0000
0000
0101
0000
,
0000
0000
1002
0000
0000
0000
1203
0000
0321
0000
0030
0000
0001
0010
0100
0010
,
0001
1000
0010
0100
0101
0000
0101
0000
1101
0000
0101
0000
0101
0000
0101
0000
,
1101
0000
0101
0100
0011
0000
0011
0000
1011
0000
0011
0000
0110
0000
0110
0000
,
1111
1010
0111
0000
0101
1010
0000
0101
,
0000
0000
1002
0000
0000
0000
1203
0000
0321
0000
0030
0000
0001
0010
0100
0010
,
0001
1000
0010
0100
0101
0000
0101
0000
1101
0000
0101
0000
0101
0000
0101
0000
,
1101
0000
0101
0100
0001
0010
0001
0100
0010
1000
0100
1000
0010
0001
0100
0010
,
0100
0001
0010
1000
1110
0000
0001
0001
0001
0001
0001
0001
0001
0001
0001
0001
,
0001
0000
1110
0000
1011
0000
0001
0001
0001
0001
0001
0001
0001
0001
0001
0001
,
0001
0001
1110
0000
1101
0000
0001
0001
0010
0100
0010
0100
0010
0100
0010
0100
,
0010
0100
1110
0000
1011
0000
0010
0010
0100
1000
0100
1000
0100
1000
0100
1000
,
0100
1000
0011
0000
1110
0000
0001
0001
0001
0001
0001
0001
0001
0001
0001
0001
,
0001
0001
1110
0000
1011
0000
0001
0001
0001
0001
0001
0001
0001
0001
0001
0001
,
0001
0001
1110
0000
1101
0000
0001
0001
0010
0100
0010
0100
0010
0100
0010
0100
,
0010
0100
1111
0000
1111
0000
0000
0000
0000
0000
0000
0000
0000
0000
0000
0000
;
