#TITLE:Empathy;
#SUBTITLE:;
#ARTIST:TaQ;
#TITLETRANSLIT:;
#SUBTITLETRANSLIT:;
#ARTISTTRANSLIT:;
#CREDIT:;
#BANNER:empathy-bn.png;
#BACKGROUND:empathy-bg.png;
#LYRICSPATH:;
#CDTITLE:!exige.png;
#MUSIC:Empathy.mp3;
#OFFSET:-0.400;
#SAMPLESTART:45.020;
#SAMPLELENGTH:20.080;
#SELECTABLE:YES;
#BPMS:0.000=170.000,96.000=85.000,128.000=170.000,224.000=85.000;
#STOPS:;
#BGCHANGES:;
// cache tags:
#FIRSTBEAT:0.000;
#LASTBEAT:244.000;
#SONGFILENAME:Songs/Fresh Flock of Fantastic Files F4/(Exige) Empathy/Empathy.sm;
#HASMUSIC:1;
#HASBANNER:1;
#MUSICLENGTH:111.596;
// end cache tags

//---------------dance-single - ----------------
#NOTES:
     dance-single:
     :
     Hard:
     11:
     1.000,1.000,1.000,0.269,0.842,598.000,174.000,30.000,0.000,0.000:
1001
1000
1000
1000
,
1001
0001
0001
0001
,
0101
0100
0100
0100
,
0110
0010
0010
0010
,
0110
0000
0100
0000
1100
0000
1000
0000
1000
0000
1001
0000
0101
0000
0001
0010
,
1100
0000
1000
0000
1100
0000
0100
0001
0010
0001
1001
0000
0000
0000
0010
0000
,
0110
0000
1000
0000
1000
0010
0001
0000
0001
0000
0011
0000
0001
0000
1000
0000
,
1001
0010
0001
0010
0100
0010
1000
0100
0010
0100
1001
0000
0000
0000
0010
0000
,
0110
0000
0001
0000
1001
0000
0100
0000
0010
0001
0100
0000
0101
0000
1000
0000
,
0011
0000
0100
0000
0101
0000
0010
0000
0100
1000
0010
0000
1001
0000
0010
0000
,
0101
0000
0001
0000
0011
0000
1000
0000
1000
0100
0010
0000
1010
0000
0001
0000
,
1100
0000
1000
0000
0100
0000
0010
0000
0001
1000
0100
0000
0010
0000
0011
0000
,
0110
0000
0010
0000
1100
0000
1000
0000
1001
0100
1000
0000
1100
0000
0100
0000
,
0110
0000
0010
0000
0011
0000
0001
0000
0011
0100
1000
0000
1100
0000
0001
0000
,
0011
0000
1000
0000
0110
0000
0001
0000
0101
0010
0100
0000
0110
0000
0100
0000
,
1100
1000
1001
0001
1001
1000
1001
0110
,
0011
0000
0001
0000
0010
0000
0010
0100
1001
0100
0010
0100
1001
0000
0100
0000
,
1001
0010
0110
0001
0110
1000
0101
0001
,
1100
0000
0010
0000
0110
0000
0011
0100
1000
0100
0011
0000
0101
0000
0001
0010
,
1001
0010
0001
1000
0100
0010
1001
0000
0001
0000
0001
0000
0101
0000
0011
0000
,
0001
0000
0000
0000
0011
0000
1000
0100
0011
0100
0010
0001
1000
0010
1001
0000
,
0011
0000
0100
0000
1001
0000
0010
0000
1001
0010
0100
0000
1001
0100
0010
0000
,
0101
0000
0010
0000
1001
0000
0100
0001
0110
1000
0001
0000
0011
0000
0001
0000
,
1001
0000
0000
0000
0000
0000
0100
0000
0000
0010
0000
0000
0001
0000
0010
0000
0100
0000
1001
0000
0010
0000
0100
0000
0010
0000
0100
0000
0010
0000
0100
0000
1000
0000
0001
0000
0010
0000
0100
0000
0010
0000
0100
0000
0010
0000
0100
0000
,
2002
0000
0000
3003
0002
0000
0000
0003
2002
0000
0000
0000
0000
0000
0000
3003
,
2200
0000
0000
3300
2000
0000
0000
3000
2000
0000
0000
3000
0002
0000
0000
0003
,
2002
0000
0000
0000
0000
0000
0000
3003
0220
0000
0000
0330
0020
0000
0000
0030
,
0220
0000
0000
0330
0200
0000
0000
0000
0000
0000
0000
0000
0000
0300
0110
0000
,
1001
0001
0011
0000
0110
0000
0110
0100
1100
1000
1010
0010
0110
0000
0011
0010
,
1010
1000
1100
0000
0110
0000
0011
0010
0011
0001
0101
0100
0110
0010
1010
0000
,
0011
1000
0011
0000
0110
0000
1100
0100
0110
0010
0011
0100
1100
0010
0000
0100
,
1001
0010
1001
0000
1001
0000
0110
0001
2002
0000
0000
0000
0000
0000
0000
3003
,
0011
0000
0010
0000
0110
0000
0100
0010
0100
0010
0001
0000
0101
0000
0010
0000
,
0101
0001
1010
1000
1100
0001
0110
1000
,
1100
0000
0010
0000
0011
0000
0001
0010
0001
0010
0100
0000
0110
0000
0010
0000
,
1100
0010
1000
0001
1000
0010
1000
0000
1001
0000
1000
0000
1100
0000
0001
0000
,
1100
0000
0001
0000
0110
0000
0010
0000
1100
0010
0001
0000
1001
0000
0001
0000
,
1010
0000
1000
0000
1100
0000
0001
0000
0110
0001
1000
0000
1010
0100
0010
0000
,
1010
0000
0010
0000
0011
0000
0001
0100
0011
0100
1000
0000
0011
0000
0001
0000
,
1001
0000
0000
0100
0000
0000
0010
0000
0000
0100
0000
0000
0010
0000
0000
0100
0000
0000
0001
0000
0010
0000
0100
0000
1001
0000
0100
0000
0010
0000
0100
0000
0010
0000
0001
0000
0010
0000
0100
0000
0010
0000
0100
0000
0010
0000
0100
0000
,
1001
0000
1000
0000
1100
0000
1000
0010
1100
0001
1000
0010
0100
0001
0010
1000
,
0100
0001
0100
0010
1000
0010
0001
0010
0001
0010
0100
1000
0001
0010
0100
0010
,
1001
0001
0011
0001
1001
0001
1010
1000
,
1001
0000
0010
0000
0110
0000
0100
0000
1001
0100
1000
0000
1100
0001
0010
0000
,
1010
0000
1000
0000
1001
0000
1000
0000
1010
0001
0100
0010
0001
1000
0100
0010
,
1000
0010
0001
1000
0001
0100
0010
0001
1000
0010
0100
0001
0100
0010
1000
0010
,
1001
0000
0001
0000
0110
0000
0010
0001
1100
0001
0010
0000
1001
0000
0001
0000
,
0011
0000
0000
0100
0000
0000
0011
0000
0000
1000
0001
1000
0001
0010
0100
0010
0001
1000
0001
1000
0100
0010
0100
0010
,
1001
0100
0010
0100
1001
0000
0001
0010
1100
0010
0001
0000
0011
0000
0100
0000
,
0011
0000
1000
0010
0101
0010
1000
0000
1010
0000
0100
0000
0011
0000
0100
0000
,
1010
0100
0010
0001
1000
0010
0001
0100
0010
0001
0100
0001
1000
0100
0010
0100
,
1001
0100
1000
0100
0010
0001
0010
0001
0010
0100
0001
0010
0001
1000
0100
0010
,
1001
0100
0010
0001
1000
0100
0010
0100
1000
0100
0010
0100
0010
1000
0100
1000
,
0011
0100
0001
0010
0100
0001
0010
0100
0010
0001
0010
0001
0100
0001
0010
0001
,
1010
0100
0010
1000
0100
0001
0100
1000
0010
0001
0010
1000
0010
0100
0001
0100
,
1001
0000
0000
0010
0000
0000
0100
0000
0000
0010
0000
0000
1001
0000
0000
0010
0000
0000
0001
0000
0010
0000
0100
0000
0010
0000
0100
0000
0010
0000
0001
0000
1000
0000
0100
0000
0010
0000
0100
0000
0010
0000
0100
0000
0010
0000
0100
0000
,
2002
0000
0000
0000
0000
0000
0000
0000
0000
0000
3003
0022
0000
0000
0000
0033
,
0220
0000
0000
0000
0000
0000
0000
0000
0000
0000
0000
0000
0000
0330
2200
0000
,
0000
0000
0000
0000
0000
0000
0000
3300
2002
0000
0000
0000
0000
0000
0000
0000
,
0000
0000
0000
0000
,
0000
0000
0000
0000
,
3003
0000
0000
0000
;
