#TITLE:桜咲く;
#SUBTITLE:;
#ARTIST:林原めぐみ;
#TITLETRANSLIT:Sakura Saku;
#SUBTITLETRANSLIT:;
#ARTISTTRANSLIT:Megumi Hayashibara;
#CREDIT:;
#BANNER:;
#BACKGROUND:;
#LYRICSPATH:;
#CDTITLE:nemesis-cdtitle.png;
#MUSIC:Love Hina - Megumi Hayashibara - Sakura Saku.mp3;
#OFFSET:-1.280;
#SAMPLESTART:38.660;
#SAMPLELENGTH:22.588;
#SELECTABLE:YES;
#BPMS:0.000=170.000;
#STOPS:;
#BGCHANGES:;
// cache tags:
#FIRSTBEAT:4.000;
#LASTBEAT:260.000;
#SONGFILENAME:Songs/dragon force/Sakura Saku/Sakura Saku.sm;
#HASMUSIC:1;
#HASBANNER:0;
#MUSICLENGTH:98.303;
// end cache tags

//---------------dance-single - ----------------
#NOTES:
     dance-single:
     :
     Beginner:
     2:
     0.131,0.198,0.020,0.020,0.000,86.000,2.000,2.000,0.000,0.000:  // measure 1
0000
0000
0000
0000
,  // measure 2
1000
0000
1000
0000
,  // measure 3
0010
0000
0000
0000
,  // measure 4
0001
0000
0010
0000
,  // measure 5
0100
0000
0000
0000
,  // measure 6
0010
0000
0010
0000
,  // measure 7
0001
0000
0000
0000
,  // measure 8
1000
0000
0001
0000
,  // measure 9
0100
0000
0000
0000
,  // measure 10
1000
0000
0000
1000
,  // measure 11
0000
0000
0001
0000
,  // measure 12
1000
0000
0000
0000
,  // measure 13
0100
0000
0000
0000
,  // measure 14
0010
0000
0000
0000
,  // measure 15
0100
0000
0000
0000
,  // measure 16
1000
0000
0000
0000
,  // measure 17
0010
0000
0000
0000
,  // measure 18
1000
0000
0000
0000
,  // measure 19
0010
0000
0000
0000
,  // measure 20
0000
0001
0000
0000
,  // measure 21
0100
0000
0010
0000
,  // measure 22
0000
1000
0000
0000
,  // measure 23
0100
0000
0001
0000
,  // measure 24
0000
0000
0010
0000
,  // measure 25
0100
0000
1000
0000
,  // measure 26
0001
0000
0000
0000
,  // measure 27
1000
0000
0000
0000
,  // measure 28
0100
0000
0000
0000
,  // measure 29
0010
0000
0000
0000
,  // measure 30
0010
0000
0000
0000
,  // measure 31
1000
0000
0000
0000
,  // measure 32
0100
0000
0000
0000
,  // measure 33
0001
0000
0000
0000
,  // measure 34
1000
0000
0000
0000
,  // measure 35
0001
0000
0000
0000
,  // measure 36
0010
0000
0000
0000
,  // measure 37
1000
0000
0000
0000
,  // measure 38
0010
0000
0000
0000
,  // measure 39
0001
0000
0000
0000
,  // measure 40
1000
0000
0000
0000
,  // measure 41
0100
0000
0000
0000
,  // measure 42
1000
0000
0100
0000
,  // measure 43
0010
0000
0000
0000
,  // measure 44
0010
0000
1000
0000
,  // measure 45
0010
0000
0001
0000
,  // measure 46
0100
0000
1000
0000
,  // measure 47
0100
0000
0001
0000
,  // measure 48
0100
0000
0010
0000
,  // measure 49
1000
0000
0001
0000
,  // measure 50
0100
0000
0010
0000
,  // measure 51
1000
0000
0000
0000
,  // measure 52
0001
0000
0010
0000
,  // measure 53
0100
0000
1000
0000
,  // measure 54
0100
0000
0010
0000
,  // measure 55
0001
0000
0010
0000
,  // measure 56
1001
0000
0001
0000
,  // measure 57
0100
0000
0000
0000
,  // measure 58
1000
0000
0010
0000
,  // measure 59
0100
0000
0000
0000
,  // measure 60
0001
0000
1000
0000
,  // measure 61
0100
0000
0000
0000
,  // measure 62
1000
0000
0001
0000
,  // measure 63
2002
0000
0000
0000
,  // measure 64
0000
0000
0000
0000
,  // measure 65
0000
0000
0000
0000
,  // measure 66
3003
0000
0000
0000
;

//---------------dance-single - ----------------
#NOTES:
     dance-single:
     :
     Easy:
     3:
     0.294,0.298,0.020,0.102,0.000,190.000,2.000,10.000,0.000,0.000:  // measure 1
0000
0000
0000
0000
,  // measure 2
1000
0100
1000
1000
,  // measure 3
0010
1000
0000
0000
,  // measure 4
0001
0100
0010
1000
,  // measure 5
0100
1000
0000
0000
,  // measure 6
0010
0001
0010
0100
,  // measure 7
0001
1000
0000
0000
,  // measure 8
1000
0100
1000
0100
,  // measure 9
1000
0010
0000
0000
,  // measure 10
1000
0010
0000
1000
,  // measure 11
0100
0000
0001
0100
,  // measure 12
1000
0010
1000
1000
,  // measure 13
0100
0010
0001
1000
,  // measure 14
0010
0001
0010
0001
,  // measure 15
0100
0000
0100
0000
,  // measure 16
1000
0010
0001
0010
,  // measure 17
1000
0010
0001
0100
,  // measure 18
1000
0100
0010
0001
,  // measure 19
1000
0000
0001
0000
,  // measure 20
1000
0002
0000
1000
,  // measure 21
0000
0100
0000
1003
,  // measure 22
0000
2000
0000
0010
,  // measure 23
0000
0001
0000
3001
,  // measure 24
0000
0001
0010
1000
,  // measure 25
0100
1000
1000
0010
,  // measure 26
0002
0000
0000
0003
,  // measure 27
0200
0000
0300
1000
,  // measure 28
0100
1000
0100
0001
,  // measure 29
0010
0001
0000
0001
,  // measure 30
0010
0001
0100
0001
,  // measure 31
0010
0001
0000
0001
,  // measure 32
0000
0001
0010
0100
,  // measure 33
0001
0001
2000
0000
,  // measure 34
3000
0100
0010
0100
,  // measure 35
0002
0000
0103
0001
,  // measure 36
0010
0010
0010
1000
,  // measure 37
1000
0100
0000
1000
,  // measure 38
1000
0100
0100
0010
,  // measure 39
0010
1000
0000
0010
,  // measure 40
0000
0010
0001
0010
,  // measure 41
0100
0100
0000
0010
,  // measure 42
1000
0100
0100
0010
,  // measure 43
0020
0000
0000
0030
0000
0000
0001
0000
,  // measure 44
0010
0001
0100
0001
,  // measure 45
0010
1000
0000
0010
,  // measure 46
0001
1000
0100
0010
,  // measure 47
1000
0010
0000
1000
,  // measure 48
0000
0001
0010
0001
,  // measure 49
0100
1000
1000
0000
,  // measure 50
0000
0100
0001
0100
,  // measure 51
2000
0010
3000
0010
,  // measure 52
0001
0100
0010
0001
,  // measure 53
0100
0010
0000
0001
,  // measure 54
0010
0001
0100
0001
,  // measure 55
0010
1000
0000
0100
,  // measure 56
0000
1001
0100
0001
,  // measure 57
0010
0000
0100
0010
0000
0000
0000
0000
,  // measure 58
1000
1000
0010
0010
,  // measure 59
0100
0000
0000
0000
,  // measure 60
1000
0100
1000
1000
,  // measure 61
0100
0000
0000
0000
,  // measure 62
1000
0001
1000
0010
,  // measure 63
2002
0000
0000
0000
,  // measure 64
0000
0000
0000
0000
,  // measure 65
0000
0000
0000
0000
,  // measure 66
3003
0000
0000
0000
;

//---------------dance-single - ----------------
#NOTES:
     dance-single:
     :
     Medium:
     6:
     0.453,0.496,0.092,0.102,0.000,293.000,9.000,10.000,0.000,0.000:  // measure 1
0000
0000
0000
0000
,  // measure 2
1000
0000
0100
0010
1000
0000
1000
0000
,  // measure 3
0010
0100
1000
0000
1000
0000
0010
0000
,  // measure 4
0001
0000
0100
1000
0010
0000
1000
0000
,  // measure 5
0100
0010
1000
0000
1000
0000
1000
0000
,  // measure 6
0010
0000
0001
0100
0010
0000
0100
0000
,  // measure 7
0001
0100
1000
0000
1000
0000
0001
0000
,  // measure 8
1000
0000
0100
0010
1000
0000
0100
0000
,  // measure 9
1000
0010
1000
0000
0001
0100
0001
0000
,  // measure 10
1000
0001
0010
0000
0000
0000
1000
0001
,  // measure 11
0100
0000
0000
0000
0001
0010
0100
0000
,  // measure 12
1000
0001
0010
0000
1000
0000
1000
0000
,  // measure 13
0010
0100
0010
0000
0001
0000
1000
0000
,  // measure 14
0001
0010
0001
0000
0010
0000
0001
0000
,  // measure 15
0100
0000
1000
0000
0001
1000
0001
0000
,  // measure 16
1000
0001
0010
0000
1000
0000
1000
0000
,  // measure 17
0010
0010
0010
0000
0001
0000
0100
0000
,  // measure 18
1000
0010
0100
0000
1000
0000
0100
0010
,  // measure 19
0000
0000
1000
0000
0001
0100
0001
0000
,  // measure 20
1000
0002
0000
1000
,  // measure 21
1000
0000
0100
0000
0100
0003
1000
0000
,  // measure 22
0010
2000
0000
0010
,  // measure 23
0001
0001
0100
3001
,  // measure 24
1000
0010
0100
0000
0010
0000
1000
0000
,  // measure 25
0010
0001
0010
0000
1000
0000
0100
0000
,  // measure 26
0002
0000
0000
0000
0000
0000
0000
0003
,  // measure 27
0200
0000
0301
1000
,  // measure 28
0100
0001
1000
0000
0100
0000
0001
0000
,  // measure 29
0010
1000
0001
0000
0100
0000
0001
0000
,  // measure 30
0010
1000
0001
0000
0100
0000
0001
0000
,  // measure 31
0010
0100
0001
0000
1000
0000
0001
0001
,  // measure 32
0001
0000
0001
0000
0010
0000
0100
0010
,  // measure 33
0001
0001
2000
0000
,  // measure 34
3000
0000
0100
0000
0010
0001
0100
0002
,  // measure 35
0000
0000
0100
0003
0100
0000
0001
0000
,  // measure 36
0010
1000
0010
0000
0010
0000
1000
0000
,  // measure 37
1000
0001
0100
0000
0001
0000
1000
0000
,  // measure 38
1000
0001
0100
0000
0100
0000
0010
0000
,  // measure 39
0010
0100
1000
0000
0100
0000
0010
0000
,  // measure 40
1000
0100
0010
0000
0001
0000
0010
1000
,  // measure 41
0100
0000
0100
1000
0000
0000
0010
0000
,  // measure 42
1000
0001
0100
0010
0000
0010
0000
0020
,  // measure 43
0000
0000
0000
0030
0000
0000
0001
0000
,  // measure 44
0010
0100
0001
0000
0100
0000
0001
0000
,  // measure 45
0010
0100
1000
0000
0100
0000
0010
0000
,  // measure 46
0001
0100
0010
0000
0100
0000
0010
0000
,  // measure 47
1000
0001
0010
0000
0100
0000
1000
0000
,  // measure 48
1000
0010
0001
0000
0010
1000
0001
0000
,  // measure 49
0100
0010
1000
0000
0100
0001
0010
0000
,  // measure 50
0001
0100
0010
0000
0001
1000
0100
0000
,  // measure 51
2000
0000
0100
0000
0100
3000
0010
0000
,  // measure 52
0001
0001
0100
0000
0100
0100
0010
0000
,  // measure 53
0010
0010
1000
0000
1000
1000
0001
0000
,  // measure 54
0010
1000
0001
0000
0010
0001
1000
0000
,  // measure 55
0100
1000
0010
0000
0100
0001
0010
0000
,  // measure 56
1001
0000
1001
0000
1000
0001
1000
0000
,  // measure 57
0110
0000
0110
0000
0010
0100
0010
0000
,  // measure 58
0001
1000
0001
0100
0000
1010
0000
0101
,  // measure 59
0000
0000
0100
0000
0001
1000
0001
0000
,  // measure 60
1000
0010
0100
0001
0000
0101
0000
1010
,  // measure 61
0000
0000
0001
0000
0100
0010
0100
0000
,  // measure 62
1000
0000
1000
0001
0000
0001
0000
2002
,  // measure 63
0000
0000
0000
0000
,  // measure 64
0000
0000
0000
0000
,  // measure 65
0000
0000
0000
0000
,  // measure 66
3003
0000
0000
0000
;

//---------------dance-single - ----------------
#NOTES:
     dance-single:
     :
     Hard:
     8:
     0.561,0.529,0.071,0.102,0.000,369.000,7.000,10.000,0.000,0.000:  // measure 1
0000
0000
0000
0000
,  // measure 2
1000
0001
0100
0010
1000
0000
1000
0001
,  // measure 3
0010
0100
1000
0000
1000
0001
0010
0000
,  // measure 4
0001
0010
0100
1000
0010
0000
1000
0001
,  // measure 5
0100
0010
1000
0000
1000
0001
1000
0000
,  // measure 6
0010
1000
0001
0100
0010
0000
0100
1000
,  // measure 7
0001
0100
1000
0000
1000
1000
0001
0000
,  // measure 8
1000
0001
0100
0010
1000
0000
0100
0000
,  // measure 9
1000
0010
1000
0100
1000
0010
1000
0000
,  // measure 10
1000
0001
0010
0100
0000
0000
1000
0001
,  // measure 11
0100
0010
0000
1000
0001
0010
0100
0000
,  // measure 12
1000
0001
0010
0100
1000
0000
1000
0001
,  // measure 13
0000
0100
0010
1000
0001
0000
1000
0100
,  // measure 14
0000
0010
0001
1000
0010
0100
0001
1000
,  // measure 15
0100
0000
1000
0000
0001
1000
0001
0000
,  // measure 16
1000
0001
0010
0100
1000
0000
1000
0001
,  // measure 17
0000
0010
0010
1000
0001
0000
0100
0001
,  // measure 18
1000
0010
0100
0001
1000
0000
0100
0010
,  // measure 19
0000
0000
1000
0000
0001
0100
0001
0000
,  // measure 20
1000
0002
0000
1000
,  // measure 21
1000
0010
0100
0000
0100
0010
1003
0000
,  // measure 22
0010
2000
0000
0010
,  // measure 23
0001
0100
0001
0000
0001
0100
3001
0000
,  // measure 24
0000
1000
0001
0100
0010
1000
0000
1000
,  // measure 25
0000
0001
0010
0100
1000
1000
0000
1000
,  // measure 26
0002
0000
0000
0000
0000
0000
0000
0203
,  // measure 27
0000
0000
0000
0300
0000
0001
1000
0010
,  // measure 28
0100
0001
1000
0010
0100
1000
0001
0100
,  // measure 29
0010
1000
0001
1000
0000
1000
0001
0100
,  // measure 30
0010
1000
0001
0010
0100
1000
0001
0100
,  // measure 31
0010
1000
0001
1000
0000
0000
0001
0000
,  // measure 32
0001
0100
0001
1000
0010
0100
0100
1000
,  // measure 33
0001
0000
0001
2000
0000
0000
0000
3000
,  // measure 34
0000
0100
0100
1000
0010
0010
0100
0002
,  // measure 35
0000
0000
0100
0003
0100
1000
0001
0100
,  // measure 36
0010
1000
0010
0100
0010
0100
1000
0001
,  // measure 37
1000
0001
0100
0010
0000
0010
1000
0001
,  // measure 38
1000
0001
0100
0010
0100
0010
0010
0100
,  // measure 39
0010
0100
1000
0001
0000
0000
0010
0000
,  // measure 40
1000
0100
0010
1000
0001
0100
0010
1000
,  // measure 41
0100
0000
0100
1000
0000
0000
0010
0000
,  // measure 42
1000
0001
0100
0010
0000
0010
0000
0020
,  // measure 43
0000
0000
0000
0030
0000
0100
0001
1000
,  // measure 44
0010
0100
0001
1000
0100
0010
0001
1000
,  // measure 45
0010
0100
1000
1000
0000
1000
0010
0100
,  // measure 46
0001
0001
1000
1000
0100
0100
0010
0010
,  // measure 47
1000
0001
0010
0100
0000
0000
1000
0000
,  // measure 48
1000
0010
0001
0100
0010
1000
0001
0010
,  // measure 49
0100
0000
1000
0001
0000
0100
0010
1000
,  // measure 50
0001
0100
0100
0010
0001
0001
0100
2000
,  // measure 51
0000
0000
0100
3000
0000
0100
0010
1000
,  // measure 52
0001
0010
0100
1000
0010
0100
0001
1000
,  // measure 53
0100
0010
0100
0010
0000
1000
0001
0100
,  // measure 54
0010
1000
0001
0010
0100
1000
0001
0100
,  // measure 55
0010
1000
0001
1000
0000
0010
0100
0001
,  // measure 56
1000
0001
1000
0010
0100
1000
0001
0100
,  // measure 57
0010
0000
0110
0110
0000
0000
0000
0000
,  // measure 58
1000
0001
1000
0001
0000
1010
0000
0101
,  // measure 59
0000
0010
0100
1000
0000
1000
0000
0001
,  // measure 60
1000
0001
0100
0010
0000
0101
0000
0011
,  // measure 61
0000
1000
0001
0100
0000
1000
0000
0000
,  // measure 62
1000
0000
0001
0100
0000
0010
0000
2002
,  // measure 63
0000
0000
0000
0000
,  // measure 64
0000
0000
0000
0000
,  // measure 65
0000
0000
0000
0000
,  // measure 66
3003
0000
0000
0000
;

//---------------dance-single - ----------------
#NOTES:
     dance-single:
     :
     Challenge:
     10:
     0.722,0.893,0.529,0.081,0.163,437.000,52.000,8.000,0.000,0.000:  // measure 1
0000
0000
0000
0000
,  // measure 2
1010
0001
0100
0010
1000
0000
1100
0001
,  // measure 3
0010
0000
0100
0000
1000
0000
0000
0000
1000
0001
0010
0001
0100
0000
0000
0000
,  // measure 4
0001
0010
0100
1000
0010
0000
1000
0001
,  // measure 5
0100
0010
1000
0000
1100
0011
1100
0000
,  // measure 6
0010
1000
0001
0100
0010
0000
0100
0001
,  // measure 7
1000
0000
0100
0000
0001
0000
0000
0000
1000
0100
1000
0100
0001
0000
0000
0000
,  // measure 8
1000
0001
0100
0010
1000
0000
0100
0001
,  // measure 9
1000
0001
0010
0100
1000
0001
0100
0010
1000
0001
0010
0100
1000
0000
0000
0000
,  // measure 10
1100
1001
0110
0101
0000
0000
1010
0101
,  // measure 11
1100
0011
0000
1001
0101
1010
0110
0000
,  // measure 12
1001
0001
0010
0100
1010
0000
1000
0001
,  // measure 13
0000
0100
0010
1000
0101
0000
1000
0100
,  // measure 14
0000
0010
0001
1000
0110
0100
0001
1000
,  // measure 15
0110
0000
1010
0000
0011
1000
0101
0000
,  // measure 16
1100
0001
0010
0100
1001
0000
1000
0001
,  // measure 17
0000
0010
0010
1000
0101
0000
0100
0001
,  // measure 18
1100
0010
0100
0001
1001
0000
0100
0010
,  // measure 19
0000
0000
1001
0000
0011
0110
1100
0000
,  // measure 20
1010
0000
0102
0000
0100
0010
1000
0000
,  // measure 21
1000
0010
0100
0000
0100
0010
1003
0000
,  // measure 22
0110
0000
2100
0000
0001
0100
0010
0000
,  // measure 23
0001
0100
0001
0000
0010
0100
3001
0000
,  // measure 24
0010
1000
0001
0100
0010
1000
0000
1000
,  // measure 25
0000
0001
0010
0100
1000
1000
0000
1000
,  // measure 26
0002
0100
1000
1003
,  // measure 27
1000
0001
0010
0100
1000
0001
0100
0010
1000
0001
0010
0100
1000
0001
0100
0010
,  // measure 28
1000
0001
1000
0010
0100
1000
0001
0100
,  // measure 29
0010
1000
0001
1000
0000
1000
0001
0100
,  // measure 30
0010
1000
0001
0010
0100
1000
0001
0100
,  // measure 31
0010
1000
0001
1000
0010
0000
0010
0000
,  // measure 32
0001
0100
0001
1000
0010
0100
0100
1000
,  // measure 33
0001
0000
0001
2000
0010
0000
0010
3000
,  // measure 34
0001
0100
0100
1000
0010
0010
0100
0002
,  // measure 35
0100
0000
0100
0003
0100
1000
0001
0100
,  // measure 36
0011
1000
0010
0100
0010
0100
1000
0001
,  // measure 37
1000
0001
0100
0010
0000
0010
1000
0001
,  // measure 38
1000
0001
0100
0010
0100
0010
0010
0100
,  // measure 39
0010
0100
1000
0001
0100
0000
0010
0000
,  // measure 40
1000
0100
0010
1000
0001
0100
0010
1000
,  // measure 41
0100
0000
0100
1000
0010
0000
0010
0000
,  // measure 42
1000
0001
0100
0010
0000
0010
0000
0010
,  // measure 43
1000
0001
0010
0100
1000
0001
0100
0010
1000
0001
0010
0100
1000
0001
0100
0010
,  // measure 44
1001
0100
0001
1000
0100
0010
0001
1000
,  // measure 45
0010
0100
1000
1000
0000
1000
0010
0100
,  // measure 46
0001
0001
1000
1000
0100
0100
0010
0010
,  // measure 47
1000
0001
0010
0100
1000
0000
1000
0000
,  // measure 48
1000
0010
0001
0100
0010
1000
0001
0010
,  // measure 49
0100
0000
1000
0001
0000
0100
0010
1000
,  // measure 50
0001
0100
0100
0010
0001
0001
0100
2000
,  // measure 51
0010
0000
0010
3000
0010
0100
0010
1000
,  // measure 52
0101
0010
0100
1000
0010
0100
0001
1000
,  // measure 53
0100
0010
0010
0010
0000
1000
0001
0100
,  // measure 54
0010
1000
0001
0010
0100
1000
0001
0100
,  // measure 55
0010
1000
1000
1000
0000
0010
0100
0001
,  // measure 56
1000
1001
1001
0010
0100
1000
0001
0100
,  // measure 57
0010
0000
0110
0110
1000
0001
0100
0000
,  // measure 58
1000
0001
1000
1001
0000
1010
0000
0101
,  // measure 59
0000
0010
0100
1000
0000
1000
0000
0010
,  // measure 60
1000
0001
0100
0110
0000
0101
0000
0011
,  // measure 61
0000
1000
0001
0100
0000
1000
0000
0010
,  // measure 62
1000
0100
0001
0100
1000
0010
0001
0010
1000
0100
0001
0100
1000
0000
0001
0000
,  // measure 63
2002
0000
0000
0000
,  // measure 64
0000
0000
0000
0000
,  // measure 65
0000
0000
0000
0000
,  // measure 66
3003
0000
0000
0000
;
