#TITLE:Battle in Contradiction Spiral;
#SUBTITLE:Karano Kyoukai 5th Chapter O.S.T Track.22;
#ARTIST:Kajiura Yuki;
#TITLETRANSLIT:;
#SUBTITLETRANSLIT:;
#ARTISTTRANSLIT:;
#CREDIT:;
#BANNER:Track 22.png;
#BACKGROUND:Track 22.jpg;
#LYRICSPATH:;
#CDTITLE:cdtitle.png;
#MUSIC:Track 22.mp3;
#OFFSET:0.130;
#SAMPLESTART:41.300;
#SAMPLELENGTH:20.040;
#SELECTABLE:YES;
#BPMS:0.000=160.060,208.000=40.015,208.500=80.030,209.500=160.060;
#STOPS:;
#BGCHANGES:8.125=002.avi=1.000=0=0=1,
16.000=001a.avi=1.000=0=0=1,
48.000=a.avi=1.000=0=0=1,
64.000=004a.avi=1.000=0=0=1,
72.000=003.avi=1.000=0=0=1,
103.000=b.avi=1.000=0=0=1,
111.000=001a.avi=1.000=0=0=1,
135.000=c.avi=1.000=0=0=1,
155.000=d.avi=1.000=0=0=1,
174.000=e.avi=1.000=0=0=1,
190.000=f.avi=1.000=0=0=1,
199.500=004.avi=1.000=0=0=1,
249.500=005.avi=1.000=0=0=1,
273.500=006.avi=1.000=0=0=1,
289.500=007.avi=1.000=0=0=1,
297.500=008.avi=1.000=0=0=1,
337.500=009.avi=1.000=0=0=1,
352.000=Track 22.jpg=1.000=1=0=1,
99999=-nosongbg-=1.000=0=0=0 // don't automatically add -songbackground-
;
// cache tags:
#FIRSTBEAT:4.000;
#LASTBEAT:361.500;
#SONGFILENAME:Songs/alice 4th complete step/Track 22/Track 22.sm;
#HASMUSIC:1;
#HASBANNER:1;
#MUSICLENGTH:143.349;
// end cache tags

//---------------dance-single - ----------------
#NOTES:
     dance-single:
     :
     Challenge:
     14:
     1.000,1.000,1.000,0.823,0.677,853.000,190.000,118.000,0.000,85.000:
0000
0000
0000
0000
,
0020
0000
0000
0000
0000
0000
0000
0000
0000
0000
0000
0000
0000
0000
0000
0030
,
1001
0000
0100
0000
1001
0000
0100
0000
1010
0001
0100
0010
1000
0000
0010
0000
,
1001
0000
0100
0000
1001
0000
0100
0000
0011
1000
0001
0100
0010
0000
1000
0000
,
0101
0000
0010
0000
1100
0000
0010
0000
0101
0000
1000
0000
1100
0001
0010
0000
,
1000
0100
0010
0000
0001
0010
0100
0000
1000
0010
0001
0010
0100
0001
0010
0000
,
2002
3003
0000
0000
0000
0000
0000
0000
0100
0000
0000
0000
0000
0000
0000
0000
0001
0000
0000
0000
0000
0000
0000
0000
2002
3003
0000
0000
0000
0000
0000
0000
0100
0000
0000
0000
0000
0000
0000
0000
0010
0000
0000
0000
0000
0000
0000
0000
1100
0000
0000
0000
0000
0000
0000
0000
0001
0000
0000
0000
0000
0000
0000
0000
,
1001
0000
0010
0000
0101
0000
0010
0000
1001
0100
0010
0000
0100
0000
0001
0000
,
1010
1000
0101
0010
1100
0001
0110
0001
,
0101
1000
0010
1000
0100
0001
0010
0000
0001
1000
0001
1000
0100
1000
0010
0000
,
0101
1000
0011
0100
1010
0100
0011
1000
,
0010
0100
0001
0000
1010
0000
0100
0000
0001
0010
1000
0000
0101
0000
0010
0000
,
1001
0000
0100
0000
0011
0000
1000
0000
0010
0001
0100
0000
1001
0000
0010
0000
,
1100
0000
0010
0000
0101
0000
1000
0000
0010
0100
0001
0000
1010
0000
0100
0000
,
2002
3003
0000
0000
0000
0000
0000
0000
1000
0000
0000
0000
0000
0000
0000
0000
0100
0000
0000
0000
0000
0000
0000
0000
2020
3030
0000
0000
0000
0000
0000
0000
0001
0000
0000
0000
0000
0000
0000
0000
0100
0000
0000
0000
0000
0000
0000
0000
1010
0000
0000
0000
0000
0000
0000
0000
0001
0000
0000
0000
0000
0000
0000
0000
,
0101
0000
0010
0000
1100
0000
0010
0000
0101
1000
0010
0100
1001
0000
0010
0000
,
1000
0110
1000
0000
0100
0011
0100
0000
1000
0110
1000
0000
0100
0011
0100
0000
,
0010
1100
0010
0000
0001
0110
0001
0000
1000
0011
0100
0000
0001
1010
0100
0000
,
1001
0000
1000
0000
0101
0000
1000
0000
0010
0100
0001
0010
0001
0100
0010
0000
,
1100
0000
0001
0000
0110
0000
0001
0000
1100
0010
0001
0000
0110
0000
0001
0000
,
0101
0000
0010
0100
1001
0010
0001
0100
0010
0100
0001
1000
0100
1000
0010
0000
,
1000
0000
0001
0000
0110
0000
0001
0000
1000
0010
0001
0000
0100
0000
0001
0000
,
1000
0000
0100
1000
0011
0100
0010
1000
0001
0010
0001
0100
0010
1000
0001
0010
,
0100
0000
0001
0000
1010
0000
0001
0000
1000
0100
0010
0000
0101
0000
0010
0000
,
1000
0100
1000
0010
0101
1000
0100
0010
0001
0100
0001
1000
0100
1000
0010
0000
,
0100
0000
0001
0000
1100
0000
0010
0000
1000
0000
0001
0000
0110
0001
0010
0000
,
1000
0100
1000
0010
0100
0001
1000
0011
1000
0100
0010
0100
1001
0000
0100
0000
,
0010
0000
0001
0000
1010
0000
0001
0000
0100
0010
0001
0000
1010
0000
0001
0000
,
0100
1000
0001
1000
0110
1000
0001
0010
1000
0100
0001
0010
0101
1000
0010
0100
,
0001
0000
1000
0000
0110
0000
0001
1000
0100
0010
0100
0000
1001
0000
0010
0000
,
1000
0000
0100
0001
1010
0001
0100
0000
0001
1000
0010
1000
0101
1000
0010
0000
,
1000
0000
0001
0000
0110
0000
0001
0000
1000
0100
0001
0000
0110
0000
0001
0000
,
1000
0000
0100
1000
0101
1000
0100
1000
0010
0100
0001
0010
0101
1000
0001
0100
,
0010
0000
1000
0000
0101
0000
1000
0000
0010
1000
0100
0000
0011
0000
0100
0000
,
2001
0000
0010
0000
3100
0000
2001
0000
0010
0000
3100
0000
1020
0000
0100
0030
,
1002
0010
0103
1002
0010
0103
1020
0130
,
2001
0100
0010
0100
0001
0100
0010
3100
1002
0010
0100
0010
1000
0010
0100
0013
,
2000
0100
0011
3100
0020
0100
1001
0130
,
1002
0000
0100
0000
0013
0000
1002
0000
0100
0000
0013
0000
0201
0000
0010
0300
,
2001
0100
3010
2001
0100
3010
0201
0310
,
1002
0010
0100
0010
1000
0010
0100
0013
2001
0100
0010
0100
0001
0100
0010
3100
,
0002
0010
1100
0013
0200
0010
1001
0310
,
1000
0001
0100
0010
1000
0001
0100
0010
1000
0001
1000
0001
1100
0010
0100
0001
,
1000
0010
0101
0010
1000
0001
0110
0001
,
0010
1000
0010
1000
0100
1000
0010
0100
0001
1000
0010
0100
0011
1000
0010
0100
,
0001
1000
0101
1000
0010
1000
0101
1000
,
0010
0100
0001
0100
0010
1000
0100
1000
0001
0010
0001
0100
0011
1000
0010
1000
,
0001
0110
0001
0110
0001
1100
0001
0110
,
1001
0101
1010
0110
1001
1100
0110
1001
,
0210
0001
1000
0001
0010
0001
1000
0301
,
2000
3000
0000
0000
0200
0300
0000
0000
0020
0030
0000
0000
0200
0300
0000
0000
0002
0003
0000
0000
0020
0030
0000
0000
0200
0300
0000
0000
0020
0030
0000
0000
2000
3000
0000
0000
0200
0300
0000
0000
0020
0030
0000
0000
0002
0003
0000
0000
0020
0030
0000
0000
0200
0300
0000
0000
2000
3000
0000
0000
0020
0030
0000
0000
,
0002
0003
0000
0000
0020
0030
0000
0000
0200
0300
0000
0000
0020
0030
0000
0000
2000
3000
0000
0000
0200
0300
0000
0000
0020
0030
0000
0000
0200
0300
0000
0000
0002
0003
0000
0000
0020
0030
0000
0000
0200
0300
0000
0000
2000
3000
0000
0000
0200
0300
0000
0000
0020
0030
0000
0000
0002
0003
0000
0000
0020
0030
0000
0000
,
0200
0000
0000
0000
0000
0000
2310
0000
0001
0000
0100
0000
0001
0000
0010
0001
,
0100
0010
0100
0000
0001
0000
3210
0000
0001
0000
0011
0000
0001
0000
2310
0100
,
0001
0000
0011
0000
0001
0000
3210
0000
0001
0000
1000
0000
0001
0000
0010
0001
,
1000
0001
0010
0000
0001
0000
2310
0000
0001
0000
0011
0000
0001
0000
3210
0000
,
0001
0000
0011
0000
0001
0000
2310
0000
0001
0000
0100
0000
0001
0000
0100
0010
,
0100
0001
0010
0000
0001
0000
3102
0000
0010
0000
1000
0000
0010
0000
1203
0010
,
0001
1010
0001
2310
0100
0001
3210
0001
,
1000
0000
0321
0000
0100
0000
1032
0000
0100
0000
1100
0000
0100
0000
2013
0100
,
0010
0101
0010
3120
1000
0001
1000
0100
,
1000
0001
1000
0132
1000
1100
1000
0123
,
1000
0000
1100
0000
1000
0000
0132
0000
0010
0000
1000
0000
0010
0000
0100
0010
,
1000
0010
0100
0000
0010
0000
1023
0000
0100
0000
1100
0000
1000
0000
1032
0000
,
0100
0000
1100
0000
1000
0000
0123
0000
0001
0000
1000
0000
0001
0000
0100
0001
,
1000
0001
0100
0000
1000
0000
0132
0000
1000
0000
0110
0000
1000
0000
2013
0100
,
0001
0110
0001
3102
0010
1000
0123
1000
,
0001
0000
1230
0000
0001
0000
2310
0000
0001
0000
0100
0000
0001
0000
3210
0001
,
0010
0000
1001
0000
0310
0000
0102
0000
1000
0000
0010
0000
1000
0000
0100
1000
,
0010
0100
0010
0000
1000
0000
2103
0000
0001
0000
0110
0000
0001
0000
3120
0000
,
0001
0000
1100
0000
0001
0000
2130
0000
0001
0000
0010
0100
0010
0000
3102
0000
,
1000
0000
0010
0100
0010
0000
2103
0000
0001
0000
0010
0100
0010
0000
3201
0000
,
0010
0000
0001
1000
0001
0000
2320
0000
0001
0000
0100
0000
0001
0000
0132
0000
,
0010
0100
0010
0123
0001
0100
0001
0231
,
0010
0000
0001
0000
0010
0000
3312
0000
0100
0000
0010
0000
1000
0000
0100
0010
,
0100
1000
0100
0010
0100
0000
1023
0000
0001
0000
0100
0000
0001
0000
1230
0001
,
0010
0001
1000
0001
0010
0000
2301
0000
0100
0000
0010
0000
0100
0000
0001
0010
,
0001
0100
0001
0010
0001
0000
3210
0000
0001
0000
1000
0000
0001
0000
2310
0001
,
0010
0000
0001
0000
0010
0000
3201
0000
1000
0000
0010
0000
1000
0000
0001
0010
,
0001
1000
0010
1000
0001
0000
0312
0000
1000
0000
0010
0000
1000
0000
0123
1000
,
0100
0000
0001
0000
0100
0000
1032
0000
1000
0000
0010
0000
1000
0000
0100
0010
,
0100
1000
0100
0010
0100
0000
2013
0000
0100
0000
0001
0000
0100
0000
3012
0100
,
0010
0000
1000
0000
0010
0000
1203
0000
0001
0000
0010
0000
0001
0000
1000
0010
,
0001
0010
0001
1000
0010
0000
0311
1000
0001
1000
0100
1000
0010
0100
1001
0010
,
0001
1000
0010
0100
0002
0000
2103
0000
0000
0000
0000
0000
0000
0000
0000
0000
,
0000
0000
0000
0000
,
0000
0000
0000
0000
,
0000
0000
0000
0000
,
0000
0000
0000
0000
,
0000
0000
0000
0000
,
0000
0000
0000
3000
0000
0000
0000
0000
;
