#TITLE:The Red Coronation;
#SUBTITLE:Calamity;
#ARTIST:EYE_RH;
#TITLETRANSLIT:;
#SUBTITLETRANSLIT:;
#ARTISTTRANSLIT:;
#CREDIT:Freyja, Sudzi;
#BANNER:The Red Coronation BN.png;
#BACKGROUND:The Red Coronation BG.png;
#LYRICSPATH:;
#CDTITLE:;
#MUSIC:The Red Coronation.ogg;
#OFFSET:-1.186;
#SAMPLESTART:30.460;
#SAMPLELENGTH:16.000;
#SELECTABLE:YES;
#DISPLAYBPM:154.000;
#BPMS:0.000=154.000;
#STOPS:;
#BGCHANGES:;
// cache tags:
#FIRSTBEAT:4.000;
#LASTBEAT:392.000;
#SONGFILENAME:Songs/Index Tournament 1/The Red Coronation/The Red Coronation.sm;
#HASMUSIC:1;
#HASBANNER:1;
#MUSICLENGTH:160.862;
// end cache tags

//---------------dance-single - freyja 7-16/16----------------
#NOTES:
     dance-single:
     freyja 7-16/16:
     Challenge:
     12:
     0.872,1.000,0.019,0.050,1.000,965.000,3.000,8.000,0.000,0.000:

4000
0000
0000
0000
,
3040
0000
0430
0000
,
0304
0000
0000
0000
,
0043
0000
0430
0000
,
1301
0001
0000
0010
0000
0001
0000
1000
,
0100
0010
0000
0100
0000
0010
0000
0001
,
1000
0001
0000
0100
0000
0010
0000
0100
,
0001
1000
0000
0001
0000
0010
0000
0001
,
0010
0100
1000
0001
0000
1000
0000
0001
,
1000
0000
0001
0000
0100
0000
0010
0100
0010
0000
1000
0000
0001
0000
0010
0000
,
0100
0010
0100
1000
0000
0010
0000
0100
,
0010
0000
1000
0000
0010
0000
0100
0001
0100
0000
0010
0000
1000
0000
0001
0000
,
0010
0001
0100
0010
0100
0010
1000
0001
,
1000
0100
0010
0001
0010
0100
1000
0001
,
0100
0010
1000
0100
0010
0001
0010
0100
,
1000
0000
0010
0000
1000
0000
0001
0000
0010
0100
0010
0001
0100
0010
1000
0100
,
0010
0001
1000
0001
0100
0001
0010
0100
1000
0001
0100
0010
1000
0001
0010
0001
,
0010
0100
1000
0001
0010
0001
1000
0100
0010
0001
0100
0010
1000
0001
0100
0001
,
1000
0100
1000
0001
0100
0010
0100
0001
1000
0100
0010
0001
0100
0010
1000
0001
,
1000
0001
0010
0001
0100
0010
1000
0100
1000
0001
1000
0010
0100
0001
1000
0010
,
0100
0001
0100
0010
1000
0100
1000
0001
0100
0010
0100
0001
1000
0100
1000
0001
,
0010
0001
1000
0010
0100
0010
1000
0100
0010
0100
1000
0001
0100
0001
0100
0010
,
1000
0100
0010
0001
0100
0010
1000
0100
1000
0001
0010
0001
0100
0010
1000
0100
,
0010
0000
0000
0000
,
0010
0001
0100
0010
0100
0001
1000
0100
0010
0001
0100
0010
1000
0001
1000
0100
,
0010
0100
1000
0100
0010
0001
0010
0100
0010
0001
0100
0001
1000
0100
0010
0001
,
0010
0100
1000
0001
1000
0010
0100
0010
1000
0001
0100
0010
1000
0001
1000
0010
,
0100
0010
1000
0001
0100
0010
1000
0100
0010
0001
0100
0010
0100
0001
0100
0010
,
1000
0100
0010
0001
1000
0001
0100
0010
0100
0001
0010
0001
0100
0010
1000
0100
,
0010
0001
0010
0100
1000
0100
1000
0010
0100
0001
0010
0001
1000
0100
1000
0010
,
0100
0010
1000
0100
0010
0001
1000
0001
0010
0100
1000
0010
1000
0001
0010
0100
,
1000
0001
1000
0100
0010
0100
1000
0001
1000
0010
0100
0001
0100
0010
1000
0100
,
1000
0010
1000
0100
0010
0001
0100
0010
0100
0001
1000
0100
0010
0001
1000
0010
,
1000
0100
0010
0001
1000
0001
0100
0010
0100
0001
1000
0001
0100
0010
0100
0001
,
1000
0100
0010
0001
0100
0001
1000
0010
1000
0001
0010
0100
0010
0001
0010
0100
,
1000
0010
0100
0001
1000
0001
1000
0100
0010
0100
1000
0010
1000
0001
0010
0100
,
0010
0001
1000
0001
0010
0100
0010
0001
0100
0010
1000
0100
0010
0001
0100
0010
,
0100
0001
1000
0001
0100
0010
1000
0100
0010
0001
1000
0001
0100
0010
1000
0010
,
0100
0001
0010
0100
1000
0100
0010
0100
1000
0001
0100
0010
1000
0001
1000
0100
,
0010
0100
1000
0001
1000
0100
0010
0001
0010
0100
0010
0001
0100
0010
1000
0100
,
1000
0100
1000
0100
0010
0001
0010
0100
,
1000
0010
0100
0001
0100
0010
1000
0001
,
1000
0001
1000
0100
0010
0001
0010
0100
,
1000
0010
0100
0001
0100
0010
1000
0001
,
1000
0000
0000
0000
0000
0000
0000
0000
0000
0000
0000
0000
0000
0000
0001
1000
,
0010
0000
0100
0000
0000
0000
0010
0000
0000
0000
0100
0000
0000
0000
0001
1000
,
0100
0000
0000
0000
0000
0000
0000
0000
0000
0000
0000
0000
0000
0000
0010
0001
,
0010
0100
0000
1000
0000
0001
0000
1000
,
0100
0000
0000
0000
0000
0000
0000
0000
0000
0000
0000
0000
0000
0000
1000
0001
,
1000
0000
0100
0000
0000
0000
0010
0000
0000
0000
0100
0000
0000
0000
1000
0001
,
0100
0000
0000
0000
0000
0000
0000
0000
0000
0000
0000
0000
0000
0000
0010
1000
,
0010
0100
0000
0001
0000
1000
0000
0010
,
0100
0000
0000
0000
,
0001
0000
1000
0000
0100
0000
1000
0000
0001
0000
0100
0000
0010
0000
1000
0001
,
1000
0100
1000
0001
0010
0001
1000
0100
,
0010
0100
1000
0001
0100
0001
1000
0010
,
1000
0001
1000
0001
0100
0010
1000
0100
,
0010
0000
0100
0000
1000
0000
0001
0000
1000
0000
0010
0000
0100
0000
0010
1000
,
0010
0100
0001
0100
0010
1000
0100
1000
,
0100
0010
0001
1000
0100
1000
0010
0100
,
0001
1000
0010
0100
0001
1000
0010
1000
,
2200
3300
0000
0000
0000
0000
0000
0000
0100
0000
0000
0000
1000
0000
0000
0000
0000
0000
0000
0000
1000
0000
0000
0000
0100
0000
0000
0000
0010
0000
0000
0000
,
0001
0010
0001
1000
0001
0100
0010
1000
,
0001
0000
1000
0010
0100
0000
0001
0000
0100
0000
0010
0000
1000
0000
0100
0000
,
0020
0000
0000
0000
0000
0000
0000
0000
0000
0000
0000
0000
0000
0000
0000
0000
0000
0000
0031
0000
0000
0100
0000
0000
0001
0000
0000
0000
0200
0000
0000
0000
0000
0000
0000
0000
0000
0000
0000
0300
0000
0000
0000
0000
0000
0000
0000
0000
,
0002
0000
2003
0000
,
3020
0000
0230
0000
,
0304
0000
0000
0000
,
0000
0000
0000
0000
,
1003
0100
1000
0010
0100
0010
1000
0010
,
1000
0001
0010
0100
0010
0001
1000
0100
1000
0001
0100
0010
0100
0001
1000
0010
,
1000
0001
0010
0100
0010
0001
0100
0010
1000
0001
0100
0010
0100
0001
1000
0010
,
0100
0001
0010
0100
0010
0001
1000
0010
1000
0001
0100
0010
0100
0001
1000
0010
,
1000
0001
0010
0100
0010
0001
1000
0100
0010
0001
0100
0010
0100
0001
1000
0010
,
0100
0001
0010
0100
0010
0001
1000
0100
1000
0001
0100
0010
0100
0001
1000
0010
,
1000
0001
0010
0100
0010
0001
1000
0100
0010
0001
0100
0010
0100
0001
1000
0010
,
1000
0001
0010
0100
0010
0001
1000
0100
1000
0001
0100
0010
0100
0001
0100
0010
,
1000
0000
0000
0001
0000
0000
0010
0000
0000
0100
0000
0000
0010
0000
0000
0001
0000
0000
1000
0000
0000
0100
0000
0000
0010
0000
0000
0001
0000
0000
0100
0000
0000
0010
0000
0000
0100
0000
0000
0001
0000
0000
1000
0000
0100
0000
0010
0000
,
0001
1000
0001
0010
0100
1000
0001
0100
0010
1000
0100
1000
0010
0100
0001
0010
,
0001
1000
0001
0010
0100
1000
0010
0100
0001
0010
0100
1000
0010
1000
0010
0100
,
0001
0100
0010
1000
0001
1000
0100
0010
0001
1000
0100
0010
0100
0010
0001
1000
,
0010
0100
0010
1000
0001
0100
0010
1000
0001
0010
0100
1000
0010
0100
0010
1000
,
0001
0010
0100
1000
0010
1000
0100
0010
0001
0010
0100
1000
0001
0100
0010
1000
,
0001
1000
0100
0010
0001
1000
0100
0010
0001
1000
0010
0100
0001
0010
0100
1000
,
0001
0100
0010
1000
0010
0100
0010
1000
0001
1000
0100
1000
0010
0100
0001
0010
,
0001
1000
0010
0100
0001
0100
0010
0100
0001
0010
0100
0010
0001
1000
0010
0100
,
0001
0000
1000
0000
0000
0000
0001
0000
0000
0000
0010
0000
0000
0000
0001
0100
,
0001
0000
0010
0000
0000
0000
0001
0000
0000
0000
0010
0000
0000
0000
0100
1000
,
0010
0000
0000
0000
0000
0000
0000
0000
0000
0000
0000
0000
0000
0000
1000
0001
,
1000
0100
0000
0010
0000
0100
0000
1000
,
0001
0000
0000
0000
,
0001
0000
0100
0000
0010
0000
0100
0000
0001
0000
1000
0000
0010
0000
1000
0100
,
1000
0001
0100
0001
0010
0100
1000
0100
,
0010
0001
0100
0001
1000
0100
0010
0100
,
1000
0001
0100
0001
0010
0001
0100
0001
,
0010
0000
0100
0000
1000
0000
0100
0000
0010
0000
0100
0000
1000
0000
0001
0010
,
0001
1000
0100
1000
0010
0100
0001
0100
,
0010
1000
0010
0100
0010
1000
0001
1000
,
0100
0000
0000
0000
;
