#TITLE:Where Are My Jeans?;
#SUBTITLE:;
#ARTIST:odaxelagnia;
#TITLETRANSLIT:;
#SUBTITLETRANSLIT:;
#ARTISTTRANSLIT:;
#CREDIT:Tyler;
#BANNER:jeans bn.png;
#BACKGROUND:jeans bg.png;
#LYRICSPATH:;
#CDTITLE:;
#MUSIC:Where Are My Jeans.ogg;
#OFFSET:-6.021;
#SAMPLESTART:19.226;
#SAMPLELENGTH:12.000;
#SELECTABLE:YES;
#DISPLAYBPM:200.000;
#BPMS:0.000=200.000,299.000=166.000,300.000=113.750;
#STOPS:;
#BGCHANGES:;
// cache tags:
#FIRSTBEAT:4.000;
#LASTBEAT:314.000;
#SONGFILENAME:Songs/SPEEEDCOOOORE 2/Where Are My Jeans - [Tyler]/Where Are My Jeans.sm;
#HASMUSIC:1;
#HASBANNER:1;
#MUSICLENGTH:104.981;
// end cache tags

//---------------dance-single - T. Moore----------------
#NOTES:
     dance-single:
     T. Moore:
     Challenge:
     12:
     0.876,0.935,0.210,0.314,0.624,582.000,22.000,33.000,131.000,0.000:

0000
0000
0000
0000
,
1002
0000
0000
0000
,
1000
0000
1000
0000
1000
0003
0001
0001
,
1000
0000
0000
0010
0000
0000
1000
0000
0000
0010
0000
0000
0100
0000
0000
0001
0000
0000
0100
0000
0000
0001
0000
0000
1000
0000
0000
0100
0000
0000
1000
0000
0000
0100
0000
0000
0010
0000
0000
0001
0000
0000
1000
0000
0001
0000
1000
0000
,
0001
0100
0001
0100
0010
1000
0010
1000
0001
0000
0001
0000
0001
0000
0001
0000
,
0200
0310
0200
0310
0200
0310
0200
0310
,
1000
0000
0100
0000
0010
0000
0100
0000
1000
0000
0010
0000
0400
0300
0000
0000
,
0001
0100
0001
0100
0010
1000
0100
0010
0001
1000
0001
0100
0020
0000
0000
0000
,
1030
0000
1000
0000
0001
0010
0100
1000
0001
0100
0010
1000
0010
1000
0001
0010
,
0400
4000
0000
0000
0000
0000
0000
0000
0000
0000
0000
0000
0000
0300
3000
0000
,
0MM0
M00M
M000
0M00
00M0
000M
M00M
0MM0
0000
0000
MMMM
0MM0
0MM0
0MM0
0000
0000
MMMM
M000
M000
MMM0
M000
M000
0000
0000
0000
M00M
M00M
M00M
MMMM
0MM0
0000
0000
,
1001
1000
1001
0001
1000
1000
0010
0010
,
0100
0000
0010
0000
1000
0000
0010
0000
0100
0001
0100
0001
0010
0100
0010
0100
,
1000
0100
1000
0100
1000
0100
1000
0100
1000
0000
0100
0000
0010
0000
0400
0000
,
1300
0001
0100
0101
0001
1000
0100
0010
,
0011
0000
0000
0011
0000
0000
0011
0000
0001
0000
0100
0000
0010
0000
1000
0000
,
1001
0001
0000
1001
0001
0000
1001
0001
,
1000
0010
1000
0010
0000
0000
0000
0000
0100
0000
0100
0000
0001
1000
0100
0010
,
0001
0000
0000
0000
0000
0000
0000
0000
0000
0000
0000
0000
0000
0000
0000
0000
0000
0000
0000
0000
0000
0000
0000
0000
1000
0000
0000
0000
0000
0000
0000
0000
0000
0000
0000
0000
0000
0000
0000
0000
0000
0000
0000
0000
0000
0000
0000
0000
0001
0000
0000
0000
0000
0000
0000
0000
0000
0000
0000
0000
0000
0000
0000
0000
0000
0000
0000
0000
0000
0000
0000
0000
0010
0000
0000
0000
0000
0000
0000
0000
0000
0000
0000
0000
0000
0000
0000
0000
0000
0000
0000
0000
0000
0000
0000
0000
0200
0000
0000
0000
0000
0000
0000
0000
0000
0000
0000
0000
0000
0000
0000
0000
0000
0000
0000
0000
0000
0000
0000
0300
4000
0000
0000
0000
0000
0000
0000
0000
0000
0000
0000
0000
0100
0000
0000
0000
0000
0000
0000
0000
0000
0000
0000
0000
0000
0000
0000
0000
0000
0000
0000
0000
0000
0000
0000
0000
0100
0000
0000
0000
0000
0000
0000
0000
0000
0000
0000
0000
3000
0000
0000
0000
0000
0000
0000
0000
0000
0000
0000
0000
0100
0000
0000
0000
0000
0000
0000
0000
0000
0000
0000
0000
,
0010
0000
0100
0000
1000
0000
0010
0000
0100
0000
0010
0000
1000
0100
0010
0001
,
1000
0000
0010
0000
0100
0000
0001
0000
1000
0010
1000
0010
0100
0001
1000
0100
,
0010
0000
0000
0000
0000
0000
0010
0000
0000
0001
0010
0001
0010
0000
0000
0100
0000
0000
1000
0000
0000
0010
0000
0000
,
0100
0000
0000
0000
0000
0000
0001
0000
0000
0100
0000
0000
0001
0000
0000
0000
0000
0000
0010
0000
0000
0000
0000
0000
0100
0000
0000
0000
0000
0000
0100
0000
0000
0000
0000
0000
1000
0000
0000
0000
0000
0000
0001
0000
1000
0000
0100
0000
,
0010
0000
0010
0000
0001
0000
0010
0000
0100
0000
1000
0000
0001
1000
0010
0100
,
0001
0000
1000
0000
0100
0000
1000
0000
0001
0100
0001
0100
0010
1000
0010
1000
,
0001
0004
0013
0001
1000
0010
0100
0004
,
1003
0000
0001
1000
0001
0000
0100
0000
0010
0000
0010
0000
0100
0000
0100
0001
,
2000
0000
0000
0000
0000
0000
0000
0000
0000
0000
0000
0000
0000
0000
0000
0000
0000
0000
0000
0000
0000
0000
0000
0000
0000
0000
0000
0000
0000
0000
0000
0000
0000
0000
0000
0000
0000
0000
0000
0000
0000
0000
0000
0000
0000
0000
0000
3000
0001
0000
0000
0000
0000
0000
0000
0000
0000
0000
0000
0000
0000
0000
0000
0000
0000
0000
0000
0000
0000
0000
0000
0000
2000
0000
0000
0000
0000
0000
0000
0000
0000
0000
0000
0000
0000
0000
0000
0000
0000
0000
0000
0000
0000
0000
0000
0000
0000
0000
0000
0000
0000
0000
0000
0000
0000
0000
0000
0000
0000
0000
0000
0000
0000
0000
0000
0000
0000
0000
0000
3000
2000
0000
0000
0000
0000
0000
0000
0000
0000
0000
0000
0000
0000
0000
0000
0000
0000
0000
0000
0000
0000
0000
0000
3000
0001
0000
0000
0000
0000
0000
0000
0000
0000
0000
0000
0000
0000
0000
0000
0000
0000
0000
0000
0000
0000
0000
0000
0000
0000
0000
0000
0000
0000
0000
0000
0000
0000
0000
0000
0000
0000
0000
0000
0000
0000
0000
0000
0000
0000
0000
0000
0000
,
0020
0000
0000
0000
0000
0000
0000
0000
0000
0000
0000
0000
0000
0000
0000
0000
0130
0000
0000
0000
0000
0000
0000
0000
0020
0000
0000
0000
0000
0000
0000
0000
0000
0000
0000
0000
0000
0000
0000
0030
0020
0000
0000
0000
0000
0000
0000
0000
0130
0000
0000
0000
0000
0000
0000
0000
0100
0000
0000
0000
0000
0000
0000
0000
,
2000
0000
0000
0000
0000
0000
0000
0000
0000
0000
0000
0000
0000
0000
0000
0000
0000
0000
0000
0000
0000
0000
0000
0000
0000
0000
0000
0000
0000
0000
0000
0000
0000
0000
0000
0000
0000
0000
0000
0000
0000
0000
0000
0000
0000
0000
0000
0000
3001
0000
0000
0000
0000
0000
0000
0000
0000
0000
0000
0000
0000
0000
0000
0000
0000
0000
0000
0000
0000
0000
0000
0000
2000
0000
0000
0000
0000
0000
0000
0000
0000
0000
0000
0000
0000
0000
0000
0000
0000
0000
0000
0000
0000
0000
0000
0000
0000
0000
0000
0000
0000
0000
0000
0000
0000
0000
0000
0000
0000
0000
0000
0000
0000
0000
0000
0000
0000
3000
0000
0000
2000
0000
0000
0000
0000
0000
0000
0000
0000
0000
0000
0000
0000
0000
0000
0000
0000
0000
0000
0000
0000
0000
0000
0000
3001
0000
0000
0000
0000
0000
0000
0000
0000
0000
0000
0000
0000
0000
0000
0000
0000
0000
0000
0000
0000
0000
0000
0000
1000
0000
0000
0000
0000
0000
0000
0000
0001
0000
0000
0000
0000
0000
0000
0000
1000
0000
0000
0000
0000
0000
0000
0000
,
0001
0000
0000
0200
0000
0000
0320
0000
0000
2030
0000
0000
3200
0000
0000
0310
0000
0000
0004
0000
0000
1003
0001
1000
,
0002
0000
0000
0000
0000
0000
0000
0000
0000
0000
0000
0000
0000
0000
0000
0000
0000
0000
0000
0000
0000
0000
0000
0000
0000
0000
0000
0000
0000
0000
0000
0000
0000
0000
0000
0000
0000
0000
0000
0000
0000
0000
0000
0000
0000
0000
0000
0000
0103
0000
0000
0000
0000
0000
0000
0000
0000
0000
0000
0000
0000
0000
0000
0000
0000
0000
0000
0000
0000
0000
0000
0000
0020
0000
0000
0000
0000
0000
0000
0000
0000
0000
0000
0000
0000
0000
0000
0000
0000
0000
0000
0000
0000
0000
0000
0000
1000
0000
0000
0000
0000
0000
0000
0000
0000
0000
0000
0000
0000
0000
0000
0000
0000
0000
0000
0000
0000
0000
0000
0000
2030
0000
0000
0000
0000
0000
0000
0000
0000
0000
0000
0000
0000
0000
0000
0000
0000
0000
0000
0000
0000
0000
0000
3000
0001
0000
0000
0000
0000
0000
0000
0000
0000
0000
0000
0000
0000
0000
0000
0000
0000
0000
0000
0000
0000
0000
0000
0000
0000
0000
0000
0000
0000
0000
0000
0000
0000
0000
0000
0000
0000
0000
0000
0000
0000
0000
0000
0000
0000
0000
0000
0000
,
1002
0000
0000
0000
1003
0000
0001
0010
0100
0000
0100
0000
1000
0000
1000
0000
,
0002
0000
0000
0000
0000
0000
0000
0000
0000
0000
0000
0000
0000
0000
0000
0000
0000
0000
0000
0000
0000
0000
0000
0000
0000
0000
0000
0000
0000
0000
0000
0000
0000
0000
0000
0000
0000
0000
0000
0000
0000
0000
0000
0000
0000
0000
0000
0000
1003
0000
0000
0000
0000
0000
0000
0000
0000
0000
0000
0000
0000
0000
0000
0000
0000
0000
0000
0000
0000
0000
0000
0000
0002
0000
0000
0000
0000
0000
0000
0000
0000
0000
0000
0000
0000
0000
0000
0000
0000
0000
0000
0000
0000
0000
0000
0000
0000
0000
0000
0000
0000
0000
0000
0000
0000
0000
0000
0000
0000
0000
0000
0000
0000
0000
0000
0000
0000
0003
0000
0000
0002
0000
0000
0000
0000
0000
0000
0000
0000
0000
0000
0000
0000
0000
0000
0000
0000
0000
0000
0000
0000
0000
0000
0000
1003
0000
0000
0000
0000
0000
0000
0000
0000
0000
0000
0000
0000
0000
0000
0000
0000
0000
0000
0000
0000
0000
0000
0000
0001
0000
0000
0000
0000
0000
0000
0000
1000
0000
0000
0000
0000
0000
0000
0000
0001
0000
0000
0000
0000
0000
0000
0000
,
1000
0100
0010
0100
2000
3001
0400
0310
,
1000
0100
0010
0000
,
1000
0100
0010
0000
,
1000
1000
1000
0010
,
0100
0000
0001
0000
0001
0000
0000
1000
,
0001
0000
0100
0000
0010
0000
0000
1000
,
0001
0010
0100
0000
,
1000
1000
1000
0000
1000
0000
1000
1000
,
0001
0000
0100
0000
0001
1000
1010
4000
,
3001
0001
0010
0100
0100
0100
1000
0000
,
0101
0000
0000
0001
0000
0000
1000
0000
0000
0100
0000
0000
0100
0000
0000
0100
0000
0000
0010
0000
0000
0001
0010
0001
,
0010
0000
0000
0010
0000
0000
0100
0000
0000
1000
0000
0000
1000
0000
0000
1000
0000
0000
M004
0003
0000
0000
0000
0000
,
1000
0000
1000
0100
0010
0000
0001
0000
1000
0000
0010
0000
0100
0000
0004
0000
,
0013
0010
0100
0100
1000
1000
0001
0000
,
1000
1000
0100
0100
0010
0010
0001
0001
,
200M
0000
0000
0000
,
0000
0010
0000
0001
0000
3001
MMMM
0000
,
2001
3001
0010
0001
0010
0001
0100
0010
,
2000
3010
0100
0001
0100
0001
1000
0100
,
0020
0000
0130
0000
1000
0000
0001
0000
1000
0000
0001
0000
0100
0010
0100
0010
,
2000
3010
0100
0001
0100
0001
1000
0001
,
0010
0010
0100
0100
1000
0100
0100
0010
,
0001
0010
0010
0100
1000
0001
0001
0100
,
0001
1000
0100
0010
0001
0010
0100
1000
0001
0100
0010
1000
0001
1000
0010
0100
,
0001
1000
0100
1000
0001
0001
0100
0010
,
1000
0000
1000
0000
0010
0000
0100
0000
0001
0000
0001
0000
1000
0000
0100
0010
,
0100
0100
1000
0001
0100
0100
0001
1000
,
0100
0100
1000
0001
0100
0100
0010
0000
,
0100
0100
0001
0100
0010
0010
1000
0001
,
1000
0000
0100
0000
0010
0000
0001
0000
1000
0000
1000
0000
0001
0000
0100
0001
,
1000
0000
0000
0000
0000
0000
1000
0000
0000
0100
0000
0000
0010
0000
0000
0000
0000
0000
0010
0000
0000
0000
0000
0000
0100
0000
0000
0000
0000
0000
0100
0000
0000
0000
0000
0000
1000
0000
0000
0000
0000
0000
0001
0000
1000
0000
0001
0000
,
1000
0000
0010
0000
0100
0000
0010
0000
1000
0000
0004
0003
1000
0000
0000
0000
,
0010
1000
0100
0100
0010
0100
1000
0001
,
M100
0000
001M
0000
1M00
0000
001M
0000
M100
0000
00M1
1000
0100
0000
001M
0000
,
M100
0000
0000
0000
0000
0000
10M0
0000
0000
0000
0000
0000
0M01
0000
0000
0000
0000
0000
00M1
0000
0000
0100
0000
0000
M010
0000
0000
0000
0000
0000
01M0
0000
0001
0000
0100
0000
M001
0000
0000
0000
0000
0000
01M0
0000
0000
0000
0000
0000
,
001M
0000
1M00
0000
00M1
0000
1M00
0010
M100
0001
01M0
0001
1M00
0000
00M1
0000
,
M100
0000
001M
0000
1M00
0000
001M
0100
M001
0000
0M10
0001
1M00
0000
001M
0000
,
M100
0000
001M
0000
1M00
0000
001M
0100
M001
0000
10M0
0100
001M
0000
M100
0000
,
10M0
0000
0M01
0000
M100
0000
00M1
1000
010M
0000
M010
0100
100M
0100
M010
0000
,
0M01
0000
10M0
0000
001M
0000
1M00
0001
M010
0000
0M01
1000
004M
0000
0M00
0000
,
1030
0000
0010
0000
0100
0000
0010
0000
0100
0000
0010
1000
0004
0000
0000
0000
,
M003
00M0
0M00
000M
M000
0000
0000
M000
0000
0000
00M0
0000
0000
0000
0000
0000
,
M000
000M
00M0
0M00
M000
0000
0000
M000
0000
0000
0M00
0000
0000
0000
0000
0000
,
M000
000M
0M00
00M0
M000
0000
0000
0000
0M00
0000
000M
0000
0000
0000
M000
0000
,
0000
M000
00M0
0000
000M
0000
0000
0000
;
