#TITLE:Death Piano;
#SUBTITLE:;
#ARTIST:Xi;
#TITLETRANSLIT:;
#SUBTITLETRANSLIT:;
#ARTISTTRANSLIT:;
#CREDIT:;
#BANNER:death.jpg;
#BACKGROUND:deathbg.jpg;
#LYRICSPATH:;
#CDTITLE:_shash_cd.PNG;
#MUSIC:d_e_a_t_h.mp3;
#OFFSET:1.080;
#SAMPLESTART:55.800;
#SAMPLELENGTH:12.000;
#SELECTABLE:YES;
#BPMS:0.000=170.000,251.000=85.000,293.625=42.500,295.500=140.000,304.000=145.000,312.000=150.000,316.000=155.000,320.000=160.000,322.000=165.000,324.000=170.000,372.000=175.000,376.000=180.000,384.000=190.000,392.000=200.000,400.000=170.000;
#STOPS:116.500=1.000
,119.500=2.260
,250.750=1.040
,293.625=0.580
,295.500=0.980
;
#BGCHANGES:;
// cache tags:
#FIRSTBEAT:4.000;
#LASTBEAT:410.250;
#SONGFILENAME:Songs/hard shit/Death Piano/Death.sm;
#HASMUSIC:1;
#HASBANNER:1;
#MUSICLENGTH:172.468;
// end cache tags

//---------------dance-single - Heavy----------------
#NOTES:
     dance-single:
     Heavy:
     Hard:
     13:
     1.000,1.000,1.000,0.000,1.000,1378.000,305.000,0.000,0.000,0.000:

0000
0000
0000
0000
,
1001
0000
0000
0000
0000
0000
0000
0000
0010
0100
1000
0100
0010
0001
0010
0100
,
1001
0000
0000
0000
0000
0000
0000
0000
0000
0000
0000
0000
0000
0000
0000
0000
1000
0100
0010
0001
1000
0100
0010
0001
1000
0100
0010
0001
1000
0100
0010
0001
,
1100
0000
0000
0000
0010
0000
0000
0000
0001
0000
0000
0000
0010
0000
0000
0000
0101
0000
0000
0000
0000
0000
1000
0000
0011
0000
0000
0000
0000
0000
0000
0000
1000
0000
0000
0000
0010
0000
0000
0000
0100
0000
0000
0000
0001
0010
0000
0000
1100
0000
0000
0000
0000
0000
0000
0000
0101
0000
0000
0000
0000
0000
0000
0000
,
1001
0000
0000
0100
0000
0000
0010
0000
0000
0100
0000
0000
1001
0000
0000
0000
0100
0000
0000
0010
0001
0000
0000
0000
0110
0000
0000
0001
0000
0000
0100
0000
0000
0000
0000
0000
1100
0000
0000
0010
0000
0000
0001
0000
0000
0010
0000
0000
,
1001
0000
0000
0100
0000
0000
0010
0000
0000
0001
0000
0000
0010
0000
0000
0100
0000
0000
1000
0000
0000
0100
0000
0000
0011
0000
0000
0000
0001
0000
0000
0000
0001
0000
0000
0000
0001
0000
0000
0000
0001
0000
0000
0000
0001
0000
0000
0000
,
0101
0000
0000
0010
0000
0000
1000
0000
0000
0010
0000
0000
0100
0000
0000
0001
0000
0000
0100
0000
0000
0010
0000
0000
1100
0000
0000
0000
1000
0000
0000
0000
1000
0000
0000
0000
1000
0000
0000
0000
1000
0000
0000
0000
1000
0000
0000
0000
,
1010
0000
0000
0000
0000
0000
0000
0000
0000
0000
0000
0000
0001
0000
0000
0000
0000
0000
0000
0000
0000
0000
0000
0000
1000
0000
0000
0000
0000
0000
0100
0000
0000
0000
0000
0000
0010
0000
0000
0000
0000
0000
0000
0000
0000
0000
0000
0000
1001
0000
0000
0000
0000
0000
0000
0000
0000
0000
0000
0000
0100
0000
0000
0000
0010
0000
0000
0000
0000
0000
0000
0000
0000
0000
0000
0000
1000
0000
0000
0000
0000
0000
0000
0000
0001
0000
0000
0000
0000
0000
0000
0000
0000
0000
0000
0000
0110
0000
0000
0000
0000
0000
0000
0000
0000
0000
0000
0000
1000
0000
0000
0000
0000
0000
0000
0000
0000
0000
0000
0000
0010
0000
0000
0000
0000
0000
0000
0000
0000
0000
0000
0000
1000
0000
0000
0000
0000
0000
0000
0000
0000
0000
0000
0000
0110
0000
0000
0000
0000
0000
0000
0000
0000
0000
0000
0000
0001
0000
0000
0000
0000
0000
0000
0000
0000
0000
0000
0000
0100
0000
0000
0000
0000
0000
0000
0000
0000
0000
0000
0000
0001
0000
0000
0000
0000
0000
0000
0000
0000
0000
0000
0000
,
0110
0001
1000
0001
0110
1000
0001
1000
0110
0001
1000
0001
0110
1000
0001
1000
,
0110
0001
1000
0100
0010
0001
1000
0100
0010
0001
1000
0100
0010
0001
1000
0100
,
0010
0001
1000
0100
0010
0001
1000
0100
0010
0001
1000
0100
0010
0001
1000
0100
,
0011
0001
0001
0001
0001
0001
1100
1000
1000
1000
1000
1000
,
0101
0100
0100
0100
0100
0100
1010
0010
0010
0010
0010
0010
,
0001
0001
0001
0001
0001
0001
0001
0001
0001
0001
0001
0001
,
0001
0001
0001
0001
0001
0001
0001
0001
0001
0001
0001
0001
,
0110
0100
0100
0100
0100
0100
1010
1000
1000
1000
1000
1000
,
0101
0100
0100
0100
0100
0100
1001
0001
0001
0001
0001
0001
,
1000
1000
1000
1000
1000
1000
1000
1000
1000
1000
1000
1000
,
1000
1000
1000
1000
1000
1000
1000
1000
1000
1000
1000
1000
,
0011
0001
0001
0001
0001
0001
0110
0010
0010
0010
0010
0010
,
1100
0100
0100
0100
0100
0100
1001
1000
1000
1000
1000
1000
,
0101
0001
0001
0001
0001
0001
1010
1000
1000
1000
1000
1000
,
0110
0010
0010
0010
0010
0010
1001
1000
1000
1000
1000
1000
,
0001
1000
0001
0010
1000
0001
1000
0100
0001
1000
0001
0010
1000
0001
1000
0100
,
0001
1000
0001
0010
1000
0001
1000
0100
0001
1000
0001
0010
1000
0001
1000
0100
,
1001
0010
0001
0010
0101
0010
0001
0010
1001
0010
0001
0010
0101
0010
0001
0010
,
1001
0010
0001
0010
0101
0010
0001
0010
1001
0010
0001
0010
0101
0010
0001
0010
,
1001
0001
0001
0001
0110
0100
0100
0100
1010
1000
1000
1000
,
0101
0001
0001
0001
1010
1000
1000
1000
0110
0010
0010
0010
,
1001
0000
0000
0000
0000
0000
0000
0100
1000
0100
0010
0001
0000
0000
0000
0000
0000
0000
0000
0000
0000
0000
0000
0000
,
0101
0000
0011
0100
1010
0000
0000
0000
0110
1000
0100
1000
0001
0010
0001
1000
,
0110
0000
0000
0011
0011
0000
0000
0000
0101
0000
0000
1001
1001
0000
0100
0001
,
1000
0000
0000
0000
0000
0000
0001
0000
0000
0100
0000
0000
1001
0000
0000
0000
0010
0000
0000
0000
0100
0000
0000
0000
1001
0000
0000
0000
0100
0000
0000
0000
0010
0000
0000
0000
1001
0000
0000
0000
0010
0000
0000
0000
0100
0000
0000
0000
,
1001
0000
0000
1100
1100
0000
0000
0000
1001
0000
0000
0000
0011
0000
0000
0000
,
1010
0000
0000
0101
0101
0000
0000
0000
0110
0000
1100
0000
0101
0000
1010
0000
,
1001
0100
0010
0001
0100
0010
1000
0001
0010
0100
1000
0010
0100
0001
1000
0100
,
1001
0011
0110
1100
1001
0000
0101
0110
,
1010
0110
0011
0110
,
1100
0000
0000
0000
0010
0000
0000
0000
0001
0000
0000
0000
0110
0000
0000
0000
1000
0000
0000
0000
0100
0000
0000
0000
0001
0010
0100
1000
0001
0000
0000
0000
0010
0000
0000
0000
1100
0000
0000
0000
0010
0000
0000
0000
0001
0000
0000
0000
,
1100
0000
0000
0000
0001
0000
0000
0000
0010
0000
0000
0000
1100
0000
0000
0000
0001
0000
0000
0000
0100
0000
0000
0000
0001
0010
0100
1000
0001
0000
0000
0000
0010
0000
0000
0000
0101
0000
0000
0000
0010
0000
0000
0000
1000
0000
0000
0000
,
0101
0000
0000
0000
1000
0000
0000
0000
0010
0000
0000
0000
0101
0000
0000
0000
1000
0000
0000
0000
0100
0000
0000
0000
0010
0001
1000
0100
0010
0000
0000
0000
1000
0000
0000
0000
0011
0000
0000
0000
0100
0000
0000
0000
0001
0000
0000
0000
,
1010
0000
0000
0000
0100
0000
0000
0000
0001
0000
0000
0000
1100
0000
0000
0000
0010
0000
0000
0000
0100
0000
0000
0000
1000
0100
0010
0001
1000
0000
0000
0000
0100
0000
0000
0000
0011
0000
0000
0000
0100
0000
0000
0000
1000
0000
0000
0000
,
0110
0000
0000
0000
1000
0000
0000
0000
0100
0000
0000
0000
0011
0000
0000
0000
0100
0000
0000
0000
1000
0000
0000
0000
0010
0001
1000
0100
0010
0000
0000
0000
1000
0000
0000
0000
0101
0000
0000
0000
1000
0000
0000
0000
0010
0000
0000
0000
,
1001
0000
0000
0000
0100
0000
0000
0000
1000
0000
0000
0000
0101
0000
0000
0000
1000
0000
0000
0000
0100
0000
0000
0000
1000
0100
0010
0001
1000
0000
0000
0000
0010
0000
0000
0000
1001
0000
0000
0000
0010
0000
0000
0000
0001
0000
0000
0000
,
1100
0000
0000
0000
0010
0000
0000
0000
0100
0000
0000
0000
1010
0000
0000
0000
0100
0000
0000
0000
0010
0000
0000
0000
1000
0100
0010
0001
1000
0000
0000
0000
0100
0000
0000
0000
0011
0000
0000
0000
1000
0000
0000
0000
0100
0000
0000
0000
,
1001
0000
0000
0000
0000
0000
0000
0000
0000
0000
0000
0000
0000
0000
0000
0000
0010
0000
0000
0000
0000
0000
0000
0000
0000
0000
0000
0000
0000
0000
0000
0000
0100
0000
0000
0000
0000
0000
0000
0000
0000
0000
0000
0000
0000
0000
0000
0000
1000
0000
0000
0000
0100
0000
0000
0000
0010
0000
0000
0000
0001
0000
0000
0000
1000
0000
0000
0000
0000
0000
0000
0000
0000
0000
0000
0000
0000
0000
0000
0000
0010
0000
0000
0000
0000
0000
0000
0000
0000
0000
0000
0000
0000
0000
0000
0000
0101
0000
0000
0000
0000
0000
0000
0000
0000
0000
0000
0000
0000
0000
0000
0000
1000
0000
0000
0000
0000
0000
0000
0000
0000
0000
0000
0000
0000
0000
0000
0000
0100
0000
0000
0000
0000
0000
0000
0000
0000
0000
0000
0000
0000
0000
0000
0000
1000
0000
0000
0000
0000
0000
0100
0000
0000
0000
0000
0000
0010
0000
0000
0000
0000
0000
0001
0000
0000
0000
0000
0000
1000
0000
0000
0000
0000
0000
0100
0000
0000
0000
0000
0000
0010
0000
0000
0000
0000
0000
0001
0000
0000
0000
0000
0000
,
1100
0000
0000
0000
0010
0000
0000
0000
0001
0000
0000
0000
1100
0000
0000
0000
0010
0000
0000
0000
0001
0000
0000
0000
0100
1000
0010
0001
0000
0000
0000
0000
0001
0000
0000
0000
1100
0000
0000
0000
0010
0000
0000
0000
0001
0000
0000
0000
,
0110
0000
0000
0000
1000
0000
0000
0000
0001
0000
0000
0000
0110
0000
0000
0000
1000
0000
0000
0000
0001
0000
0000
0000
0000
0010
0001
0100
1000
0000
0000
0000
0001
0000
0000
0000
0110
0000
0000
0000
1000
0000
0000
0000
0001
0000
0000
0000
,
1010
0000
0000
0000
0001
0000
0000
0000
0100
0000
0000
0000
1010
0000
0000
0000
0001
0000
0000
0000
0100
0000
0000
0000
0100
0010
0001
1000
0000
0000
0000
0000
0100
0000
0000
0000
1010
0000
0000
0000
0001
0000
0000
0000
0100
0000
0000
0000
,
1001
0000
0000
0000
0100
0000
0000
0000
0010
0000
0000
0000
1001
0000
0000
0000
0100
0000
0000
0000
0010
0000
0000
0000
1000
0100
0010
0001
0000
0000
0000
0000
0010
0000
0000
0000
1001
0000
0000
0000
0100
0000
0000
0000
0010
0000
0000
0000
,
0101
0000
0000
0000
0010
0000
0000
0000
1000
0000
0000
0000
0101
0000
0000
0000
0010
0000
0000
0000
1000
0000
0000
0000
0000
0010
0100
0001
1000
0000
0000
0000
1000
0000
0000
0000
0101
0000
0000
0000
0010
0000
0000
0000
1000
0000
0000
0000
,
0011
0000
0000
0000
1000
0000
0000
0000
0100
0000
0000
0000
0011
0000
0000
0000
1000
0000
0000
0000
0100
0000
0000
0000
0010
1000
0001
0100
0000
0000
0000
0000
1000
0000
0000
0000
0011
0000
0000
0000
1000
0000
0000
0000
0100
0000
0000
0000
,
1001
0010
0100
1001
0010
0100
1010
0100
0001
1010
0100
0001
,
1100
0001
0010
1100
0001
0010
0101
0010
1000
0110
1000
0001
,
0100
0000
0000
0000
0100
0000
0000
0000
0100
0000
0000
0000
1000
0000
0000
0000
1000
0000
0000
0000
1000
0000
0000
0000
0001
0000
0000
0010
0000
0000
0100
0000
0000
1000
0000
0000
0010
0000
0000
0100
0000
0000
0001
0000
0000
1000
0000
0000
,
0001
0000
0000
0000
0001
0000
0000
0000
0001
0000
0000
0000
0100
0000
0000
0000
0100
0000
0000
0000
0100
0000
0000
0000
0010
0000
0000
0001
0000
0000
0100
0000
0000
0010
0000
0000
1000
0000
0000
0001
0000
0000
0010
0000
0000
0001
0000
0000
,
1000
0000
0000
0000
1000
0000
0000
0000
1000
0000
0000
0000
0001
0000
0000
0000
0001
0000
0000
0000
0001
0000
0000
0000
0100
0000
0000
1000
0000
0000
0010
0000
0000
1000
0000
0000
0100
0000
0000
0010
0000
0000
0001
0000
0000
1000
0000
0000
,
0010
0000
0000
0000
0010
0000
0000
0000
0010
0000
0000
0000
0100
0000
0000
0000
0100
0000
0000
0000
0100
0000
0000
0000
0010
0000
0000
1000
0000
0000
0001
0000
0000
1000
0000
0000
0010
0000
0000
0100
0000
0000
0001
0000
0000
0010
0000
0000
,
1000
0000
0000
0000
1000
0000
0000
0000
1000
0000
0000
0000
0100
0000
0000
0000
0100
0000
0000
0000
0100
0000
0000
0000
1000
0000
0000
0010
0000
0000
0100
0000
0000
0001
0000
0000
0010
0000
0000
0100
0000
0000
1000
0000
0000
0001
0000
0000
,
0010
0000
0000
0000
0010
0000
0000
0000
0010
0000
0000
0000
0001
0000
0000
0000
0001
0000
0000
0000
0001
0000
0000
0000
0001
0000
0000
0100
0000
0000
0010
0000
0000
0100
0000
0000
0001
0000
0000
1000
0000
0000
0001
0000
0000
0100
0000
0000
,
1001
0010
0100
0001
0110
0001
1000
0001
1010
0100
0001
0100
0011
1000
0100
0010
,
1100
0010
0001
0010
0101
1000
0010
0100
1010
0001
0100
0001
0110
1000
0001
0010
,
1001
0000
0000
0000
0000
0000
0000
0000
0000
0000
0000
0000
0100
1000
0100
0010
,
1001
0000
0000
0000
0000
0000
0010
0000
0001
0000
0010
0000
1100
0000
0000
0001
0000
0000
0010
0000
0000
0100
0000
0000
1000
0000
0000
0100
0000
0000
1001
0000
0000
0000
0000
0000
0010
0000
0000
0000
0000
0000
0010
0000
0000
0100
0000
0000
,
1001
0000
0000
0000
0000
0000
0000
0000
0000
0000
0000
0000
0000
0000
0000
0000
0100
0000
0000
0000
0010
0000
0000
0000
0000
0000
0000
0000
0000
0000
0000
0000
0100
0000
0000
0000
0010
0000
0000
0000
0000
0000
0000
0000
0000
0000
0000
0000
0000
0000
0000
0000
0000
0000
0000
0000
0000
0000
0000
0000
0100
0000
0000
0000
0000
0000
0000
0000
0000
0000
0000
0000
0011
0000
0000
0000
0000
0000
0000
0000
0000
0000
0000
0000
0000
0000
0000
0000
0000
0000
0000
0000
0000
0000
0000
0000
1000
0000
0000
0000
0000
0000
0000
0000
0000
0000
0000
0000
0100
0000
0000
0000
0010
0000
0000
0000
0000
0000
0000
0000
0000
0000
0000
0000
0000
0000
0001
0000
0000
0000
0000
0000
0000
0000
0000
0000
0000
0000
0001
0000
0000
0000
0000
0000
1010
0000
0000
0000
0000
0000
0000
0000
0000
0000
0000
0000
0000
0000
0000
0000
0000
0000
0000
0000
0000
0000
0000
0000
1001
0000
0000
0000
0000
0000
0000
0000
0000
0000
0000
0000
0110
0000
0000
0000
0000
0000
0000
0000
0000
0000
0000
0000
,
1001
0000
0000
0000
0000
0000
0000
0000
0000
0000
0000
0000
0000
0000
0000
0000
0000
0000
0000
0000
0000
0000
0000
0000
1100
0000
0000
0000
0000
0000
0000
0000
0000
0000
0000
0000
0010
0000
0000
0000
0000
0000
0000
0000
0000
0000
0000
0000
0101
0000
0000
0000
0000
0000
0000
0000
0000
0000
0000
0000
1000
0000
0000
0000
0000
0000
0000
0000
0000
0000
0000
0000
0110
0000
0000
0000
0000
0000
0000
0000
0000
0000
0000
0000
0001
0000
0000
0000
0000
0000
0010
0000
0000
0000
0000
0000
1100
0000
0000
0000
0000
0000
0010
0000
0000
0000
0000
0000
0001
0000
0000
0000
0000
0000
0010
0000
0000
0000
0000
0000
0100
0000
0000
0000
0000
0000
0000
0000
0000
0000
0000
0000
1010
0000
0000
0000
0000
0000
0000
0000
0000
0000
0000
0000
0100
0000
0000
0000
0000
0000
0000
0000
0000
0000
0000
0000
0010
0000
0000
0000
0000
0000
0000
0000
0000
0000
0000
0000
1001
0000
0000
0000
0000
0000
0000
0000
0000
0000
0000
0000
0000
0000
0000
0000
0010
0000
0000
0000
0000
0000
0000
0000
,
1000
0000
0000
0000
0000
0000
0000
0000
0100
0000
0000
0000
0000
0000
0000
0000
0010
0000
0000
0000
0000
0000
0000
0000
1001
0000
0000
0000
0000
0000
0000
0000
0000
0000
0000
0000
0100
0000
0000
0000
0000
0000
0001
0000
0000
0000
0000
0000
0010
0000
0000
0000
0000
0000
0001
0000
0000
0000
0000
0000
0100
0000
0000
0000
0000
0000
0000
0000
0000
0000
0000
0000
1010
0000
0000
0000
0000
0000
0000
0000
0100
0000
0000
0000
0000
0000
0000
0000
1000
0000
0000
0000
0000
0000
0000
0000
0011
0000
0000
0000
0000
0000
0000
0000
0000
0000
0000
0000
0000
0000
0000
0000
0100
0000
0000
0000
0000
0000
0000
0000
0010
0000
0000
0000
0000
0000
0000
0000
0100
0000
0000
0000
0000
0000
0000
0000
0000
0000
0000
0000
0000
0000
0000
0000
1000
0000
0000
0000
0000
0000
0000
0000
0000
0000
0000
0000
0100
0000
0000
0000
0000
0000
0010
0000
0000
0000
0000
0000
1001
0000
0000
0000
0000
0000
0000
0000
0010
0000
0000
0000
0000
0000
0000
0000
0100
0000
0000
0000
0000
0000
0000
0000
,
0011
0000
0000
0000
0000
0000
0000
0000
0000
0000
0000
0000
0110
0000
0000
0000
0000
0000
0000
0000
0000
0000
0000
0000
1100
0000
0000
0000
0000
0000
0000
0000
0000
0000
0000
0000
0010
0000
0000
0000
0000
0000
0100
0000
0000
0000
0000
0000
1001
0000
0000
0000
0000
0000
0000
0000
0000
0000
0000
0000
0000
0000
0000
0000
0010
0000
0000
0000
0000
0000
0000
0000
1000
0000
0000
0000
0000
0000
0000
0000
0010
0000
0000
0000
0100
0000
0000
0000
0000
0000
0000
0000
0000
0000
0000
0000
0001
0000
0000
0000
0000
0000
0000
0000
0000
0000
0000
0000
0000
0000
0000
0000
0000
0000
0010
0000
0000
0000
0000
0000
1100
0000
0000
0000
0000
0000
0000
0000
0000
0000
0000
0000
0000
0000
0000
0000
0000
0000
0000
0000
0000
0000
0000
0000
0011
0000
0000
0000
0000
0000
0000
0000
0000
0000
0000
0000
1100
0000
0000
0000
0000
0000
0000
0000
0000
0000
0000
0000
0011
0000
0000
0000
0000
0000
0100
0000
0000
0000
0000
0000
0000
0000
0000
0000
0000
0000
0000
0000
0000
0000
0000
0000
,
1001
0000
0100
0000
0011
0000
0110
0000
1100
0000
0010
0100
0011
0100
0010
0000
1000
0000
0110
0000
0001
0000
0001
0000
1001
0000
0000
0010
0100
0010
0001
0010
,
1100
0000
0000
0000
0000
0000
0000
0000
0000
0000
0000
0000
1000
0000
0000
0000
0010
0000
0000
0000
0000
0000
0000
0000
0101
0000
0000
0000
0000
0000
0000
0000
0010
0000
0000
0000
0000
0000
0000
0000
0000
0000
0000
0000
0000
0000
0000
0000
0001
0000
0000
0000
0000
0000
0010
0000
0000
0000
0000
0000
0100
0000
0000
0000
0000
0000
1000
0000
0000
0000
0000
0000
0011
0000
0000
0000
0000
0000
0000
0000
0000
0000
0000
0000
0000
0000
0000
0000
0100
0000
0000
0000
0000
0000
0000
0000
0010
0000
0000
0000
0000
0000
0000
0000
0100
0000
0000
0000
0000
0000
0000
0000
0000
0000
0000
0000
0000
0000
0000
0000
1010
0000
0000
0000
0000
0000
0000
0000
0000
0000
0000
0000
1000
0000
0000
0000
0100
0000
0000
0000
0000
0000
0000
0000
0011
0000
0000
0000
0000
0000
0000
0000
0000
0000
0000
0000
1000
0000
0000
0000
0000
0000
0100
0000
0000
0000
0000
0000
0010
0000
0000
0000
0000
0000
0000
0000
0000
0000
0000
0000
0000
0000
0000
0000
1001
0000
0000
0000
0000
0000
0000
0000
,
0100
0000
0001
0000
0000
0000
0110
0000
0000
0000
1000
0000
0000
0000
0010
0001
0000
0000
0100
0000
0000
0000
0001
0000
1010
0000
0000
0000
0000
0000
0001
0000
0000
0110
0000
0000
1000
0000
0100
0000
0000
0000
0011
0000
0000
0110
0000
0000
,
1100
0000
0000
0000
0000
0000
0000
0000
0000
0000
0000
0000
0110
0000
0000
0000
0000
0000
0000
0000
0000
0000
0000
0000
0011
0000
0000
0000
0000
0000
0000
0000
0000
0000
0000
0000
0010
0000
0000
0000
0000
0000
0100
0000
0000
0000
0000
0000
1001
0000
0000
0000
0000
0000
0010
0000
0000
0000
0000
0000
0100
0000
0000
0000
0000
0000
0000
0000
0000
0000
0000
0000
0010
0000
0000
0000
0000
0000
0000
0000
0000
0000
0000
0000
1001
0000
0000
0000
0000
0000
0000
0000
0000
0000
0000
0000
0100
0000
0000
0000
0000
0000
0000
0000
0000
0000
0000
0000
0100
0000
0000
0000
0000
0000
0000
0000
0000
0000
0000
0000
1010
0000
0000
0000
0000
0000
0000
0000
0000
0000
0000
0000
0000
0000
0000
0000
0000
0000
0001
0000
0000
0000
0000
0000
0100
0000
0000
0000
0000
0000
0010
0000
0000
0000
0000
0000
1000
0000
0000
0000
0000
0000
0100
0000
0000
0000
0000
0000
1010
0000
0000
0000
0000
0000
0000
0000
0000
0000
0000
0000
0000
0000
0000
0000
0001
0000
0000
0000
0000
0000
0000
0000
,
0010
0000
0000
0000
0000
0000
0000
0000
0100
0000
0000
0000
1000
0000
0000
0000
0000
0000
0000
0000
0000
0000
0000
0000
0011
0000
0000
0000
0000
0000
0000
0000
0100
0000
0000
0000
0000
0000
0000
0000
0010
0000
0000
0000
0000
0000
0000
0000
1001
0000
0000
0000
0000
0000
0000
0000
0000
0000
0000
0000
0000
0000
0000
0000
1000
0000
0000
0000
0000
0000
0000
0000
0100
0000
0000
0000
0000
0000
0000
0000
0010
0000
0000
0000
0000
0000
0000
0000
0000
0000
0000
0000
0000
0000
0000
0000
0001
0000
0000
0000
0000
0000
0000
0000
0000
0000
0000
0000
0000
0000
0000
0000
0010
0000
0000
0000
0000
0000
0000
0000
1100
0000
0000
0000
0000
0000
0000
0000
0001
0000
0000
0000
0000
0000
0000
0000
0010
0000
0000
0000
0000
0000
0000
0000
1001
0000
0000
0000
0000
0000
0000
0000
0000
0000
0000
0000
0110
0000
0000
0000
0000
0000
0000
0000
0000
0000
0000
0000
1001
0000
0000
0000
0000
0000
0010
0000
0000
0000
0000
0000
0100
0000
0000
0000
0000
0000
0010
0000
0000
0000
0000
0000
,
1001
0000
0000
0000
0000
0000
0000
0000
0000
0000
0000
0000
0000
0000
0000
0000
0000
0000
0000
0000
0000
0000
0000
0000
0000
0000
0000
0000
0000
0000
0000
0000
0000
0000
0000
0000
0000
0000
0000
0000
0000
0000
0000
0000
0000
0000
0000
0000
0000
0000
0000
0000
0000
0000
0000
0000
0000
0000
0000
0000
0000
0000
0000
0000
0000
0000
0000
0000
0000
0000
0000
0000
0000
0000
0000
0000
0000
0000
0000
0000
0000
0000
0000
0000
1000
0000
0100
0000
0010
0000
0001
0000
0010
0000
0000
0000
0000
0000
0000
0000
0000
0000
0000
0000
0000
0000
0000
0000
0000
0000
0000
0000
0000
0000
0000
0000
0000
0000
0000
0000
0000
0000
0000
0000
0000
0000
0000
0000
0000
0000
0000
0000
0000
0000
0000
0000
0000
0000
0000
0000
0000
0000
0000
0000
0000
0000
0000
0000
0000
0000
0000
0000
0000
0000
0000
0000
0000
0000
0000
0000
0000
0000
0000
0000
0000
0000
0000
0000
0000
0000
0000
0000
0000
0000
0000
0000
0000
0000
0000
0000
0000
0000
0000
0000
0000
0000
0000
0000
0000
0000
0000
0000
,
1001
0010
0001
0010
0100
1000
0010
0100
0001
1000
0100
0010
0001
1000
0100
0010
,
0100
1000
0010
0100
0001
1000
0100
0010
0001
0010
0100
0010
0100
1000
0100
0010
,
1001
0100
0010
0001
0100
0010
1000
0100
0010
0001
1000
0100
1000
0001
0010
0100
,
0010
0001
1000
0010
0100
0001
0010
0100
1000
0010
0100
0001
1000
0100
0010
0100
,
1001
0010
0100
1000
0010
0100
0001
1000
0010
0100
0001
1000
0100
0010
0100
0010
,
1001
0100
0010
0001
0010
0100
1000
0010
0100
0010
1000
0100
0010
0001
0100
0010
,
1001
0100
0010
1000
0001
0100
0010
0100
1001
0010
0100
0001
1000
0010
0100
0010
,
1001
0000
0000
0000
1001
0000
0000
0000
1001
0000
0000
0000
1001
0000
0000
1001
0000
0000
1001
0000
1001
0000
1001
0000
,
1001
0100
0010
0100
0001
0100
0010
0100
1001
0010
0100
0010
1000
0010
0100
0010
,
1100
0011
1100
0011
1100
0011
1100
0011
1100
0011
1100
0011
1100
0011
1100
0011
,
1100
0000
1001
0010
0101
0000
0000
0000
0110
0001
0010
0001
1000
0100
1000
0001
,
0110
0000
0000
1100
1100
0000
0000
0000
1010
0000
0000
1001
1001
0000
0010
1000
,
0001
0000
0000
0000
0000
0000
1000
0000
0000
0010
0000
0000
1001
0000
0000
0000
0100
0000
0000
0000
0010
0000
0000
0000
1001
0000
0000
0000
0010
0000
0000
0000
0100
0000
0000
0000
1001
0000
0000
0000
0100
0000
0000
0000
0010
0000
0000
0000
,
1001
0000
0000
0011
0011
0000
0000
0000
1001
0000
0000
0000
1100
0000
0000
0000
,
0101
0000
0000
1010
1010
0000
0000
0000
0110
0000
0011
0000
1010
0000
0101
0000
,
1001
0010
0100
1000
0010
0100
0001
1000
0100
0010
0001
0100
0010
1000
0001
0010
,
1001
1100
0110
0011
1001
0000
1010
0110
,
0101
0001
0001
0101
0100
0100
0110
0010
0010
1010
1000
1000
,
1001
0000
0000
0000
1010
0100
0001
0100
0011
1000
0010
0100
1001
0010
0100
0010
,
1001
0000
0000
0000
0101
0010
1000
0010
1100
0001
0100
0010
1001
0100
0010
0100
,
1001
0000
0000
0000
1100
0010
0001
1000
0110
0001
1000
0100
0011
0100
1000
0001
,
0110
1000
0001
0010
1100
0010
0001
1000
0110
0001
1000
0100
0011
0100
0010
0100
,
1001
0000
0000
0100
1010
0100
0001
1000
0110
0001
1000
0010
0101
0010
0100
0010
,
1001
0000
0000
0010
0101
0010
1000
0001
0110
1000
0001
0100
1010
0100
0010
0100
,
1001
0010
1000
0010
0100
0001
0100
0001
1000
0100
1000
0100
0010
0001
0010
0001
,
1000
0001
1000
0001
0100
0010
0100
0010
1000
0000
0001
0000
1000
0000
0001
0000
,
1000
0001
1000
0001
1000
0001
1000
0001
1000
0001
1000
0001
1000
0001
1000
0001
,
1000
0001
1000
0001
1000
0001
1000
0001
1000
0001
1000
0001
1000
0001
1000
0001
,
1000
0110
0000
0000
0000
0000
0000
0000
0000
1001
0000
0000
0000
0000
0000
0000
;

//---------------dance-single - Challenge----------------
#NOTES:
     dance-single:
     Challenge:
     Challenge:
     20:
     1.000,1.000,1.000,0.000,1.000,1941.000,709.000,0.000,0.000,15.000:

0000
0000
0000
0000
,
1001
0000
0000
0000
0000
0000
0000
0000
0010
0100
1000
0100
0010
0001
0010
0100
,
1001
0000
0000
0000
0000
0000
0000
0000
0000
0000
0000
0000
0000
0000
0000
0000
1000
0100
0010
0001
1000
0100
0010
0001
1000
0100
0010
0001
1000
0100
0010
0001
,
1100
0000
0000
0000
0010
0000
0000
0000
0001
0000
0000
0000
0010
0000
0000
0000
0101
0000
0000
0000
0000
0000
1000
0000
0011
0000
0000
0000
0000
0000
0000
0000
1000
0000
0000
0000
0010
0000
0000
0000
0100
0000
0000
0000
0001
0010
0000
0000
1100
0000
0000
0000
0000
0000
0000
0000
0101
0000
0000
0000
0000
0000
0000
0000
,
1001
0000
0000
0100
0000
0000
0010
0000
0000
0100
0000
0000
1001
0000
0000
0000
0100
0000
0000
0010
0001
0000
0000
0000
0110
0000
0000
0001
0000
0000
0100
0000
0000
0000
0000
0000
1100
0000
0000
0010
0000
0000
0001
0000
0000
0010
0000
0000
,
1001
0000
0000
0100
0000
0000
0010
0000
0000
0001
0000
0000
0010
0000
0000
0100
0000
0000
1000
0000
0000
0100
0000
0000
0011
0000
0000
0000
0011
0000
0000
0000
0011
0000
0000
0000
0011
0000
0000
0000
0011
0000
0000
0000
0011
0000
0000
0000
,
0101
0000
0000
0010
0000
0000
1000
0000
0000
0010
0000
0000
0100
0000
0000
0001
0000
0000
0100
0000
0000
0010
0000
0000
1100
0000
0000
0000
1100
0000
0000
0000
1100
0000
0000
0000
1100
0000
0000
0000
1100
0000
0000
0000
1100
0000
0000
0000
,
1010
0000
0000
0000
0000
0000
0000
0000
0000
0000
0000
0000
0001
0000
0000
0000
0000
0000
0000
0000
0000
0000
0000
0000
1000
0000
0000
0000
0000
0000
0100
0000
0000
0000
0000
0000
0010
0000
0000
0000
0000
0000
0000
0000
0000
0000
0000
0000
1001
0000
0000
0000
0000
0000
0000
0000
0000
0000
0000
0000
0100
0000
0000
0000
0010
0000
0000
0000
0000
0000
0000
0000
0000
0000
0000
0000
1000
0000
0000
0000
0000
0000
0000
0000
0001
0000
0000
0000
0000
0000
0000
0000
0000
0000
0000
0000
0110
0000
0000
0000
0000
0000
0000
0000
0000
0000
0000
0000
1000
0000
0000
0000
0001
0000
0000
0000
0000
0000
0000
0000
0010
0000
0000
0000
0000
0000
0000
0000
0001
0000
0000
0000
1000
0000
0000
0000
0000
0000
0000
0000
0000
0000
0000
0000
0110
0000
0000
0000
0000
0000
0000
0000
0000
0000
0000
0000
0001
0000
0000
0000
1000
0000
0000
0000
0000
0000
0000
0000
0100
0000
0000
0000
0000
0000
0000
0000
1000
0000
0000
0000
0001
0000
0000
0000
0000
0000
0000
0000
0000
0000
0000
0000
,
0110
0001
1000
0001
0110
1000
0001
1000
0110
0001
1000
0001
0110
1000
0001
1000
,
0110
0001
1000
0100
0010
0001
1000
0100
0010
0001
1000
0100
0010
0001
1000
0100
,
0010
0001
1000
0100
0010
0001
1000
0100
0010
0001
1000
0100
0010
0001
1000
0100
,
0011
0011
0011
0011
0011
0011
1100
1100
1100
1100
1100
1100
,
0101
0101
0101
0101
0101
0101
1010
1010
1010
1010
1010
1010
,
1001
0000
0000
0010
0001
0000
0100
0000
0001
1000
0000
0000
0001
0000
0000
0010
0001
0000
0100
0000
0001
1000
0000
0000
0001
0000
0000
0010
0001
0000
0100
0000
0001
1000
0000
0000
0001
0000
0000
0010
0001
0000
0100
0000
0001
1000
0000
0000
,
0001
0000
0000
0010
0001
0000
0100
0000
0001
1000
0000
0000
0001
0000
0000
0010
0001
0000
0100
0000
0001
1000
0000
0000
0001
0000
0000
0010
0001
0000
0100
0000
0001
1000
0000
0000
0001
0000
0000
0010
0001
0000
0100
0000
0001
1000
0000
0000
,
0110
0110
0110
0110
0110
0110
1010
1010
1010
1010
1010
1010
,
0101
0101
0101
0101
0101
0101
1001
1001
1001
1001
1001
1001
,
1010
0000
0000
0001
1000
0000
0010
0000
1000
0100
0000
0000
1000
0000
0000
0001
1000
0000
0010
0000
1000
0100
0000
0000
1000
0000
0000
0001
1000
0000
0010
0000
1000
0100
0000
0000
1000
0000
0000
0001
1000
0000
0010
0000
1000
0100
0000
0000
,
1000
0000
0000
0001
1000
0000
0010
0000
1000
0100
0000
0000
1000
0000
0000
0001
1000
0000
0010
0000
1000
0100
0000
0000
1000
0000
0000
0001
1000
0000
0010
0000
1000
0100
0000
0000
1000
0000
0000
0001
1000
0000
0010
0000
1000
0100
0000
0000
,
0011
0011
0011
0011
0011
0011
0110
0110
0110
0110
0110
0110
,
1100
1100
1100
1100
1100
1100
1001
1001
1001
1001
1001
1001
,
0101
0101
0101
0101
0101
0101
1010
1010
1010
1010
1010
1010
,
0110
0110
0110
0110
0110
0110
1001
1001
1001
1001
1001
1001
,
0001
0000
0000
1000
0010
0000
0001
0000
0100
0010
0000
0000
1000
0000
0000
0001
0100
0000
1000
0000
0010
0100
0000
0000
0001
0000
0000
1000
0010
0000
0001
0000
0100
0010
0000
0000
1000
0000
0000
0001
0100
0000
1000
0000
0010
0100
0000
0000
,
0001
0000
0000
1000
0010
0000
0001
0000
0100
0010
0000
0000
1000
0000
0000
0001
0100
0000
1000
0000
0010
0100
0000
0000
0001
0000
0000
1000
0010
0000
0001
0000
0100
0010
0000
0000
1000
0000
0000
0001
0100
0000
1000
0000
0010
0100
0000
0000
,
1001
0000
0000
0010
0100
0000
0001
0000
1000
0010
0000
0000
0101
0000
0000
0010
1000
0000
0001
0000
0100
0010
0000
0000
1001
0000
0000
0010
0100
0000
0001
0000
1000
0010
0000
0000
0101
0000
0000
0010
1000
0000
0001
0000
0100
0010
0000
0000
,
1001
0000
0000
0010
0100
0000
0001
0000
1000
0010
0000
0000
0101
0000
0000
0010
1000
0000
0001
0000
0100
0010
0000
0000
1001
0000
0000
0010
0100
0000
0001
0000
1000
0010
0000
0000
0101
0000
0000
0010
1000
0000
0001
0000
0100
0010
0000
0000
,
1001
1001
1001
1001
0110
0110
0110
0110
1010
1010
1010
1010
,
0101
0101
0101
0101
1010
1010
1010
1010
0110
0110
0110
0110
,
1001
0000
0000
0000
0000
0000
0000
0100
1000
0100
0010
0001
0000
0000
0000
0000
0000
0000
0000
0000
0000
0000
0000
0000
,
0101
1000
0011
0110
1100
0001
0010
0001
0110
1100
0011
0110
1010
0101
0110
1001
,
0011
1000
0100
0011
0011
0100
1000
0010
0101
0010
0100
1001
1001
0010
1100
1001
,
1100
0000
0000
0010
0000
0000
0001
0000
0000
1100
0000
0000
1010
0000
0000
0000
0110
0000
0000
0000
0101
0000
0000
0000
1010
0000
0000
0000
0101
0000
0000
0000
1010
0000
0000
0000
0011
0000
0000
0000
1100
0000
0000
0000
0011
0000
0000
0000
,
0110
1000
0001
1100
1100
0010
0100
0010
1001
0100
0010
1000
0011
0100
0010
0100
,
1010
0001
1000
0101
0101
0010
1000
0001
0110
0001
1100
0010
0101
1000
0110
0001
,
1010
0110
0101
1010
0110
1001
0110
1010
1001
0110
1001
0101
1010
0011
1100
0110
,
1001
0100
0011
1000
0110
0001
1100
0010
1001
0100
0010
0100
0011
1000
0110
0011
,
1100
0010
0001
1000
0110
0001
1000
0100
0011
0100
1000
0001
0110
1000
0001
0010
,
1100
0000
0000
0010
0001
0000
0100
0000
0010
1000
0000
0000
0100
0000
0000
0010
0001
0000
0010
0000
0100
1000
0000
0000
0001
0010
0100
1000
0001
0000
0010
0000
0100
0010
0000
0000
0100
0000
0000
1000
0100
0000
0010
0000
0001
1000
0000
0000
,
0100
0000
0000
1000
0001
0000
0100
0000
0010
1000
0000
0000
0010
0000
0000
0100
0001
0000
1000
0000
0100
0010
0000
0000
0001
0010
0100
1000
0001
0000
0100
0000
0001
0010
0000
0000
0001
0000
0000
1000
0100
0000
0010
0000
0100
1000
0000
0000
,
0001
0000
0000
0010
0100
0000
1000
0000
0001
0100
0000
0000
0010
0000
0000
1000
0100
0000
0010
0000
0001
0100
0000
0000
0010
0001
1000
0100
0010
0000
0001
0000
1000
0100
0000
0000
0010
0000
0000
0001
0100
0000
0010
0000
0100
0001
0000
0000
,
0010
0000
0000
0100
1000
0000
0010
0000
0100
0001
0000
0000
1000
0000
0000
0100
0010
0000
0001
0000
0100
0010
0000
0000
1000
0100
0010
0001
1000
0000
0100
0000
1000
0001
0000
0000
0010
0000
0000
0001
1000
0000
0100
0000
1000
0001
0000
0000
,
0010
0000
0000
0100
1000
0000
0100
0000
0010
0001
0000
0000
1000
0000
0000
0010
0100
0000
0001
0000
1000
0100
0000
0000
0010
0001
1000
0100
0010
0000
0001
0000
1000
0001
0000
0000
0100
0000
0000
0010
1000
0000
0100
0000
0010
0100
0000
0000
,
1000
0000
0000
0001
0100
0000
0010
0000
1000
0010
0000
0000
0100
0000
0000
0010
1000
0000
0001
0000
0100
0010
0000
0000
1000
0100
0010
0001
1000
0000
0100
0000
0010
0001
0000
0000
0100
0000
0000
0001
0010
0000
0100
0000
1000
0010
0000
0000
,
1000
0000
0000
0100
0010
0000
0001
0000
0010
0100
0000
0000
1000
0000
0000
0100
0010
0000
0001
0000
0010
0100
0000
0000
1000
0100
0010
0001
1000
0000
0100
0000
1000
0001
0000
0000
0010
0000
0000
0100
1000
0000
0010
0000
0100
0001
0000
0000
,
1000
0000
0000
0000
0000
0000
0000
0000
0000
0000
0000
0000
0010
0000
0000
0000
0100
0000
0000
0000
0000
0000
0000
0000
0001
0000
0000
0000
0000
0000
0000
0000
0100
0000
0000
0000
0010
0000
0000
0000
0000
0000
0000
0000
0000
0000
0000
0000
1000
0000
0000
0000
0100
0000
0000
0000
0010
0000
0000
0000
0001
0000
0000
0000
1000
0000
0000
0000
0000
0000
0000
0000
0100
0000
0000
0000
0000
0000
0000
0000
1000
0000
0000
0000
0010
0000
0000
0000
0000
0000
0000
0000
0000
0000
0000
0000
0100
0000
0000
0000
0000
0000
0000
0000
0000
0000
0000
0000
0001
0000
0000
0000
1000
0000
0000
0000
0000
0000
0000
0000
0010
0000
0000
0000
0000
0000
0000
0000
0100
0000
0000
0000
0001
0000
0000
0000
0000
0000
0000
0000
0000
0000
0000
0000
1000
0000
0000
0000
0000
0000
0100
0000
0000
0000
0000
0000
0010
0000
0000
0000
0000
0000
0001
0000
0000
0000
0000
0000
1000
0000
0000
0000
0000
0000
0100
0000
0000
0000
0000
0000
0010
0000
0000
0000
0000
0000
0001
0000
0000
0000
0000
0000
,
1100
0000
0010
0001
0100
0000
0010
0000
0100
1000
0010
0000
0100
0000
0010
0001
0100
0000
0010
0000
0100
1000
0010
0000
0100
1000
0010
0001
0100
0000
0010
0000
0100
1000
0010
0000
0100
0000
0010
0001
0100
0000
0010
0000
0100
1000
0010
0000
,
1000
0000
0001
0100
1000
0000
0001
0000
1000
0010
0001
0000
1000
0000
0001
0100
1000
0000
0001
0000
1000
0010
0001
0000
1000
0010
0001
0100
1000
0000
0001
0000
1000
0010
0001
0000
1000
0000
0001
0100
1000
0000
0001
0000
1000
0010
0001
0000
,
0100
0000
0001
1000
0100
0000
0001
0000
0100
0010
0001
0000
0100
0000
0001
1000
0100
0000
0001
0000
0100
0010
0001
0000
0100
0010
0001
1000
0100
0000
0001
0000
0100
0010
0001
0000
0100
0000
0001
1000
0100
0000
0001
0000
0100
0010
0001
0000
,
1000
0000
0010
0001
1000
0000
0010
0000
1000
0100
0010
0000
1000
0000
0010
0001
1000
0000
0010
0000
1000
0100
0010
0000
1000
0100
0010
0001
1000
0000
0010
0000
1000
0100
0010
0000
1000
0000
0010
0001
1000
0000
0010
0000
1000
0100
0010
0000
,
1000
0000
0100
0001
1000
0000
0100
0000
1000
0010
0100
0000
1000
0000
0100
0001
1000
0000
0100
0000
1000
0010
0100
0000
1000
0010
0100
0001
1000
0000
0100
0000
1000
0010
0100
0000
1000
0000
0100
0001
1000
0000
0100
0000
1000
0010
0100
0000
,
0010
0000
0001
0100
0010
0000
0001
0000
0010
1000
0001
0000
0010
0000
0001
0100
0010
0000
0001
0000
0010
1000
0001
0000
0010
1000
0001
0100
0010
0000
0001
0000
0010
1000
0001
0000
0010
0000
0001
0100
0010
0000
0001
0000
0010
1000
0001
0000
,
1000
0000
0001
0100
1000
0000
0001
0000
1000
0010
0001
0000
1000
0000
0001
0100
1000
0000
0001
0000
1000
0010
0001
0000
0100
0000
0010
1000
0100
0000
0010
0000
0100
0001
0010
0000
0100
0000
0010
1000
0100
0000
0010
0000
0100
0001
0010
0000
,
0100
0000
0001
1000
0100
0000
0001
0000
0100
0010
0001
0000
0100
0000
0001
1000
0100
0000
0001
0000
0100
0010
0001
0000
1000
0000
0010
0100
1000
0000
0010
0000
1000
0001
0010
0000
0100
0000
0001
1000
0100
0000
0001
0000
0100
0010
0001
0000
,
0110
0000
0000
0000
0110
0000
0000
0000
0110
0000
0000
0000
1010
0000
0000
0000
1010
0000
0000
0000
1010
0000
0000
0000
0101
0000
0000
0010
0101
0000
1000
0000
0101
0010
0000
0000
1010
0000
0000
0100
1010
0000
0001
0000
1010
0100
0000
0000
,
1001
0000
0000
0000
1001
0000
0000
0000
1001
0000
0000
0000
0101
0000
0000
0000
0101
0000
0000
0000
0101
0000
0000
0000
1010
0000
0000
0001
1010
0000
0100
0000
1010
0001
0000
0000
1100
0000
0000
0001
1100
0000
0010
0000
1100
0001
0000
0000
,
1010
0000
0000
0000
1010
0000
0000
0000
1010
0000
0000
0000
1001
0000
0000
0000
1001
0000
0000
0000
1001
0000
0000
0000
0101
0000
0000
1000
0101
0000
0010
0000
0101
1000
0000
0000
0110
0000
0000
1000
0110
0000
0001
0000
0110
1000
0000
0000
,
0011
0000
0000
0000
0011
0000
0000
0000
0011
0000
0000
0000
1100
0000
0000
0000
1100
0000
0000
0000
1100
0000
0000
0000
0110
0000
0000
1000
0110
0000
0001
0000
0110
1000
0000
0000
0101
0000
0000
0010
0101
0000
1000
0000
0101
0010
0000
0000
,
1001
0000
0000
0000
1001
0000
0000
0000
1001
0000
0000
0000
0101
0000
0000
0000
0101
0000
0000
0000
0101
0000
0000
0000
1010
0000
0000
0001
1010
0000
0100
0000
1010
0001
0000
0000
0110
0000
0000
0001
0110
0000
1000
0000
0110
0001
0000
0000
,
1010
0000
0000
0000
1010
0000
0000
0000
1010
0000
0000
0000
0101
0000
0000
0000
0101
0000
0000
0000
0101
0000
0000
0000
0011
0000
0000
0100
0011
0000
1000
0000
0011
0100
0000
0000
1010
0000
0000
0100
1010
0000
0001
0000
1010
0100
0000
0000
,
1001
0000
0000
0010
1001
0000
0100
0000
1001
0010
0000
0000
0110
0000
0000
0001
0110
0000
1000
0000
0110
0001
0000
0000
1010
0000
0000
0100
1010
0000
0001
0000
1010
0100
0000
0000
0011
0000
0000
1000
0011
0000
0100
0000
0011
1000
0000
0000
,
1100
0000
0000
0010
1100
0000
0001
0000
1100
0010
0000
0000
0101
0000
0000
1000
0101
0000
0010
0000
0101
1000
0000
0000
1010
0000
0000
0001
1010
0000
0100
0000
1010
0001
0000
0000
0110
0000
0000
1000
0110
0000
0001
0000
0110
1000
0000
0000
,
1001
0000
0000
0000
0000
0000
0000
0000
0000
0000
0000
0000
0100
1000
0100
0010
,
1001
0000
0000
0000
0000
0000
0010
0000
0001
0000
0010
0000
1100
0000
0000
0001
0000
0000
0010
0000
0000
0100
0000
0000
1000
0000
0000
0100
0000
0000
1001
0000
0000
0000
0000
0000
0010
0000
0000
0000
0000
0000
0010
0000
0000
0100
0000
0000
,
1001
0000
0000
0000
0000
0000
0000
0000
0000
0000
0000
0000
0000
0000
0000
0000
0100
0000
0000
0000
0010
0000
0000
0000
0000
0000
0000
0000
0000
0000
0000
0000
0100
0000
0000
0000
0010
0000
0000
0000
0000
0000
0000
0000
0000
0000
0000
0000
0000
0000
0000
0000
0000
0000
0000
0000
0000
0000
0000
0000
0100
0000
0000
0000
0000
0000
0000
0000
0000
0000
0000
0000
0011
0000
0000
0000
0000
0000
0000
0000
0000
0000
0000
0000
0000
0000
0000
0000
0000
0000
0000
0000
0000
0000
0000
0000
1000
0000
0000
0000
0000
0000
0000
0000
0000
0000
0000
0000
0100
0000
0000
0000
0010
0000
0000
0000
0000
0000
0000
0000
0000
0000
0000
0000
0000
0000
0001
0000
0000
0000
0000
0000
0000
0000
0000
0000
0000
0000
0001
0000
0000
0000
0000
0000
1010
0000
0000
0000
0000
0000
0000
0000
0000
0000
0000
0000
0000
0000
0000
0000
0000
0000
0000
0000
0000
0000
0000
0000
1001
0000
0000
0000
0000
0000
0000
0000
0000
0000
0000
0000
0110
0000
0000
0000
0000
0000
0000
0000
0000
0000
0000
0000
,
1001
0000
0000
0000
0000
0000
0000
0000
0000
0000
0000
0000
0000
0000
0000
0000
0000
0000
0000
0000
0000
0000
0000
0000
1100
0000
0000
0000
0000
0000
0000
0000
0000
0000
0000
0000
0010
0000
0000
0000
0000
0000
0000
0000
0000
0000
0000
0000
0101
0000
0000
0000
0000
0000
0000
0000
0000
0000
0000
0000
1000
0000
0000
0000
0000
0000
0000
0000
0000
0000
0000
0000
0110
0000
0000
0000
0000
0000
0000
0000
0000
0000
0000
0000
0001
0000
0000
0000
0000
0000
0010
0000
0000
0000
0000
0000
1100
0000
0000
0000
0000
0000
0010
0000
0000
0000
0000
0000
0001
0000
0000
0000
0000
0000
0010
0000
0000
0000
0000
0000
0100
0000
0000
0000
0000
0000
0000
0000
0000
0000
0000
0000
1010
0000
0000
0000
0000
0000
0000
0000
0000
0000
0000
0000
0100
0000
0000
0000
0000
0000
0000
0000
0000
0000
0000
0000
0010
0000
0000
0000
0000
0000
0000
0000
0000
0000
0000
0000
1001
0000
0000
0000
0000
0000
0000
0000
0000
0000
0000
0000
0000
0000
0000
0000
0010
0000
0000
0000
0000
0000
0000
0000
,
1000
0000
0000
0000
0000
0000
0000
0000
0100
0000
0000
0000
0000
0000
0000
0000
0010
0000
0000
0000
0000
0000
0000
0000
1001
0000
0000
0000
0000
0000
0000
0000
0000
0000
0000
0000
0100
0000
0000
0000
0000
0000
0001
0000
0000
0000
0000
0000
0010
0000
0000
0000
0000
0000
0001
0000
0000
0000
0000
0000
0100
0000
0000
0000
0000
0000
0000
0000
0000
0000
0000
0000
1010
0000
0000
0000
0000
0000
0000
0000
0100
0000
0000
0000
0000
0000
0000
0000
1000
0000
0000
0000
0000
0000
0000
0000
0011
0000
0000
0000
0000
0000
0000
0000
0000
0000
0000
0000
0000
0000
0000
0000
0100
0000
0000
0000
0000
0000
0000
0000
0010
0000
0000
0000
0000
0000
0000
0000
0100
0000
0000
0000
0000
0000
0000
0000
0000
0000
0000
0000
0000
0000
0000
0000
1000
0000
0000
0000
0000
0000
0000
0000
0000
0000
0000
0000
0100
0000
0000
0000
0000
0000
0010
0000
0000
0000
0000
0000
1001
0000
0000
0000
0000
0000
0000
0000
0010
0000
0000
0000
0000
0000
0000
0000
0100
0000
0000
0000
0000
0000
0000
0000
,
0011
0000
0000
0000
0000
0000
0000
0000
0000
0000
0000
0000
0110
0000
0000
0000
0000
0000
0000
0000
0000
0000
0000
0000
1100
0000
0000
0000
0000
0000
0000
0000
0000
0000
0000
0000
0010
0000
0000
0000
0000
0000
0100
0000
0000
0000
0000
0000
1001
0000
0000
0000
0000
0000
0000
0000
0000
0000
0000
0000
0000
0000
0000
0000
0010
0000
0000
0000
0000
0000
0000
0000
1000
0000
0000
0000
0000
0000
0000
0000
0010
0000
0000
0000
0100
0000
0000
0000
0000
0000
0000
0000
0000
0000
0000
0000
0001
0000
0000
0000
0000
0000
0000
0000
0000
0000
0000
0000
0000
0000
0000
0000
0000
0000
0010
0000
0000
0000
0000
0000
1100
0000
0000
0000
0000
0000
0000
0000
0000
0000
0000
0000
0000
0000
0000
0000
0000
0000
0000
0000
0000
0000
0000
0000
0011
0000
0000
0000
0000
0000
0000
0000
0000
0000
0000
0000
1100
0000
0000
0000
0000
0000
0000
0000
0000
0000
0000
0000
0011
0000
0000
0000
0000
0000
0100
0000
0000
0000
0000
0000
0000
0000
0000
0000
0000
0000
0000
0000
0000
0000
0000
0000
,
1001
0000
0100
0000
0011
0000
0110
0000
1100
0000
0010
0100
0011
0100
0010
0000
1000
0000
0110
0000
0001
0000
0001
0000
1001
0000
0000
0010
0100
0010
0001
0010
,
1100
0000
0000
0000
0000
0000
0000
0000
0000
0000
0000
0000
1000
0000
0000
0000
0010
0000
0000
0000
0000
0000
0000
0000
0101
0000
0000
0000
0000
0000
0000
0000
0010
0000
0000
0000
0000
0000
0000
0000
0000
0000
0000
0000
0000
0000
0000
0000
0001
0000
0000
0000
0000
0000
0010
0000
0000
0000
0000
0000
0100
0000
0000
0000
0000
0000
1000
0000
0000
0000
0000
0000
0011
0000
0000
0000
0000
0000
0000
0000
0000
0000
0000
0000
0000
0000
0000
0000
0100
0000
0000
0000
0000
0000
0000
0000
0010
0000
0000
0000
0000
0000
0000
0000
0100
0000
0000
0000
0000
0000
0000
0000
0000
0000
0000
0000
0000
0000
0000
0000
1010
0000
0000
0000
0000
0000
0000
0000
0000
0000
0000
0000
1000
0000
0000
0000
0100
0000
0000
0000
0000
0000
0000
0000
0011
0000
0000
0000
0000
0000
0000
0000
0000
0000
0000
0000
1000
0000
0000
0000
0000
0000
0100
0000
0000
0000
0000
0000
0010
0000
0000
0000
0000
0000
0000
0000
0000
0000
0000
0000
1001
0000
0000
0000
0000
0000
0000
0000
0000
0000
0000
0000
,
0100
0000
0001
0000
0000
0000
0110
0000
0000
0000
1000
0000
0000
0000
0010
0001
0000
0000
0100
0000
0000
0000
0001
0000
1010
0000
0000
0000
0000
0000
0001
0000
0000
0110
0000
0000
1000
0000
0100
0000
0000
0000
0011
0000
0000
0110
0000
0000
,
1100
0000
0000
0000
0000
0000
0000
0000
0000
0000
0000
0000
0110
0000
0000
0000
0000
0000
0000
0000
0000
0000
0000
0000
0011
0000
0000
0000
0000
0000
0000
0000
0000
0000
0000
0000
0010
0000
0000
0000
0000
0000
0100
0000
0000
0000
0000
0000
1001
0000
0000
0000
0000
0000
0010
0000
0000
0000
0000
0000
0100
0000
0000
0000
0000
0000
0000
0000
0000
0000
0000
0000
0010
0000
0000
0000
0000
0000
0000
0000
0000
0000
0000
0000
1001
0000
0000
0000
0000
0000
0000
0000
0000
0000
0000
0000
0100
0000
0000
0000
0000
0000
0000
0000
0000
0000
0000
0000
0100
0000
0000
0000
0000
0000
0000
0000
0000
0000
0000
0000
1010
0000
0000
0000
0000
0000
0000
0000
0000
0000
0000
0000
0000
0000
0000
0000
0000
0000
0001
0000
0000
0000
0000
0000
0100
0000
0000
0000
0000
0000
0010
0000
0000
0000
0000
0000
1000
0000
0000
0000
0000
0000
0100
0000
0000
0000
0000
0000
1010
0000
0000
0000
0000
0000
0000
0000
0000
0000
0000
0000
0000
0000
0000
0000
0001
0000
0000
0000
0000
0000
0000
0000
,
0010
0000
0000
0000
0000
0000
0000
0000
0100
0000
0000
0000
1000
0000
0000
0000
0000
0000
0000
0000
0000
0000
0000
0000
0011
0000
0000
0000
0000
0000
0000
0000
0100
0000
0000
0000
0000
0000
0000
0000
0010
0000
0000
0000
0000
0000
0000
0000
1001
0000
0000
0000
0000
0000
0000
0000
0000
0000
0000
0000
0000
0000
0000
0000
1000
0000
0000
0000
0000
0000
0000
0000
0100
0000
0000
0000
0000
0000
0000
0000
0010
0000
0000
0000
0000
0000
0000
0000
0000
0000
0000
0000
0000
0000
0000
0000
0001
0000
0000
0000
0000
0000
0000
0000
0000
0000
0000
0000
0000
0000
0000
0000
0010
0000
0000
0000
0000
0000
0000
0000
1100
0000
0000
0000
0000
0000
0000
0000
0001
0000
0000
0000
0000
0000
0000
0000
0010
0000
0000
0000
0000
0000
0000
0000
1001
0000
0000
0000
0000
0000
0000
0000
0000
0000
0000
0000
0110
0000
0000
0000
0000
0000
0000
0000
0000
0000
0000
0000
1001
0000
0000
0000
0000
0000
0010
0000
0000
0000
0000
0000
0100
0000
0000
0000
0000
0000
0010
0000
0000
0000
0000
0000
,
1001
0000
0000
0000
0000
0000
0000
0000
0000
0000
0000
0000
0000
0000
0000
0000
0000
0000
0000
0000
0000
0000
0000
0000
0000
0000
0000
0000
0000
0000
0000
0000
0000
0000
0000
0000
0000
0000
0000
0000
0000
0000
0000
0000
0000
0000
0000
0000
0000
0000
0000
0000
0000
0000
0000
0000
0000
0000
0000
0000
0000
0000
0000
0000
0000
0000
0000
0000
0000
0000
0000
0000
0000
0000
0000
0000
0000
0000
0000
0000
0000
0000
0000
0000
1000
0000
0100
0000
0010
0000
0001
0000
0010
0000
0000
0000
0000
0000
0000
0000
0000
0000
0000
0000
0000
0000
0000
0000
0000
0000
0000
0000
0000
0000
0000
0000
0000
0000
0000
0000
0000
0000
0000
0000
0000
0000
0000
0000
0000
0000
0000
0000
0000
0000
0000
0000
0000
0000
0000
0000
0000
0000
0000
0000
0000
0000
0000
0000
0000
0000
0000
0000
0000
0000
0000
0000
0000
0000
0000
0000
0000
0000
0000
0000
0000
0000
0000
0000
0000
0000
0000
0000
0000
0000
0000
0000
0000
0000
0000
0000
0000
0000
0000
0000
0000
0000
0000
0000
0000
0000
0000
0000
,
1111
1010
0110
0101
1010
0101
0110
1001
0011
1100
0110
1001
0110
1010
0101
0110
,
0101
1010
0110
0101
1010
0110
1001
0101
1010
0110
0101
1010
1100
0101
0110
1010
,
1111
1100
0110
0011
0110
1100
0011
0110
1100
0110
0011
1100
0011
0110
1010
0110
,
0101
1100
0011
0110
0101
1010
0101
0011
1100
0110
1001
1010
1100
0101
0011
0110
,
1111
0011
1100
0110
1001
1010
0101
0011
1100
0110
1001
0101
0110
1100
0110
0011
,
1111
0110
1100
0011
0110
1001
1010
0101
0110
0101
1010
0110
1010
1100
0101
1010
,
1111
1100
0110
0011
0110
1100
0011
0110
1111
0110
0101
1010
0110
1100
0011
0110
,
1111
0000
0000
0000
1010
0000
0000
0000
1111
0000
0000
0000
0101
0000
0000
0000
1111
0000
0000
0000
0011
0000
0000
0000
1111
0000
0000
0110
0000
0000
1111
0000
0000
1001
0000
0000
1111
0000
0000
0000
1111
0000
0000
0000
1111
0000
0000
0000
,
1111
0001
0010
0100
1000
0100
0010
0001
1100
0010
0001
0010
0100
1000
0100
0010
,
1100
0110
0011
0110
1100
1010
0110
0101
0110
1010
0101
0110
1010
0110
0101
0011
,
1001
0010
1100
0110
0011
1000
0100
1000
0110
0011
1100
0110
0101
1010
0110
1001
,
1100
0001
0010
1100
1100
0010
0001
0100
1010
0100
0010
1001
1001
0100
0011
1001
,
0011
0000
0000
0100
0000
0000
1000
0000
0000
0011
0000
0000
0101
0000
0000
1000
0110
0000
0001
0000
1100
0010
0000
0000
0101
0000
0000
1000
0010
0000
0001
0000
0100
0010
0000
0000
1100
0000
0000
0001
0010
0000
0100
0000
1000
0001
0000
0000
,
0110
0001
1000
0011
0011
0100
0010
0100
1001
0010
0100
0001
1100
0010
0100
0010
,
0101
1000
0001
1010
1010
0100
0001
1000
0110
1000
0011
0100
1010
0001
0110
1000
,
0101
0110
1010
0101
0110
1001
0110
0101
1001
0110
1001
1010
0101
1100
0011
0110
,
1001
0010
1100
0001
0110
1000
0011
0100
1001
0010
0100
0010
1100
0001
0110
1100
,
0011
0000
0000
1000
0011
0000
0100
0000
0011
1000
0000
0000
0110
0000
0000
0001
0110
0000
1000
0000
0110
0001
0000
0000
1100
0000
0000
0001
1100
0000
0010
0000
1100
0001
0000
0000
0110
0000
0000
1000
0110
0000
0001
0000
0110
1000
0000
0000
,
0011
0100
1000
0100
0011
0101
1100
1001
1010
0101
0011
1001
1100
0110
1001
0101
,
1001
0100
0001
1000
0110
0101
1010
0110
1001
0110
0011
1010
0101
0110
1010
0110
,
1001
0000
0000
0010
0000
0000
0100
0000
0000
0001
0000
0000
1010
0000
0000
0001
0110
0000
1000
0000
0101
0010
0000
0000
0011
0000
0000
1000
0110
0000
0001
0000
1100
0010
0000
0000
0110
0000
0000
0100
1001
0000
0001
0000
0110
1000
0000
0000
,
0101
0000
0000
0100
1010
0000
0010
0000
0101
1000
0000
0000
1100
0000
0000
0100
0011
0000
0001
0000
1100
0010
0000
0000
1001
0000
0000
1010
0000
0000
0101
0000
0000
0110
0000
0000
1001
0000
0000
0101
0000
0000
0110
0000
0000
1010
0000
0000
,
1001
0100
0010
0101
0110
1010
1100
0101
0011
1100
0110
1001
0011
1100
0110
1010
,
1001
0010
0100
0011
0110
1100
0110
0011
1100
0110
0011
0110
1100
0101
1010
0110
,
1001
0010
1001
0110
1001
0110
1001
0100
1010
0001
1100
0011
1100
0011
1100
0001
,
1001
0100
0010
0001
1001
0100
0010
0001
1001
0100
0010
0001
1001
0100
0010
0001
1001
0100
0010
0001
1000
0100
0010
0001
1000
0100
0010
0001
1000
0100
0010
0001
,
1000
0001
1000
0001
1000
0001
1000
0001
1000
0001
1000
0001
1000
0001
1000
0001
1000
0001
1000
0001
1000
0001
1000
0001
1000
0001
1000
0001
1000
0001
1000
0001
,
1000
0000
0000
0000
0000
0000
0001
0000
0000
0000
0000
0000
1000
0000
0000
0000
0000
0000
0001
0000
0000
0000
0000
0000
1000
0000
0000
0000
0000
0000
0001
0000
0000
0000
0000
0000
1000
0000
0000
0000
0000
0000
0001
0000
0000
0000
0000
0000
1000
0000
0000
0000
0000
0000
0001
0000
0000
0000
0000
0000
1000
0000
0000
0000
0000
0000
0001
0000
0000
0000
0000
0000
1000
0000
0000
0000
0000
0000
0001
0000
0000
0000
0000
0000
1000
0000
0000
0000
0000
0000
0001
0000
0000
0000
0000
0000
1000
0000
0000
0000
0000
0000
0001
0000
0000
0000
0000
0000
1000
0000
0000
0000
0000
0000
0001
0000
0000
0000
0000
0000
1000
0000
0000
0000
0000
0000
0001
0000
0000
0000
0000
0000
1000
0000
0000
0000
0000
0000
0001
0000
0000
0000
0000
0000
1000
0000
0000
0000
0000
0000
0001
0000
0000
0000
0000
0000
1000
0000
0000
0000
0000
0000
0001
0000
0000
0000
0000
0000
1000
0000
0000
0000
0000
0000
0001
0000
0000
0000
0000
0000
1000
0000
0000
0000
0100
0000
0000
0000
0010
0000
0000
0000
,
0001
1000
0100
0011
0000
0000
0000
0000
0000
0000
0000
0000
0000
0000
0000
0000
0000
0000
0000
0000
0000
0000
0000
0000
0000
0000
0000
1001
0000
0000
0000
0000
0000
0000
0000
0000
0000
0000
0000
0000
0000
0000
0000
0000
0000
0000
0000
0000
;
