#TITLE:DROP OUT;
#SUBTITLE:~Death Mix~;
#ARTIST:NW260 (remixed by pn0y);
#TITLETRANSLIT:;
#SUBTITLETRANSLIT:;
#ARTISTTRANSLIT:;
#CREDIT:;
#BANNER:dropoutdeath.png;
#BACKGROUND:dropoutdeath-bg.png;
#LYRICSPATH:;
#CDTITLE:;
#MUSIC:dropoutdeath.mp3;
#OFFSET:-0.040;
#SAMPLESTART:20.040;
#SAMPLELENGTH:12.000;
#SELECTABLE:YES;
#BPMS:0.000=300.000;
#STOPS:380.000=0.280
,380.500=0.280
;
#BGCHANGES:;
// cache tags:
#FIRSTBEAT:20.000;
#LASTBEAT:458.000;
#SONGFILENAME:Songs/Beyond Legends/Drop Out Death Mix/dropoutdeath.sm;
#HASMUSIC:1;
#HASBANNER:1;
#MUSICLENGTH:94.257;
// end cache tags

//---------------dance-single - ----------------
#NOTES:
     dance-single:
     :
     Medium:
     8:
     0.624,1.000,0.233,0.499,0.000,343.000,22.000,47.000,0.000,0.000:  // measure 1
0000
0000
0000
0000
,  // measure 2
0000
0000
0000
0000
,  // measure 3
0000
0000
0000
0000
,  // measure 4
0000
0000
0000
0000
,  // measure 5
0000
0000
0000
0000
,  // measure 6
1000
0001
0100
0000
,  // measure 7
0001
1000
0100
1000
,  // measure 8
0010
0100
0001
0000
,  // measure 9
0100
0001
1000
0100
,  // measure 10
1000
0010
1000
0000
,  // measure 11
0001
0100
0001
0010
,  // measure 12
0100
1000
0001
0000
,  // measure 13
0100
0010
0100
0010
,  // measure 14
0010
1000
0100
0000
,  // measure 15
1000
0001
1000
0001
1000
0001
1000
0001
,  // measure 16
1000
0000
1000
0000
,  // measure 17
0001
0100
0001
0100
0001
0100
0001
0100
,  // measure 18
0001
0000
0001
0000
,  // measure 19
0010
0100
0010
0100
0010
0100
0010
0100
,  // measure 20
0010
0000
0010
0000
,  // measure 21
1000
0100
1000
0100
1000
0100
1000
0100
,  // measure 22
1000
0000
0010
0000
,  // measure 23
0100
0000
0000
0000
,  // measure 24
0001
0000
0010
0000
,  // measure 25
0100
0000
0000
0000
,  // measure 26
1000
0000
0010
0000
,  // measure 27
0100
0000
0001
0000
,  // measure 28
0010
0000
0001
0000
,  // measure 29
0100
0000
0010
0000
,  // measure 30
2000
3000
0002
0003
,  // measure 31
0200
0300
0020
0030
,  // measure 32
0200
0300
0002
0003
,  // measure 33
0020
0030
0200
0300
,  // measure 34
2000
3020
2030
3020
,  // measure 35
0230
0302
0203
0302
,  // measure 36
0023
0032
0023
0032
,  // measure 37
2003
3000
0000
0000
,  // measure 38
1010
0000
0000
0000
,  // measure 39
1100
0000
0000
0000
,  // measure 40
0011
0000
0000
0000
,  // measure 41
0101
0000
0000
0000
,  // measure 42
2020
0030
0002
3000
,  // measure 43
0200
0300
2000
3003
,  // measure 44
1001
0000
0110
0000
,  // measure 45
1001
0000
0110
0000
,  // measure 46
0202
0300
0020
0003
,  // measure 47
0200
0030
2000
3300
,  // measure 48
1001
0000
0110
0000
,  // measure 49
1001
0000
0110
0000
,  // measure 50
1010
0000
0001
0000
,  // measure 51
0011
0000
0100
0000
,  // measure 52
0110
0000
0001
0000
,  // measure 53
0110
0000
1000
0000
,  // measure 54
0000
0000
0000
0000
,  // measure 55
0001
1000
0001
1000
0001
1000
0001
1000
,  // measure 56
0010
1000
0010
1000
,  // measure 57
0010
0100
0010
0100
,  // measure 58
0001
0100
0001
0100
,  // measure 59
0001
0010
0001
0010
,  // measure 60
0100
1000
0100
1000
,  // measure 61
0001
0100
0001
0100
,  // measure 62
0010
0100
0010
0100
,  // measure 63
0001
1000
0001
1000
,  // measure 64
0001
0001
1000
1000
,  // measure 65
0002
0000
2000
0000
,  // measure 66
0000
0000
0000
0000
,  // measure 67
0000
3003
0000
1001
,  // measure 68
0010
0010
0100
0100
,  // measure 69
0020
0000
0200
0000
,  // measure 70
0000
0000
0000
0000
,  // measure 71
0000
0330
0000
0110
,  // measure 72
0010
1000
0001
0100
,  // measure 73
2000
0000
0200
0000
,  // measure 74
0000
0000
0000
0000
,  // measure 75
0000
3300
0000
0101
,  // measure 76
0010
0100
1000
0001
,  // measure 77
0020
0000
2000
0000
,  // measure 78
0000
0000
0000
0000
,  // measure 79
0000
3030
0000
0011
,  // measure 80
0001
1000
0001
0000
1000
0001
1000
0000
,  // measure 81
0001
1000
0001
0000
1000
0001
1000
0000
,  // measure 82
0010
0100
0010
0000
0100
0010
0100
0000
,  // measure 83
0010
0100
0010
0000
0100
0010
0100
0000
,  // measure 84
0001
0010
0001
0000
0010
0001
0010
0000
,  // measure 85
0001
0010
0001
0000
0010
0001
0010
0000
,  // measure 86
0100
1000
0100
0000
1000
0100
1000
0000
,  // measure 87
0100
1000
0100
0000
1000
0100
1000
0000
,  // measure 88
0001
1000
0001
2000
0000
0002
0000
0000
,  // measure 89
0000
0000
0000
3003
,  // measure 90
1000
0001
1000
0002
0000
2000
0000
0000
,  // measure 91
0000
0000
0000
3003
,  // measure 92
0001
0100
0001
0200
0000
0002
0000
0000
,  // measure 93
0000
0000
0000
0303
,  // measure 94
1000
0100
1000
0200
0000
2000
0000
0000
,  // measure 95
0000
0000
0000
3300
,  // measure 96
1000
0001
0100
0010
0100
0010
1000
0000
,  // measure 97
0100
0010
0010
0001
,  // measure 98
0001
1000
1000
0100
,  // measure 99
0100
0010
0010
0100
,  // measure 100
0100
0001
0001
0100
,  // measure 101
0100
1000
1000
0010
,  // measure 102
0010
0100
0100
0001
,  // measure 103
0001
0100
0100
1000
,  // measure 104
1000
0100
0001
1000
,  // measure 105
0100
0010
0100
0010
,  // measure 106
0100
1000
0001
1000
,  // measure 107
0001
0100
0001
0100
,  // measure 108
0001
1000
0010
1000
,  // measure 109
0010
0001
1000
0010
,  // measure 110
0100
0010
0100
1000
,  // measure 111
0010
0001
0100
0010
,  // measure 112
1000
0001
1000
0100
,  // measure 113
0001
0000
0000
0000
,  // measure 114
0000
0000
0000
0000
,  // measure 115
0010
0010
0010
0000
;

//---------------dance-single - ----------------
#NOTES:
     dance-single:
     :
     Hard:
     10:
     0.858,1.000,0.509,0.361,0.000,484.000,48.000,34.000,0.000,0.000:  // measure 1
0000
0000
0000
0000
,  // measure 2
0000
0000
0000
0000
,  // measure 3
0000
0000
0000
0000
,  // measure 4
0000
0000
0000
0000
,  // measure 5
0000
0000
0000
0000
,  // measure 6
1000
0010
0110
0000
,  // measure 7
0010
1000
0001
0010
,  // measure 8
0001
0010
0110
0000
,  // measure 9
0010
0001
1000
0010
,  // measure 10
0100
1000
1001
0000
,  // measure 11
0100
0010
1000
0001
,  // measure 12
0100
0001
1001
0000
,  // measure 13
0010
0100
0001
0000
,  // measure 14
0100
0010
1000
0000
,  // measure 15
1000
0001
1000
0001
0010
0100
0010
0100
,  // measure 16
0010
0100
1000
0000
,  // measure 17
0001
1000
0001
1000
0010
0100
0010
0100
,  // measure 18
0001
1000
0100
0000
,  // measure 19
0010
0100
0010
0100
1000
0001
1000
0001
,  // measure 20
1000
0001
0100
0000
,  // measure 21
0010
0100
0010
0100
0001
1000
0001
1000
,  // measure 22
0010
0000
0000
1000
0000
0000
0001
0000
,  // measure 23
0110
0000
0000
0000
,  // measure 24
0010
0000
0000
0001
0000
0000
1000
0000
,  // measure 25
0110
0000
0000
0000
,  // measure 26
0001
0000
0000
1000
0000
0000
0100
0000
,  // measure 27
1000
0000
0000
0001
0000
0000
1000
0000
,  // measure 28
1000
0000
0000
0001
0000
0000
0100
0000
,  // measure 29
0001
0000
0000
1000
0000
0000
0001
0000
,  // measure 30
0001
0000
0000
1000
0000
0000
0100
0000
,  // measure 31
1000
0000
0000
0001
0000
0000
1000
0000
,  // measure 32
1000
0000
0000
0001
0000
0000
0100
0000
,  // measure 33
0001
0000
0000
1000
0000
0000
0001
0000
,  // measure 34
0020
2030
3002
0023
,  // measure 35
0230
2300
3002
0203
,  // measure 36
0320
2030
3200
0320
,  // measure 37
0031
1001
1001
0000
,  // measure 38
0001
1000
0100
1000
,  // measure 39
0001
0100
0001
1000
,  // measure 40
0100
1000
0001
0100
,  // measure 41
0001
1000
0100
1000
,  // measure 42
0010
1000
0010
1000
0001
0100
0001
0100
,  // measure 43
0001
0010
0001
0010
0100
1000
0100
1000
,  // measure 44
0001
0100
0001
1000
,  // measure 45
0100
1000
0001
0100
,  // measure 46
0001
0100
0001
0100
0010
1000
0010
1000
,  // measure 47
0001
0010
0001
0010
0100
1000
0100
1000
,  // measure 48
0001
1000
0100
1000
,  // measure 49
0001
0100
0001
1000
,  // measure 50
0100
1000
0001
0100
,  // measure 51
0001
1000
0100
1000
,  // measure 52
0001
0100
0001
1000
,  // measure 53
0100
1000
0001
0100
,  // measure 54
0000
0000
0000
0000
,  // measure 55
0001
1000
0001
1000
0001
1000
0001
1000
,  // measure 56
0010
1000
0010
0001
,  // measure 57
0010
1000
0001
1000
,  // measure 58
0100
1000
0010
1000
,  // measure 59
0001
0010
0001
0100
,  // measure 60
0001
0010
0001
1000
,  // measure 61
0010
1000
0100
1000
,  // measure 62
0010
1000
0001
0010
,  // measure 63
0001
0100
0001
0010
,  // measure 64
1001
0110
1001
0110
,  // measure 65
2000
0000
0002
0000
,  // measure 66
0000
0000
0000
0000
,  // measure 67
3003
1001
0000
1001
,  // measure 68
1001
0110
1001
0110
,  // measure 69
0002
0000
2000
0000
,  // measure 70
0000
0000
0000
0000
,  // measure 71
3003
1001
0000
1001
,  // measure 72
1010
0101
0011
1100
,  // measure 73
2002
3003
0220
0000
,  // measure 74
0000
0000
0000
0000
,  // measure 75
0330
0110
0000
0110
,  // measure 76
0011
1100
1010
0101
,  // measure 77
0220
0330
2002
0000
,  // measure 78
0000
0000
0000
0000
,  // measure 79
3003
1001
0000
0000
,  // measure 80
0010
0100
0010
0100
1000
0001
1000
0001
,  // measure 81
0100
0001
0100
0001
1000
0010
1000
0010
,  // measure 82
0100
0010
0100
0010
1000
0001
1000
0001
,  // measure 83
0010
0001
0010
0001
1000
0100
1000
0100
,  // measure 84
1000
0001
1000
0001
0010
0100
0010
0100
,  // measure 85
1000
0010
1000
0010
0100
0001
0100
0001
,  // measure 86
1000
0001
1000
0001
0100
0010
0100
0010
,  // measure 87
1000
0100
1000
0100
0010
0001
0010
0001
,  // measure 88
0100
0110
0220
0000
,  // measure 89
0000
0000
0000
0330
,  // measure 90
0100
0110
0220
0000
,  // measure 91
0000
0000
0000
0330
,  // measure 92
0010
0110
0220
0000
,  // measure 93
0000
0000
0000
0330
,  // measure 94
0010
0110
0220
0000
,  // measure 95
0000
0000
0000
0330
,  // measure 96
1001
0110
0001
1000
0001
1000
0020
0000
,  // measure 97
0200
0330
1000
0010
1000
0010
0100
0001
,  // measure 98
0100
0001
0010
0100
0010
0100
1000
0001
,  // measure 99
1000
0001
0100
0010
0100
0010
1000
0010
,  // measure 100
1000
0010
0100
0001
0100
0001
0010
0001
,  // measure 101
0010
0001
1000
0100
1000
0100
0010
0100
,  // measure 102
0010
0100
1000
0010
1000
0010
1000
0100
,  // measure 103
1000
0100
0010
0001
0010
0001
0100
0010
,  // measure 104
0100
0010
1000
0001
1000
0001
1000
0010
,  // measure 105
1000
0010
1000
0001
0100
0010
1000
0100
,  // measure 106
0010
0001
0100
0010
1000
0001
0010
0100
,  // measure 107
1000
0010
0100
0001
0010
0001
1000
0001
,  // measure 108
0100
0010
0100
0001
0010
0100
1000
0100
,  // measure 109
0010
0001
1000
0001
0100
0010
1000
0010
,  // measure 110
0100
0001
0010
0100
1000
0010
0100
0001
,  // measure 111
1000
0010
0100
0010
0001
0010
1000
0100
,  // measure 112
0010
1000
0001
0100
0010
0001
0100
0010
,  // measure 113
0001
0010
0000
0000
0000
0000
0000
0000
,  // measure 114
0000
0000
0000
0000
,  // measure 115
1001
0110
1001
0000
;
