#TITLE:Mobile Fighter G Gundam;
#SUBTITLE:- King of Hearts;
#ARTIST:Sunrise Inc.;
#TITLETRANSLIT:;
#SUBTITLETRANSLIT:;
#ARTISTTRANSLIT:;
#CREDIT:;
#BANNER:KingLogo.png;
#BACKGROUND:KingBG.png;
#LYRICSPATH:;
#CDTITLE:;
#MUSIC:G-Gundam(BGM)_KingOfHearts.mp3;
#OFFSET:-1.100;
#SAMPLESTART:34.940;
#SAMPLELENGTH:12.000;
#SELECTABLE:YES;
#BPMS:0.000=143.900;
#STOPS:;
#BGCHANGES:;
// cache tags:
#FIRSTBEAT:0.000;
#LASTBEAT:238.500;
#SONGFILENAME:Songs/Anime Songs/G-Gundam(King of Hearts)/G-Gundam(King of Hearts).sm;
#HASMUSIC:1;
#HASBANNER:1;
#MUSICLENGTH:106.352;
// end cache tags

//---------------dance-single - ----------------
#NOTES:
     dance-single:
     :
     Easy:
     4:
     0.324,0.336,0.310,0.000,0.545,208.000,33.000,0.000,0.000,0.000:  // measure 1
1000
1000
0010
0001
,  // measure 2
0100
0001
0001
1000
,  // measure 3
0010
0010
0001
0001
,  // measure 4
0100
1000
0010
1000
,  // measure 5
0001
0000
0010
0000
0001
0001
0000
0000
,  // measure 6
0100
0000
0100
0000
0100
0000
0000
0000
0000
1000
0000
0000
0000
0010
0000
0000
,  // measure 7
0000
0100
0000
0000
0000
0100
0000
0000
0000
0010
0000
0000
0000
0001
0000
0000
,  // measure 8
0000
1000
0000
0000
0000
0100
0000
0000
0000
0100
0000
0000
0000
0000
0000
0000
,  // measure 9
1100
0000
0000
0000
0000
0010
0000
0000
0000
0010
0000
0000
0000
0010
0000
0000
,  // measure 10
0000
0000
1100
0000
0000
0000
0000
0001
0000
0000
0000
0001
0000
0000
0000
0000
,  // measure 11
0110
1000
1000
1000
,  // measure 12
0011
0100
0100
0100
,  // measure 13
1010
0001
0001
0001
,  // measure 14
1100
0100
0100
0100
,  // measure 15
0101
0010
0010
0010
,  // measure 16
0100
0100
0100
0100
,  // measure 17
1100
0000
0000
0000
0000
0001
0000
0000
0000
0001
0000
0000
0000
0001
0000
0000
,  // measure 18
0000
0000
0101
0000
0000
0000
0000
1000
0000
0000
0000
1000
0000
0000
0000
0000
,  // measure 19
1100
0000
0000
0000
0000
0010
0000
0000
0000
0010
0000
0000
0000
0010
0000
0000
,  // measure 20
0000
0000
0011
0000
0000
0000
0000
0100
0000
0000
0000
0100
0000
0000
0000
0000
,  // measure 21
1010
0001
0001
0001
,  // measure 22
0101
0000
0000
0000
0000
0000
0000
0100
0000
0000
0000
0100
0000
0000
0000
0100
,  // measure 23
0000
0000
0000
1001
0000
0000
0000
0010
0000
0000
0000
0010
0000
0000
0000
0010
,  // measure 24
0000
0000
0000
0010
0000
0000
0000
0010
0000
0000
0000
0000
0000
0000
0000
0010
,  // measure 25
0000
0000
0000
1000
0000
0000
0000
0000
0000
0001
0000
0000
0000
0100
0000
0000
,  // measure 26
0000
0100
0000
0000
0000
0001
0000
0000
0000
0001
0000
0000
0000
1000
0000
0000
,  // measure 27
0000
1000
0000
0000
0000
0001
0000
0000
0000
0000
0000
0000
0000
0100
0000
0000
,  // measure 28
0000
0001
0000
0000
0000
0010
0000
0000
0000
0000
0000
0000
0000
0000
0000
0100
,  // measure 29
0000
0000
0000
0100
0000
0000
0000
0000
0000
0100
0000
0000
0000
0100
0000
0000
,  // measure 30
0000
0010
0000
0000
0000
1000
0000
0000
0000
1000
0000
0000
0000
0010
0000
0000
,  // measure 31
0000
0010
0000
0000
0000
0010
0000
0000
0000
0010
0000
0000
0000
0010
0000
0000
,  // measure 32
0000
0010
0000
0000
0000
0101
0000
0000
0000
0000
0000
0000
0000
0000
0000
0000
,  // measure 33
0000
1000
0000
0000
0000
0001
0000
0000
0000
0000
0000
0000
0000
0000
0000
0000
,  // measure 34
0000
1000
0000
0000
0000
0001
0000
0000
0000
0100
0000
0000
0000
0001
0000
0000
,  // measure 35
0100
0000
0010
0000
0000
0000
1000
1000
,  // measure 36
0000
0000
0010
0000
0000
0000
0000
0000
0000
0000
0000
0000
0000
0001
0000
0000
,  // measure 37
0000
0010
0000
0000
0000
0000
0000
0000
0001
0000
0000
0000
0001
0000
0000
0000
,  // measure 38
0001
0000
0100
0100
,  // measure 39
0000
0010
0010
0010
,  // measure 40
0010
1000
0100
1000
,  // measure 41
0000
0101
0000
0000
0000
0000
0000
0000
0000
0100
0000
0000
0000
0000
0000
0000
,  // measure 42
0000
1100
0000
0000
0000
0010
0000
0000
0000
0010
0000
0000
0000
0010
0000
0000
,  // measure 43
0000
0101
0000
0000
0000
0000
0000
0000
0000
1000
0000
0000
0000
0000
0000
0000
,  // measure 44
0000
0011
0000
0000
0000
1000
0000
0000
0000
1000
0000
0000
0000
1000
0000
0000
,  // measure 45
0000
0101
0000
0000
0000
0100
0000
0000
0000
0100
0000
0000
0000
0100
0000
0000
,  // measure 46
0000
1010
0000
0000
0000
0010
0000
0000
0000
0010
0000
0000
0000
0010
0000
0000
,  // measure 47
0000
1100
0000
0000
0000
0100
0000
0000
0000
0100
0000
0000
0000
0100
0000
0000
,  // measure 48
0000
0001
0000
0000
0000
1000
0000
0000
0000
0000
0000
0000
0000
0000
0000
0000
,  // measure 49
0000
1010
0000
0000
0000
0000
0000
0000
0000
0100
0000
0000
0000
0000
0000
0000
,  // measure 50
0000
0101
0000
0000
0000
0010
0000
0000
0000
0010
0000
0000
0000
0010
0000
0000
,  // measure 51
0000
0110
0000
0000
0000
0000
0000
0000
0000
1000
0000
0000
0000
0000
0000
0000
,  // measure 52
0000
0101
0000
0000
0000
0100
0000
0000
0000
0100
0000
0000
0000
0100
0000
0000
,  // measure 53
0000
0000
0101
0000
0000
0000
0000
0100
0000
0000
0000
0100
0000
0000
0000
0000
,  // measure 54
1100
0000
0000
0000
0000
0000
0000
0000
0000
0100
0000
0000
0000
0100
0000
0000
,  // measure 55
0000
0110
0000
0000
0000
0001
0000
0000
0000
1100
0000
0000
0000
1000
0000
0000
,  // measure 56
0000
0101
0000
0000
0000
0000
0000
0000
0000
0000
0000
0000
0011
0000
0000
0000
,  // measure 57
0000
0000
0000
0000
0000
1001
0000
0000
0000
0000
0001
0000
0000
0000
0001
0000
,  // measure 58
0000
0001
0000
0100
0000
0100
0000
0100
,  // measure 59
0000
0000
1000
1000
0000
0010
0000
0010
,  // measure 60
0000
0010
0000
0001
0001
1000
0000
0000
;

//---------------dance-single - ----------------
#NOTES:
     dance-single:
     :
     Medium:
     6:
     0.404,0.477,0.376,0.000,0.414,261.000,40.000,0.000,0.000,0.000:  // measure 1
1000
0000
0100
0000
1000
0000
0100
0000
0001
0000
0000
0000
1000
0000
0000
0100
,  // measure 2
0000
0100
0000
0000
0001
0000
0000
0000
0001
0000
0000
0000
1000
0000
0000
0000
,  // measure 3
0001
0000
0010
0000
0001
0000
0010
0000
1000
0000
0000
0000
1000
0000
0000
0010
,  // measure 4
0000
0010
0000
0000
1000
0000
0000
0000
0100
0000
0000
0000
0010
0000
0000
0000
,  // measure 5
0001
0000
0100
0000
0010
0010
0000
0000
,  // measure 6
1000
0000
1000
0000
1000
0000
0000
0000
0000
0010
0000
0000
0000
0100
0000
0000
,  // measure 7
0000
0001
0000
0000
0000
0100
0000
0000
0000
0001
0000
0000
0000
1000
0000
0000
,  // measure 8
0000
0001
0000
0000
0010
0000
0010
0000
0000
0000
0000
0100
0000
0100
0000
0000
,  // measure 9
0101
0000
0000
0010
0100
0010
0100
0010
,  // measure 10
0000
1001
0000
0100
0001
0100
0001
0000
,  // measure 11
1010
0000
0000
0010
1000
0010
1000
0000
,  // measure 12
1001
0000
0000
0001
0010
0001
0010
0000
,  // measure 13
1001
0000
0000
0010
1000
0010
1000
0000
,  // measure 14
0110
0000
0000
0100
0001
0100
0001
0000
,  // measure 15
1100
0000
0000
0100
0010
0100
0010
0000
,  // measure 16
0000
0100
0000
0001
0000
0100
0000
0000
0000
0000
0000
0000
0000
0000
0000
0000
,  // measure 17
0000
1010
0000
0000
0000
0010
0000
0000
0000
0010
0000
0000
0000
0010
0000
0000
,  // measure 18
0000
0000
0011
0000
0000
0000
0000
0100
0000
0000
0000
0100
0000
0000
0000
0000
,  // measure 19
0101
0000
0000
0000
0000
1000
0000
0000
0000
1000
0000
0000
0000
1000
0000
0000
,  // measure 20
0000
0000
1001
0000
0000
0000
0000
0100
0000
0000
0000
0100
0000
0000
0000
0000
,  // measure 21
0101
0000
0000
0100
0010
0100
0010
0000
,  // measure 22
1100
0000
0010
0100
,  // measure 23
0100
1001
0000
0000
0100
0000
0100
0000
,  // measure 24
1000
0100
1000
0000
0000
0000
0000
0010
,  // measure 25
0010
0000
0000
0001
0000
0000
0000
0000
0000
0000
1000
0000
0000
0000
0100
0000
,  // measure 26
0010
0000
0100
0000
0000
0000
0001
0000
1000
0000
0001
0000
0000
0100
0000
0000
,  // measure 27
0000
0100
0000
0000
0000
0001
0000
0000
0000
0000
0000
0000
0000
1000
0000
0000
,  // measure 28
0000
0001
0000
0010
0000
0010
0000
0000
0000
0000
0000
0000
0000
0000
0000
1000
,  // measure 29
0000
0001
0000
1000
0000
0000
0000
0000
0000
1000
0000
0000
0000
0000
0010
0000
,  // measure 30
0100
0000
0010
0000
0100
0000
0000
0000
1000
0000
1000
0000
0000
0001
0000
0010
,  // measure 31
0000
0001
0000
0010
0000
0001
0000
1000
0000
0001
0000
1000
0000
0001
0000
1000
,  // measure 32
0000
0001
0000
1000
0000
0001
0000
0000
0000
0000
0000
0000
0000
0000
0000
0000
,  // measure 33
0000
1000
0000
0100
0000
0001
0000
0000
0000
0000
0000
0000
0000
0000
0000
0000
,  // measure 34
0000
0001
0000
0100
0000
1000
0000
0000
0000
0100
0000
0000
0000
0001
0000
0000
,  // measure 35
0010
0000
1000
0000
0000
0000
0100
0100
,  // measure 36
0000
0000
0001
0000
0000
0000
0000
0000
0000
0000
0000
0000
0000
0100
0000
0000
,  // measure 37
0000
1000
0000
0000
0000
0000
0000
0000
0010
0000
0100
0000
0010
0000
1000
0000
,  // measure 38
0010
1000
0000
0000
0010
0100
0010
0100
,  // measure 39
0000
1000
1000
1000
,  // measure 40
1000
0001
0100
1000
,  // measure 41
0000
0101
0000
0000
0000
0000
0000
0000
0000
0100
0000
0000
0000
0000
0000
0000
,  // measure 42
0000
1001
0000
0000
0000
0000
0100
0000
0010
0000
0100
0000
0010
0000
0000
0000
,  // measure 43
0000
1001
0000
0000
0000
0000
0000
0000
0000
0100
0000
0000
0000
0000
0000
0000
,  // measure 44
0000
1001
0000
0000
0000
0000
0001
0000
0100
0000
0001
0000
0100
0000
0000
0000
,  // measure 45
0000
1001
0000
0000
0000
0000
0100
0000
1000
0000
0100
0000
1000
0000
0000
0000
,  // measure 46
0000
0101
0000
0000
0000
0000
0010
0000
0100
0000
0010
0000
0100
0000
0000
0000
,  // measure 47
0000
1100
0000
0000
0000
0000
0100
0000
0010
0000
0100
0000
0010
0000
0000
0000
,  // measure 48
0100
0000
0001
0000
0100
0000
0000
0000
0000
0100
0000
0000
0000
0100
0000
0000
,  // measure 49
0000
1010
0000
0000
0000
0000
0000
0000
0000
0100
0000
0000
0000
0000
0000
0000
,  // measure 50
0000
1001
0000
0000
0000
0000
0100
0000
0001
0000
0100
0000
0001
0000
0000
0000
,  // measure 51
0000
1001
0000
0000
0000
0000
0000
0000
0000
0010
0000
0000
0000
0000
0000
0000
,  // measure 52
0000
1001
0000
0000
0000
0000
1000
0000
0100
0000
1000
0000
0100
0000
0000
0000
,  // measure 53
0000
1100
0000
0010
0100
0010
0100
0000
,  // measure 54
1001
0000
0000
0000
0000
0100
0000
0000
0000
0100
0000
0000
0000
0100
0000
0000
,  // measure 55
0000
0101
0000
0000
0000
0010
0000
0000
0000
1001
0000
0000
0000
0100
0000
0000
,  // measure 56
0000
0101
0000
0000
0000
0000
0000
0000
0000
0000
0000
0000
0110
0000
0000
0000
,  // measure 57
0000
0000
0000
0000
0000
1100
0000
0000
0000
0000
0001
0000
0000
0000
0001
0000
,  // measure 58
0000
0001
0000
0100
0001
0100
0001
0100
,  // measure 59
0001
0000
0011
0011
0000
0110
0000
1100
,  // measure 60
0000
0101
0000
1010
1010
0011
0000
0000
;

//---------------dance-single - ----------------
#NOTES:
     dance-single:
     :
     Hard:
     8:
     0.508,0.673,0.329,0.000,0.639,343.000,35.000,0.000,0.000,0.000:  // measure 1
0001
0010
0001
0010
0000
1100
0000
0000
0001
0000
0000
0000
1000
0000
0000
0001
,  // measure 2
0000
0001
0000
0000
0100
0000
0000
0000
0100
0000
0000
0000
1000
0000
0000
0000
,  // measure 3
1000
0100
1000
0100
0000
0011
0000
0000
1000
0000
0000
0000
1000
0000
0000
0100
,  // measure 4
0000
0100
0000
0000
0010
0000
0000
0000
0100
0000
0000
0000
0001
0000
0000
0000
,  // measure 5
0100
0000
0010
0000
1000
1000
0000
0000
,  // measure 6
0001
0000
0001
0000
0001
0000
0000
0000
0000
0100
0000
0000
0000
0010
0000
0000
,  // measure 7
0000
0001
0000
0000
0000
1000
0000
0000
0000
0010
0000
0000
0000
0100
0000
0000
,  // measure 8
0000
0001
0000
0000
0100
0000
0100
0000
0000
0000
0000
0010
0000
0010
0000
0000
,  // measure 9
0100
0010
0000
0000
0000
0000
0010
0000
0100
0000
0010
0000
1000
0000
0100
0000
,  // measure 10
0000
0000
0001
1000
0000
0000
0100
0000
0010
0000
0100
0000
0010
0000
0000
0000
,  // measure 11
1000
0100
0000
0000
0000
0000
0010
0000
0100
0000
0010
0000
1000
0000
0000
0000
,  // measure 12
0001
0100
0000
0000
0000
0000
1000
0000
0010
0000
0100
0000
0001
0000
0000
0000
,  // measure 13
1000
0001
0000
0000
0000
0000
0100
0000
0010
0000
1000
0000
0100
0000
0000
0000
,  // measure 14
0010
1000
0000
0000
0000
0000
0010
0000
1000
0000
0001
0000
0100
0000
0000
0000
,  // measure 15
0001
0100
0000
0000
0000
0000
0100
0000
0010
0000
1000
0000
0100
0000
0000
0000
,  // measure 16
0000
1000
0100
0001
0100
1000
0100
0000
0000
0000
0000
0000
0000
0000
0000
0000
,  // measure 17
0000
1000
0001
0000
0000
0000
0000
0000
0101
0000
0000
1100
0000
0000
0000
0110
,  // measure 18
0000
0001
1000
0000
0000
0110
0000
0000
0000
0000
0000
0000
0000
0000
0000
0000
,  // measure 19
0001
1000
0000
0000
0000
0000
0000
0000
0110
0000
0000
1010
0000
0000
0000
0011
,  // measure 20
0000
1000
0001
0000
0000
1100
0000
0000
0000
0000
0000
0000
0000
0000
0000
0000
,  // measure 21
0010
1000
0000
0000
0000
0000
0100
0000
0001
0000
1000
0000
0010
0000
0000
0000
,  // measure 22
0001
0100
0000
0000
0000
0000
0000
0000
0010
0000
0000
0000
0100
0000
0000
0000
,  // measure 23
0100
0000
0001
1000
0000
0000
0000
0000
0100
0000
0000
0000
0100
0000
0000
0000
,  // measure 24
0000
0001
0010
1000
0010
0001
0010
0000
0000
0000
0000
0000
0000
0000
0100
0000
,  // measure 25
0010
0000
0000
1100
0000
0000
0000
0000
0000
0000
1000
0000
0000
0001
0000
0100
,  // measure 26
0010
0100
0000
1000
0000
0001
0000
0000
1000
0100
1000
0000
0000
0010
0000
0000
,  // measure 27
0000
0010
0000
0100
0000
0010
0000
0000
0000
0100
0000
0000
0000
1000
0000
0000
,  // measure 28
0000
0001
0000
0010
0000
0010
0000
0000
0000
0000
0000
0000
0000
0000
0000
1000
,  // measure 29
0000
0001
0000
1000
0000
0000
0000
0000
0000
1000
0000
0000
0010
0000
0010
0000
,  // measure 30
0100
0010
1000
0100
0001
0000
0000
0000
1000
0100
1000
0100
0000
0000
0001
0000
,  // measure 31
0010
0001
0100
1000
0010
0100
1000
0001
,  // measure 32
0010
0000
0100
0000
0000
1100
0000
0000
0000
0000
0000
0000
0000
0000
0000
0000
,  // measure 33
0000
1010
0000
0100
0000
1001
0000
0000
0000
0000
0000
0000
0000
0000
0000
0000
,  // measure 34
0000
0011
0000
0100
0000
1100
0000
0000
0000
0010
0000
0000
0000
0100
0000
0000
,  // measure 35
0001
0000
1000
0000
0000
0000
0010
0010
,  // measure 36
0000
0000
0001
0000
0000
0000
0000
0000
0000
0000
0000
0000
0000
0100
1000
0000
,  // measure 37
0000
1000
0010
0000
0000
0000
0000
0000
0001
0100
0001
0100
0001
0100
1000
0100
,  // measure 38
1000
0100
1000
0100
0000
0000
0000
0001
0010
0001
0010
0001
0010
1000
0010
1000
,  // measure 39
0010
1000
0000
0000
0000
0000
1100
0000
0100
0000
1100
0000
0000
0000
0110
0000
,  // measure 40
0100
0110
0000
0011
0010
1010
0000
0011
,  // measure 41
1000
0100
0000
0000
0000
0100
0000
0100
0000
0110
0000
0000
0000
0000
0000
0000
,  // measure 42
1000
0001
0000
0000
0000
0000
0100
0000
0010
0000
0100
0000
0001
0000
0000
0000
,  // measure 43
1000
0010
0000
0000
0000
1000
0000
1000
0000
0101
0000
0000
0000
0000
0000
0000
,  // measure 44
0010
0001
0000
0000
0000
0000
1000
0000
0100
0000
0001
0000
0010
0000
0000
0000
,  // measure 45
0100
0001
0000
0000
0000
0000
0001
0000
0010
0000
1000
0000
0100
0000
0000
0000
,  // measure 46
0010
0001
0000
0000
0000
0000
0100
0000
0010
0000
1000
0000
0001
0000
0000
0000
,  // measure 47
0010
1000
0000
0000
0100
0000
0010
0000
0100
0000
0001
0000
0010
0000
0000
0000
,  // measure 48
0100
1000
0100
1000
0001
0100
0000
0000
0000
0000
0000
0000
0000
0000
0000
0000
,  // measure 49
0000
0010
1000
0000
0000
0001
0000
0001
0000
1100
0000
0000
0000
0000
0000
0000
,  // measure 50
1000
0001
0000
0000
0010
0000
1000
0000
0100
0000
0010
0000
0100
0000
0000
0000
,  // measure 51
0100
1000
0000
0000
0000
0100
0000
0100
0000
0110
0000
0000
0000
0000
0000
0000
,  // measure 52
0100
0001
0000
0000
0000
0000
1000
0000
0100
0000
0010
0000
0100
0000
0000
0000
,  // measure 53
0000
0001
1000
0000
0000
0000
0010
0000
0100
0000
0010
0000
0001
0000
0000
0000
,  // measure 54
0000
1000
0010
0000
0000
0000
0000
0000
0000
0100
0000
0000
0000
0100
0000
0000
,  // measure 55
0000
1000
0001
0000
0000
0100
0000
0000
0000
1000
0001
0100
0000
0000
0000
0000
,  // measure 56
1000
0001
0000
0000
0000
0000
0000
0000
0000
0000
0000
0000
0110
0000
0000
0000
,  // measure 57
0000
0000
0000
0000
0000
1100
0000
0000
0000
0000
0001
1000
0000
0000
0001
1000
,  // measure 58
0000
0000
0001
1000
0000
0000
0100
0010
0100
0010
0100
0010
0100
0010
0100
0010
,  // measure 59
0100
0000
0000
0110
0010
1100
0000
0110
,  // measure 60
0100
0101
0000
1100
0100
0011
0000
0000
;
