#TITLE:Need The Speed;
#SUBTITLE:;
#ARTIST:m1dy;
#TITLETRANSLIT:;
#SUBTITLETRANSLIT:;
#ARTISTTRANSLIT:;
#CREDIT:Aoreo;
#BANNER:Bn-Speed.png;
#BACKGROUND:Bg-Speed.png;
#LYRICSPATH:;
#CDTITLE:;
#MUSIC:Need_The_Speed.ogg;
#OFFSET:0.555;
#SAMPLESTART:60.840;
#SAMPLELENGTH:15.000;
#SELECTABLE:YES;
#BPMS:0.000=222.000;
#STOPS:;
#BGCHANGES:;
// cache tags:
#FIRSTBEAT:23.000;
#LASTBEAT:564.000;
#SONGFILENAME:Songs/SPEEEDCOOOORE/Need The Speed - [Aoreo]/Need_The_Speed.sm;
#HASMUSIC:1;
#HASBANNER:1;
#MUSICLENGTH:160.426;
// end cache tags

//---------------dance-single - Aoreo----------------
#NOTES:
     dance-single:
     Aoreo:
     Challenge:
     15:
     1.000,1.000,0.411,0.630,0.801,1186.000,66.000,101.000,4.000,24.000:

0000
0000
0000
0000
,
0000
0000
0000
0000
,
0000
0000
0000
0000
,
0000
0000
0000
0000
,
0000
0000
0000
0000
,
0000
0000
0000
MMMM
,
0100
0001
0100
0001
1000
0100
1000
0001
0100
0001
0100
0010
1000
0010
0100
0001
,
0200
0000
0000
0000
0000
0000
0000
0300
,
0001
0000
0100
0000
0001
0000
0100
0000
0000
0001
0000
0000
0100
0000
0000
0001
0000
0000
1000
0000
0000
0010
0000
0000
0100
0000
0000
0010
0000
0000
1000
0000
0000
0001
0000
0000
0100
0000
0000
0001
0000
0000
1000
0000
0000
0010
0000
0000
,
1000
0001
0010
0100
0010
0001
1000
0100
,
1000
0010
0100
0001
1000
0010
1000
0001
,
0100
0001
0010
0100
1000
0010
0100
0001
,
1000
0000
0010
0000
0100
0000
0001
0000
1000
0000
0001
0000
0100
0000
0001
0010
,
0100
1000
0010
1000
0001
1000
0100
0010
,
0001
0010
0100
1000
0010
0100
0001
1000
,
0001
0100
0001
0100
0010
1000
0010
1000
0001
0010
0001
1000
0010
0100
0010
1000
,
0002
0003
0002
0003
0020
0030
0020
0030
,
0100
1000
0010
0100
0001
1000
0010
0100
,
0010
0100
0001
1000
0100
0010
0001
1000
,
0010
0100
0001
1000
0100
1000
0010
0100
,
0001
0000
0100
0000
0010
0000
1000
0000
0001
0000
0100
0000
0001
0000
1000
0100
,
1000
0010
0100
0001
1000
0100
1000
0010
,
0100
0001
0010
0100
0010
0001
1000
0010
,
0220
0330
0202
0303
0220
0330
2020
3030
,
1000
0000
0010
0000
0100
0000
0001
0000
1000
0001
1000
0001
1000
0001
1000
0001
,
1000
0000
0000
0001
0000
0000
0010
0000
0000
0100
0000
0000
1000
0000
0000
0010
0100
0010
0100
0000
0000
0010
0000
0000
,
1000
0000
0001
0000
0100
0000
0010
0000
1000
0000
0100
0000
1000
0000
0001
0100
,
0001
0000
0100
0000
0010
0000
1000
0000
0100
0000
1000
0000
0001
0000
0100
0001
,
0100
0000
0001
0000
0100
0000
0001
0000
0000
0000
0000
0000
0100
0000
0000
0000
0000
0000
0010
0000
0000
0000
0000
0000
1000
0000
0000
0000
0000
0000
0001
0000
0000
0000
0000
0000
1000
0000
0000
0001
0000
0000
1000
0000
0001
0000
1000
0000
,
0002
0000
0000
1003
0000
0000
0100
0000
0000
0010
0000
0000
0001
0000
0000
1000
0000
0000
0010
0000
0000
1000
0001
1000
,
0001
0100
0100
0100
0100
0001
1000
0010
,
0200
0302
0023
0230
2300
3020
0230
0302
,
2003
0000
3001
0100
0001
0000
0010
0000
0100
1000
0100
0000
2000
0000
0000
0000
,
3001
0100
0001
0100
0010
1000
0010
1000
0001
0100
0010
1000
0010
0100
0001
1000
,
0001
0000
0000
0000
,
1001
1000
0010
0100
0001
0010
0100
1000
,
0010
0100
0001
1000
0010
0100
0010
1000
,
0001
0100
0010
1000
0100
1000
0010
0100
,
0001
0100
0001
0100
0010
1000
0010
1000
0001
0100
0010
1000
0010
0100
0001
0100
,
0001
0100
0010
1000
0100
0010
0100
1000
,
0010
0100
0010
0100
0001
1000
0100
1000
,
1001
0000
0001
0000
0101
0000
0100
0000
0001
0100
0001
1000
0010
0100
0010
1000
,
0001
1000
0001
0100
0010
0100
0001
1000
0001
0010
0100
1000
0001
0010
0100
1000
,
0001
1000
0020
0130
0001
0020
0130
2000
,
3010
0100
0002
1003
0010
0200
0310
2000
,
3001
0100
0020
1030
0100
0020
0031
0200
,
0310
0000
1000
0000
0200
0000
0310
0000
0100
0000
2000
0000
3020
0000
0130
0001
,
0100
0001
2000
3100
1000
0020
0130
0020
,
1030
0001
0200
0310
1000
0200
0310
0002
,
1003
0000
0001
0000
1000
0000
0010
0000
1000
0010
1000
0010
0100
0001
0100
0001
,
1000
0010
0100
0010
1000
0001
0010
0100
1000
0001
0010
0100
1000
0001
1000
0001
,
0400
0000
0000
0000
,
0000
0000
0000
0000
,
0000
0000
0000
0000
0000
0000
0000
0000
0000
0000
0000
0000
0000
0300
0000
0000
,
0001
0100
0001
0100
0010
1000
0010
1000
0001
0100
0010
0100
0010
1000
0001
0100
,
0001
1000
0010
0100
0010
1000
0001
0010
0100
1000
0001
0010
0100
1000
0001
1000
,
0001
0101
0110
1001
,
1100
0110
0011
1001
,
2100
3021
1230
0312
,
2103
3012
1203
0321
,
1031
0101
1010
1100
,
0110
0011
0110
1100
,
0102
2013
3102
1023
,
0132
2013
3102
1023
,
1130
1001
0110
0101
,
1010
0110
1001
1001
,
1200
0312
2103
3021
,
2130
3021
1230
0312
,
1103
1010
0101
1010
,
0110
0011
0110
1100
,
2002
0000
3003
0000
,
0000
0000
0000
0000
,
0001
0000
0000
1000
0000
0000
0010
0000
0000
1000
0000
0000
0001
0000
0000
0100
0001
0100
0001
0000
0000
0100
0000
0000
,
0010
0000
0000
1000
0000
0000
0100
0000
0000
1000
0000
0000
0010
0000
0000
0100
0010
0100
0010
0000
0000
0100
0000
0000
,
0001
0000
0000
1000
0000
0000
0001
0000
0000
0010
0000
0000
0100
0000
0000
1000
0100
1000
0100
0000
0000
1000
0000
0000
,
0001
0000
0000
1000
0000
0000
0001
0000
0000
0010
0000
0000
0100
0000
0000
1000
0000
0000
0010
0000
0000
0100
0000
0000
0001
0000
0000
1000
0000
0000
0001
0000
0000
1000
0000
0000
0001
0000
1000
0000
0001
0000
1000
0000
0001
0000
1000
0000
,
0001
0000
0000
1000
0000
0000
0001
0000
0000
1000
0000
0000
0010
0000
0000
1000
0010
1000
0010
0000
0000
1000
0000
0000
,
0100
0000
0000
0010
0000
0000
0001
0000
0000
0100
0000
0000
0001
0000
0000
1000
0001
1000
0001
0000
0000
0100
0000
0000
,
0001
0000
0000
0010
0000
0000
0001
0000
0000
1000
0000
0000
0010
0000
0000
0100
0010
0100
0010
0000
0000
0100
0000
0000
,
0001
0100
0001
1000
0100
0010
0001
1000
0001
0100
0010
1000
0010
0100
0001
0100
,
0001
0010
0100
1000
0010
0100
0001
0100
,
0010
0000
1000
0000
0100
0000
1000
0000
0010
0000
0100
0000
0001
0100
0001
1000
,
0001
1000
0100
1000
0010
0100
0010
1000
,
0001
0000
0100
0000
0010
0000
1000
0000
0100
0000
1000
0000
0001
0100
0001
1000
,
0001
0010
0100
1000
0100
1000
0010
0100
,
0001
0000
0010
0000
0001
0000
0100
0000
0010
0000
1000
0000
0100
1000
0001
0100
,
0001
0000
1000
0000
0010
0000
0100
0000
0010
1000
0010
1000
0001
0010
0100
1000
,
0100
0000
0000
0000
,
1000
0000
0000
0100
0000
0000
1000
0000
0000
0100
0000
0000
0010
0000
0000
0100
0000
0000
0010
0000
0000
0001
0000
0000
0010
0000
0000
0001
0000
0000
1000
0000
0000
0001
0000
0000
1000
0000
0001
0000
1000
0000
0001
0000
1000
0000
0001
0000
,
1000
0001
1000
0001
0100
0010
1000
0100
,
0010
0001
0100
0010
1000
0100
1000
0001
,
0100
0001
1000
0100
0010
0100
1000
0010
,
0100
0000
0001
0000
1000
0000
0001
0000
1000
0000
0010
0000
0100
0000
0001
1000
,
0100
1000
0010
0100
0001
0010
0100
1000
,
0010
0100
0001
1000
0100
1000
0010
0100
,
0001
0100
0001
0100
0010
1000
0010
1000
0001
0100
0001
1000
0010
0100
0001
1000
,
0001
0000
0000
0000
0000
0000
0000
0000
0000
0000
0000
0000
0000
0000
0000
0000
0000
0000
0000
0000
0000
0000
0000
0000
1000
0000
0001
0000
1000
0000
0001
0000
0000
1000
0000
0000
0001
0000
0000
0100
0000
0000
0010
0000
0000
1000
0000
0000
,
0001
0100
0001
0010
0100
1000
0010
0100
,
0001
1000
0100
1000
0010
0100
0001
1000
,
0100
1000
0010
0100
0001
1000
0001
0010
,
0100
0000
0010
0000
0001
0000
1000
0000
0100
0000
1000
0000
0001
0000
0100
0001
,
0100
0001
1000
0010
0100
0010
1000
0001
,
1000
0010
0100
0001
1000
0001
0100
0001
,
1000
0100
1000
0100
0010
0001
0010
0001
1000
0001
1000
0010
1000
0010
0100
0001
,
1000
0001
1000
0010
0100
0001
1000
0001
1000
0010
0100
0010
1000
0001
1000
0001
,
0010
0100
1000
0001
0010
0100
1000
0010
1000
0001
0100
0010
1000
0010
0100
0001
,
1000
0001
0200
0301
0100
0002
0013
0200
,
0310
0100
2000
3010
0100
0002
1003
0020
,
1030
0100
2000
3010
0100
0002
0013
0200
,
1300
0000
0010
0000
0200
0000
0301
0000
1000
0000
0020
0000
2030
0000
3001
0100
,
0001
0100
0020
0130
0001
2000
3100
0020
,
0031
0010
0200
1300
0010
0200
0301
2000
,
3010
0000
0010
0000
1000
0000
1000
0000
0001
1000
0001
1000
0100
0010
0001
0010
,
0002
0000
0000
0000
0000
0000
0000
0000
0000
0000
0000
0000
0000
0000
0000
0003
,
1001
1000
0200
0310
0001
0200
0301
2000
,
3100
1000
0020
0130
0010
2000
3001
0020
,
0031
0010
0200
0310
0001
0200
0310
2000
,
3100
0000
1000
0000
0020
0000
0130
0000
0010
0000
2000
0000
3002
0000
0103
0010
,
0100
0001
1000
0100
1000
0010
0100
0001
,
0010
0001
0010
0100
1000
0010
0100
0010
,
0110
0000
0100
0000
0101
0000
0001
0000
1000
0001
1000
0001
0100
0010
1000
0010
,
0100
0001
0100
0001
1000
0010
0100
0010
1000
0001
0010
0100
1000
0001
0100
0001
,
0100
0000
0000
0000
,
0001
0100
0010
1000
0001
1000
0100
1000
0100
0010
0001
0010
0001
1000
0100
1000
,
0100
0000
0000
1000
0000
0000
0001
0000
0000
0010
0000
0000
0100
0000
0000
1000
0100
1000
0100
0000
0000
1000
0000
0000
,
0100
0000
0000
0010
0000
0000
0100
0000
0000
1000
0000
0000
0001
0000
0000
0100
0001
0100
0001
0000
0000
0100
0000
0000
,
0001
0000
0000
1000
0000
0000
0010
0000
0000
0100
0000
0000
0001
0000
0000
1000
0001
1000
0001
0000
0000
0100
0000
0000
,
0001
0000
0000
0100
0000
0000
0010
0000
0000
1000
0000
0000
0010
0000
0000
0100
0000
0000
0001
0000
0000
1000
0000
0000
0001
0000
0000
0100
0000
0000
0010
0000
0000
1000
0000
0000
0001
0000
1000
0000
0001
0000
1000
0000
0001
0000
1000
0000
,
0001
0000
0000
1000
0000
0000
0100
0000
0000
0010
0000
0000
0001
0000
0000
1000
0010
1000
0010
0000
0000
1000
0000
0000
,
0010
0000
0000
0100
0000
0000
0001
0000
0000
0010
0000
0000
0100
0000
0000
1000
0100
1000
0100
0000
0000
1000
0000
0000
,
0001
0000
0100
0001
0100
0000
0010
0000
1000
0000
0100
1000
0100
0000
1000
0000
,
0001
0100
0010
1000
0001
0100
0010
1000
0001
0000
0100
0000
0100
0000
0100
0000
,
0001
0100
0001
1000
0100
1000
0010
0100
,
0010
0000
0100
0000
0001
0000
0010
0000
0100
0000
0010
0000
0001
1000
0001
0100
,
0001
0100
0001
0100
0010
1000
0001
0010
,
0100
0000
0010
0000
0001
0000
0100
0000
0010
0000
1000
0000
0100
1000
0001
1000
,
0001
1000
0001
0010
0100
1000
0010
0100
,
0010
1000
0100
1000
0010
0100
0001
1000
,
0010
0000
0100
0000
0010
0000
1000
0000
0001
0100
0001
0100
0010
1000
0010
0100
,
0001
1000
0100
1000
0001
0010
0100
1000
0001
1000
0001
1000
0002
0000
0000
0000
,
0023
0000
0000
0000
,
0030
0000
0000
0000
;
