#TITLE:Revolution Deathsquad;
#SUBTITLE:;
#ARTIST:DragonForce;
#TITLETRANSLIT:;
#SUBTITLETRANSLIT:;
#ARTISTTRANSLIT:;
#CREDIT:;
#BANNER:revolutiondeathsquad-banner.PNG;
#BACKGROUND:revolutiondeathsquad-bg.PNG;
#LYRICSPATH:;
#CDTITLE:cdtitle_caboose.PNG;
#MUSIC:Revolution Deathsquad.ogg;
#OFFSET:-0.240;
#SAMPLESTART:100.000;
#SAMPLELENGTH:12.000;
#SELECTABLE:YES;
#BPMS:0.000=250.001,32.000=200.001;
#STOPS:;
#BGCHANGES:;
// cache tags:
#FIRSTBEAT:0.000;
#LASTBEAT:385.500;
#SONGFILENAME:Songs/toune/Revolution Deathsquad/Revolution Deathsquad.sm;
#HASMUSIC:1;
#HASBANNER:1;
#MUSICLENGTH:114.172;
// end cache tags

//---------------dance-single - ----------------
#NOTES:
     dance-single:
     :
     Challenge:
     13:
     1.000,1.000,0.981,0.236,1.000,933.000,112.000,27.000,0.000,4.000:
1001
0000
0000
0000
,
0000
0000
0000
0000
0000
0000
0000
1100
,
1010
0000
0000
0000
,
1000
0100
1000
0100
1000
0100
1000
0100
1000
0100
1000
0100
,
1001
0000
0000
0000
,
0000
0000
0000
0000
,
0001
0000
0011
0010
0110
0100
1100
1000
,
1001
1001
2002
0000
,
0000
0000
0000
0000
0000
0000
0000
3003
,
0010
0001
0010
0001
0010
0001
0010
0001
1000
0001
1000
0001
1000
0001
1000
0001
,
1000
0100
1000
0100
1000
0100
1000
0100
1000
0001
1000
0001
1000
0001
1000
0001
,
1000
0100
1000
0100
1000
0001
1000
0001
0100
0001
0100
0001
0100
0010
0100
0010
,
1000
0010
1000
0010
1000
0001
1000
0001
0010
0001
0010
0001
0010
0100
0010
0100
,
1000
0100
1000
0100
1000
0001
1000
0001
1000
0001
0100
0001
0100
0010
0100
0010
,
1000
0100
0010
0001
0010
0100
1000
0010
0100
0001
0100
0010
1000
0100
0010
0001
,
0010
0001
1000
0010
1000
0001
0100
0010
1000
0001
0100
0010
1000
0010
0100
0001
,
1000
0001
0010
0001
0100
0001
0010
0100
1000
0100
0010
0100
1000
0001
1000
0010
,
1000
0010
0100
0001
1000
0100
0010
0100
1000
0001
0100
0010
1000
0100
1000
0001
,
1000
0010
1000
0001
0010
0100
1000
0100
1000
0001
0010
0100
1000
0001
1000
0001
,
1000
0001
0010
0100
1000
0001
0010
0100
1000
0001
0100
0010
1000
0001
0100
0010
,
1000
0001
0010
0001
0100
0001
0010
0001
0100
0010
0100
0010
1000
0010
0100
0010
,
1000
0100
1000
0010
1000
0001
1000
0010
0100
0010
0100
0001
0100
0010
0100
0001
,
1000
0100
0010
0100
1000
0100
1000
0001
0100
0001
0100
0010
0100
0010
0100
0001
,
1000
0001
0010
0001
1000
0100
1000
0001
0010
0001
1000
0010
1000
0001
0100
0001
,
1000
0100
1000
0001
0100
0001
1000
0001
1000
0001
0010
0001
1000
0010
1000
0001
,
2000
0000
0000
3000
,
0022
0033
2200
3300
0000
0000
0000
0000
,
1100
1010
0000
0011
0101
0000
0202
0303
,
0000
1100
0000
0110
0000
0000
0000
0101
0000
0110
0000
0000
2020
0000
3030
0000
,
0202
0000
0000
0000
,
0020
0000
0000
0000
,
1333
0100
0010
0001
0001
0010
0100
1000
,
1000
0100
0001
0010
1000
1000
0100
0010
,
0001
0001
0010
0100
1000
1000
0100
0001
,
0010
0100
1000
1000
2001
0000
3010
0100
,
0001
0010
0011
0000
1000
0100
1100
0000
,
0001
0010
0110
1000
0100
0010
0011
0001
,
0010
0000
0100
0000
1100
0000
1000
0000
1000
0000
0000
1000
0000
0000
2000
0000
,
0000
0000
0000
0000
0000
0000
3000
0001
,
0010
0100
1000
1000
0100
0010
0001
0011
,
0010
0110
0100
1100
1000
1100
0100
0110
,
0010
0000
0011
0000
0001
0000
0011
0000
0010
0000
0110
0000
0010
0000
0001
1000
,
0001
0000
0010
0000
0100
0000
0001
1000
0001
0000
0010
0000
0100
0000
0010
0000
,
0001
0011
0000
0100
1000
1100
0000
1000
,
0100
0000
0010
0001
0010
0000
0100
0000
1000
0000
0100
0001
0010
0000
0100
0000
,
1000
0100
0010
0001
1000
0100
0010
0001
1000
0100
0010
0001
1000
0000
1001
0000
,
0000
1010
0000
0101
0000
0000
0000
1001
,
0000
0000
0000
0000
0000
0000
0000
0000
1010
0000
0000
0000
0000
0000
0000
0000
0000
0000
0000
0000
0000
0000
0000
0000
0000
0000
0000
0000
0000
0000
0101
0000
0000
0000
0000
0000
0000
0000
0000
0000
0000
0000
0000
0000
0000
0000
0000
0000
0000
0000
0000
0000
0000
0000
0000
0000
0000
0000
0000
0000
0000
0000
0000
0000
0000
0000
0000
0000
0000
0000
0000
0000
0000
0000
0000
0000
0000
0000
0000
0000
0000
0000
0000
0000
0011
0000
0000
0000
0000
0000
0000
0000
0000
0000
0000
0000
0000
0000
0000
0000
0000
0000
0000
0000
0000
0000
0000
0000
0000
0000
0000
0000
0000
0000
0000
0000
0000
0000
0000
0000
0000
0000
0000
0000
0000
0000
0000
0000
0000
0000
0000
0000
0000
0000
0000
0000
0000
0000
0000
0000
0000
0000
0000
0000
1200
0000
0000
0000
0000
0000
0000
0000
0000
0000
0000
0000
0000
0000
0000
0000
0000
0000
0000
0000
0000
0000
0000
0000
1000
0000
0000
0000
0000
0000
0000
0000
0000
0000
0000
0000
0000
0000
0000
0000
0000
0000
0000
0000
0000
0000
0000
0000
,
1000
1300
1100
0000
0000
0011
0000
1100
,
0100
0110
0010
0011
0001
0101
0100
2200
,
0000
0001
3301
0000
1001
0000
1000
1000
,
0100
0000
0100
0000
0010
0000
0010
0000
0001
0000
0001
0000
1000
0100
0010
0001
,
1000
0100
0010
0001
0000
0000
0001
0000
1000
0000
0000
0000
1000
0100
1000
0000
,
1000
0000
0000
0000
0001
0010
0001
0000
0001
0000
0000
0000
1001
0000
1010
0000
,
0101
0110
0000
0000
0110
0000
1001
0100
,
0010
0001
0001
0010
0100
1000
1000
0100
,
0001
0010
0100
1000
1000
0000
1001
0000
,
0110
0000
0000
1001
0000
0220
0000
0330
,
1000
0010
0100
0001
1000
0010
0100
0001
0000
0000
0000
0000
0011
0000
0100
0000
,
1000
0100
0010
1000
1100
0100
0110
0001
,
0001
0000
0010
0000
0110
0000
0100
0000
1100
0000
0000
0000
1000
0010
0100
0001
,
1000
0010
0100
0001
1000
0010
0100
0001
1000
0010
0100
0001
1000
0100
1000
0000
,
0000
0000
0001
0010
0001
0000
0000
0000
1001
0000
0000
0000
0110
0000
0000
0000
,
0000
0000
0000
0000
0000
1001
0000
0000
,
0000
0000
0000
0000
0000
0000
1001
1001
,
1001
1001
1010
1010
1010
1010
0011
0011
,
0011
0011
0101
0101
0101
0101
1100
1100
,
1100
1100
1010
1010
1010
1010
0110
0110
,
0110
0000
0110
0000
0100
0000
0010
0000
1000
0010
0100
0001
1000
0010
0100
0001
,
1000
0010
0100
0001
1000
0010
0100
0001
0110
0000
0000
0000
1001
0000
0000
0000
,
1100
0000
0000
0000
0011
0000
0000
0000
1010
0001
0010
0001
0010
0001
0010
0001
,
1000
0001
1000
0001
1000
0001
1000
0001
1000
0100
1000
0100
1000
0100
1000
0100
,
1000
0001
1000
0001
1000
0001
1000
0001
1000
0100
1000
0100
1000
0001
1000
0001
,
0100
0001
0100
0001
0100
0010
0100
0010
1000
0010
1000
0010
1000
0001
1000
0001
,
0010
0001
0010
0001
0010
0100
0010
0100
1000
0100
1000
0100
1000
0001
1000
0001
,
1000
0001
0100
0001
0100
0010
0100
0010
1000
0100
0010
0001
0010
0100
1000
0010
,
0100
0001
0100
0010
1000
0100
0010
0001
0010
0001
1000
0010
1000
0001
0100
0010
,
1000
0001
0100
0010
1000
0010
0100
0001
1000
0001
0010
0001
0100
0001
0010
0100
,
1000
0100
0010
0100
1000
0001
1000
0010
1000
0010
0100
0001
1000
0100
0010
0100
,
1000
0001
0100
0010
1000
0100
1000
0001
1000
0010
1000
0001
0010
0100
1000
0100
,
1000
0001
0010
0100
1000
0001
1000
0001
1000
0001
0010
0100
1000
0001
0010
0100
,
1000
0001
0100
0010
1000
0001
0100
0010
1000
0001
0010
0001
0100
0001
0010
0001
,
0100
0010
0100
0010
1000
0010
0100
0010
1000
0100
1000
0010
1000
0001
1000
0010
,
0100
0010
0100
0001
0100
0010
0100
0001
1000
0100
0010
0100
1000
0100
1000
0001
,
2000
0000
0000
0000
,
0000
0000
0000
0000
0000
0000
0000
3000
,
0010
0001
0010
0001
0010
0001
0010
0001
1000
0001
1000
0001
1000
0001
1000
0001
,
1000
0100
1000
0100
1000
0100
1000
0100
1000
0001
1000
0001
1000
0001
1000
0001
,
1000
0100
1000
0100
1000
0001
1000
0001
0100
0001
0100
0001
0100
0010
0100
0010
,
1000
0010
1000
0010
1000
0001
1000
0001
0010
0001
0010
0001
0010
0100
0010
0100
,
1000
0100
1000
0100
1000
0001
1000
0001
1000
0001
0100
0001
0100
0010
0100
0010
,
1000
0100
0010
0001
0010
0100
1000
0010
0100
0001
0100
0010
1000
0100
0010
0001
,
0010
0001
1000
0010
1000
0001
0100
0010
1000
0001
0100
0010
1000
0010
0100
0001
,
1000
0001
0010
0001
0100
0001
0010
0100
1000
0100
0010
0200
0000
0000
0000
0000
,
0300
0000
0000
0000
0000
0000
0000
1001
,
1010
0000
0101
0000
0110
0000
2002
0000
0000
3003
0000
0220
0000
0000
0000
0000
,
0000
0000
0000
0330
0000
0000
0000
0000
;

//---------------dance-single - ----------------
#NOTES:
     dance-single:
     :
     Hard:
     11:
     1.000,1.000,0.736,0.254,0.762,719.000,84.000,29.000,0.000,1.000:
1001
0000
0000
0000
,
0000
0000
0000
0000
,
1001
0000
0000
0000
,
0000
0000
0000
0000
,
1001
0000
0000
0000
,
0000
0000
0000
0000
,
0001
0000
0010
0100
1000
1000
0100
0010
,
1001
1001
2002
0000
,
0000
0000
0000
0000
0000
0000
0000
3003
,
0010
0100
0010
0100
1000
0100
1000
0100
,
1000
0100
1000
0100
1000
0001
1000
0001
,
1000
0001
1000
0001
0100
0001
0100
0001
,
1000
0010
1000
0010
0100
0010
0100
0010
,
1000
0001
1000
0001
1000
0100
0100
0100
,
1000
0010
0010
1000
0100
0100
1000
0010
,
0010
1000
1000
0100
1000
0100
1000
0100
,
1000
0010
0100
0010
1000
0010
1000
1000
,
1000
0100
1000
0010
1000
0100
1000
1000
,
1000
1000
0010
1000
1000
0010
1000
1000
,
1000
0010
1000
0010
1000
0100
1000
0100
,
1000
0010
0100
0010
0100
0100
1000
0100
,
1000
1000
1000
1000
0100
0100
0100
0100
,
1000
0010
1000
1000
0100
0100
0100
0100
,
1000
0010
1000
1000
0010
1000
1000
0100
,
1000
1000
0100
1000
1000
0010
1000
1000
,
2000
0000
0000
3000
,
0011
1100
0000
0000
,
1100
1100
0000
1100
1100
0000
2200
3300
,
0000
0011
0000
0011
0000
0000
0000
0011
0000
0011
0000
0000
0022
0000
0033
0000
,
2200
0000
0000
0000
,
0022
0000
0000
0000
0000
0000
0000
3333
,
1000
0100
0010
0001
0001
0010
0100
1000
,
1000
0100
0001
0010
1000
1000
0100
0010
,
0001
0001
0010
0100
1000
1000
0100
0001
,
0010
0100
1000
1000
2001
0000
3010
0100
,
0001
0010
0011
0000
1000
0100
1100
0000
,
0001
0010
0100
1000
0100
0010
0001
0001
,
0010
0000
0100
0000
1000
0000
1000
0000
1000
0000
0000
1000
0000
0000
2000
0000
,
0000
0000
0000
0000
0000
0000
3000
0001
,
0010
0100
1000
1000
0100
0010
0001
0001
,
0010
0100
1000
1000
0100
0010
0001
0001
,
0010
0000
0001
0000
0001
0000
0010
0000
0010
0000
0100
0000
0010
0000
0001
1000
,
0001
0000
0010
0000
0100
0000
0001
1000
0001
0000
0010
0000
0100
0000
0010
0000
,
0001
0011
0000
0100
1000
1100
0000
1000
,
0100
0000
0010
0001
0010
0000
0100
0000
1000
0000
0100
0001
0010
0000
0100
0000
,
1000
0100
0010
0001
1000
0100
0010
0001
1000
0100
0010
0001
1000
0000
1001
0000
,
0000
1010
0000
0101
0000
0000
0000
1010
,
0000
0000
0000
0000
0000
0000
0000
0000
1010
0000
0000
0000
0000
0000
0000
0000
0000
0000
0000
0000
0000
0000
0000
0000
0000
0000
0000
0000
0000
0000
1010
0000
0000
0000
0000
0000
0000
0000
0000
0000
0000
0000
0000
0000
0000
0000
0000
0000
0000
0000
0000
0000
0000
0000
0000
0000
0000
0000
0000
0000
0000
0000
0000
0000
0000
0000
0000
0000
0000
0000
0000
0000
0000
0000
0000
0000
0000
0000
0000
0000
0000
0000
0000
0000
1010
0000
0000
0000
0000
0000
0000
0000
0000
0000
0000
0000
0000
0000
0000
0000
0000
0000
0000
0000
0000
0000
0000
0000
0000
0000
0000
0000
0000
0000
0000
0000
0000
0000
0000
0000
0000
0000
0000
0000
0000
0000
0000
0000
0000
0000
0000
0000
0000
0000
0000
0000
0000
0000
0000
0000
0000
0000
0000
0000
1200
0000
0000
0000
0000
0000
0000
0000
0000
0000
0000
0000
0000
0000
0000
0000
0000
0000
0000
0000
0000
0000
0000
0000
1000
0000
0000
0000
0000
0000
0000
0000
0000
0000
0000
0000
0000
0000
0000
0000
0000
0000
0000
0000
0000
0000
0000
0000
,
1000
1300
1100
0000
0000
0011
0000
1100
,
0100
0110
0010
0011
0001
0101
0100
2200
,
0000
0000
3300
0000
1001
0000
1000
1000
,
0100
0000
0100
0000
0010
0000
0010
0000
0001
0000
0001
0000
1000
0100
0010
0001
,
1000
0100
0010
0001
0000
0000
0001
0000
1000
0000
0000
0000
1000
0100
1000
0000
,
1000
0000
0000
0000
0001
0010
0001
0000
0001
0000
0000
0000
0011
0000
0011
0000
,
0011
0011
0000
0000
0110
0000
1001
0100
,
0010
0001
0001
0010
0100
1000
1000
0100
,
0001
0010
0100
1000
1000
0000
1001
0000
,
0110
0000
0000
1001
0000
0220
0000
0330
,
1000
0010
0100
0001
1000
0010
0100
0001
0000
0000
0000
0000
0011
0000
0100
0000
,
1000
0100
0010
1000
1000
0100
0010
0001
,
0001
0000
0010
0000
0100
0000
1000
0000
1000
0000
0000
0000
1000
0010
0100
0001
,
1000
0010
0100
0001
1000
0010
0100
0001
1000
0010
0100
0001
1000
0100
1000
0000
,
0000
0000
0001
0010
0001
0000
0000
0000
1001
0000
0000
0000
0110
0000
0000
0000
,
0000
0000
0000
0000
0000
1001
0000
0000
,
0000
0000
0000
0000
0000
0000
1001
0001
,
1001
1000
1010
1000
1010
0010
0011
0010
,
0011
0001
0101
0001
0101
0100
1100
0100
,
1100
1000
1010
1000
1010
0010
0110
0100
,
0110
0000
0010
0000
0100
0000
0010
0000
1000
0010
0100
0001
1000
0010
0100
0001
,
1000
0010
0100
0001
1000
0010
0100
0001
0110
0000
0000
0000
1001
0000
0000
0000
,
1100
0000
0000
0000
0011
0000
0000
0000
0010
0001
0010
0001
0010
0001
0010
0001
,
1000
0001
1000
0001
1000
0001
1000
0001
1000
0100
1000
0100
1000
0100
1000
0100
,
1000
0001
1000
0001
1000
0001
2000
0000
0000
0000
0000
0000
0000
0000
0000
0000
,
3001
0010
0100
1000
1100
0000
0000
0000
1100
0000
0000
0000
1100
0000
0000
0000
,
1100
0000
0000
0000
0010
0100
0010
0100
1000
0100
1000
0100
1000
0001
1000
0001
,
1000
0001
0100
0001
0100
0010
0100
0010
1000
0100
0010
0001
0010
0100
1000
0010
,
0100
2002
0000
0000
,
3003
0000
0000
0000
1000
0000
0100
0000
1000
0000
0100
0000
1000
0100
1000
0100
,
1000
0000
0000
0000
1000
0001
1000
0010
1000
0010
0100
0001
1000
0100
0010
0100
,
1000
0001
0100
0010
1000
0100
1000
0001
1000
0010
1000
0001
0010
0100
1000
0100
,
2000
0000
0000
0000
,
3002
0000
0000
0000
0000
0000
0000
0000
1003
0100
1000
0100
1000
0000
0000
0000
,
0100
0010
0100
0010
1000
0010
0100
0010
1000
0100
1000
0010
1000
0001
1000
0010
,
0100
0010
0100
0001
0100
0010
0100
0001
1000
0100
0010
0100
1000
0100
1000
0001
,
2000
0000
0000
0000
,
0000
0000
0000
0000
0000
0000
0000
3000
,
0010
0001
0010
0001
0010
0001
0010
0001
1000
0001
1000
0001
1000
0001
1000
0001
,
1000
0100
1000
0100
1000
0100
1000
0100
1000
0001
1000
0001
1000
0001
1000
0001
,
1000
0100
1000
0100
1000
0001
1000
0001
0100
0001
0100
0001
0100
0010
0100
0010
,
1000
0010
1000
0010
1000
0001
1000
0001
0010
0001
0010
0001
0010
0100
0010
0100
,
1000
0100
1000
0100
1000
0001
1000
0001
1000
0001
0100
0001
0100
0010
0100
0010
,
1000
0100
0010
0001
0010
0100
1000
0010
0100
0001
0100
0010
1000
0100
0010
0001
,
0010
0001
1000
0010
1000
0001
0100
0010
1000
0001
0100
0010
1000
0010
0100
0001
,
1000
0001
0010
0001
0100
0001
0010
0100
1000
0100
0010
0200
0000
0000
0000
0000
,
0300
0000
0000
0000
0000
0000
0000
1001
,
1010
0000
0101
0000
0110
0000
2002
0000
0000
3003
0000
0220
0000
0000
0000
0000
,
0000
0000
0000
0330
0000
0000
0000
0000
;
