#TITLE:Absurd Gaff;
#SUBTITLE:;
#ARTIST:siromaru;
#TITLETRANSLIT:;
#SUBTITLETRANSLIT:;
#ARTISTTRANSLIT:;
#CREDIT:;
#BANNER:absurd gaff bn.png;
#BACKGROUND:absurd gaff bg.png;
#LYRICSPATH:;
#CDTITLE:;
#MUSIC:Absurd Gaff.ogg;
#OFFSET:-0.016;
#SAMPLESTART:48.025;
#SAMPLELENGTH:11.999;
#SELECTABLE:YES;
#DISPLAYBPM:160.000;
#BPMS:0.000=160.000,52.000=320.000,52.500=160.000,52.750=80.000,53.000=320.000,53.500=160.000,53.750=80.000,54.000=160.000,56.000=80.000,56.250=320.000,56.750=160.000,68.000=320.856,69.000=320.000,69.500=160.000,69.750=80.000,70.000=320.856,71.000=240.000,71.125=120.000,71.375=240.000,71.500=320.000,71.750=160.000,71.875=80.000,72.000=160.000,84.000=320.000,84.500=160.000,84.750=80.000,85.250=160.000,85.500=320.000,86.000=480.000,86.750=53.333,87.000=320.000,87.500=160.000,87.750=80.000,88.000=160.000,100.000=53.333,100.125=480.000,100.500=320.000,100.833=80.000,101.000=320.000,101.500=160.000,101.750=80.000,102.000=160.000,120.000=80.000,120.250=160.000,120.500=320.000,121.000=160.000,124.000=80.000,124.250=160.000,124.500=320.000,125.000=160.000,128.000=80.000,128.250=160.000,128.500=320.000,129.000=160.000,130.000=80.000,130.250=160.000,130.500=320.000,131.000=160.000,132.000=120.000,132.125=240.000,132.375=120.000,132.500=80.000,132.625=160.000,132.750=320.000,133.500=160.000,133.750=80.000,134.000=320.000,134.500=160.000,134.750=80.000,135.000=480.000,135.750=53.333,136.000=160.000,151.000=64.000,151.125=320.000,151.500=160.000,166.000=106.667,166.250=320.000,167.000=160.000,167.250=80.000,167.500=480.000,167.875=53.333,168.000=160.000,171.000=64.000,171.125=320.000,171.500=160.000,175.000=120.000,175.167=160.000,175.333=240.000,175.500=160.000,180.000=320.000,180.500=160.000,180.750=80.000,181.250=160.000,181.500=320.000,182.000=106.667,182.250=320.000,183.000=160.000,183.250=80.000,183.500=480.000,183.875=53.333,184.000=160.000,190.000=240.964,192.000=160.000,196.000=96.000,196.250=480.000,196.750=96.000,197.000=100.000,197.250=400.000,197.750=100.000,198.000=106.667,198.250=320.000,198.750=106.667,199.000=160.000,199.750=80.000,199.875=40.000,200.000=160.000,214.000=106.667,214.250=320.000,215.000=160.000,215.250=80.000,215.500=480.000,215.875=53.333,216.000=160.000,257.000=240.964,260.000=631.579,260.500=320.000,260.875=64.000,261.000=160.000,273.000=53.333,273.125=480.000,273.500=320.000,274.500=80.000,275.000=53.333,275.125=480.000,275.500=320.000,276.500=80.000,277.000=160.000,289.000=106.667,289.500=320.000,290.000=100.000,290.500=400.000,291.000=96.000,291.500=480.000,292.000=93.333,292.500=560.000,293.000=160.000,305.000=240.964,308.000=631.579,309.000=160.000,321.000=320.000,321.500=160.000,321.750=80.000,322.000=320.000,322.500=160.000,322.750=80.000,323.000=320.000,323.500=160.000,323.750=80.000,324.000=480.000,324.750=53.333,325.000=20.000;
#STOPS:28.000=-3.000
,68.000=0.047
,68.250=0.047
,68.500=0.047
,68.750=0.047
,70.000=0.047
,70.250=0.047
,70.500=0.047
,70.750=0.047
,190.000=0.042
,190.333=0.042
,190.667=0.042
,191.000=0.042
,191.333=0.042
,191.667=0.042
,199.000=-0.188
,228.000=-3.000
,236.000=-2.250
,244.000=0.375
,257.000=0.042
,257.333=0.042
,257.667=0.042
,258.000=0.042
,258.333=0.042
,258.667=0.042
,259.000=0.042
,259.333=0.042
,259.667=0.042
,260.000=0.035
,260.125=0.035
,260.250=0.035
,260.375=0.035
,305.000=0.042
,305.333=0.042
,305.667=0.042
,306.000=0.042
,306.333=0.042
,306.667=0.042
,307.000=0.042
,307.333=0.042
,307.667=0.042
,308.000=0.035
,308.125=0.035
,308.250=0.035
,308.375=0.035
,308.500=0.035
,308.625=0.035
,308.750=0.035
,308.875=0.035
;
#BGCHANGES:;
// cache tags:
#FIRSTBEAT:16.000;
#LASTBEAT:325.250;
#SONGFILENAME:Songs/Index Tournament 1/Absurd Gaff/Absurd Gaff.sm;
#HASMUSIC:1;
#HASBANNER:1;
#MUSICLENGTH:118.532;
// end cache tags

//---------------dance-single - CondorTalon----------------
#NOTES:
     dance-single:
     CondorTalon:
     Challenge:
     12:
     1.000,1.000,0.641,0.464,0.903,698.000,76.000,55.000,39.000,1.000:
0000
0000
0000
0000
,
0000
0000
0000
0000
,
0000
0000
0000
0000
,
0000
0000
0000
0000
,
0001
0000
1000
0010
0100
0000
0001
0010
0100
1000
0001
0000
1000
0000
0010
1000
,
0001
0000
0010
0100
0010
0000
0001
1000
0010
1000
0010
0000
0100
0001
0000
1000
,
0001
0000
0010
0100
1000
0000
0001
1000
0010
1000
0001
0000
0010
0000
0100
2000
,
0000
0000
0000
0000
,
0000
0000
0000
0000
,
000M
00M0
0M0M
00M0
0M0M
00M0
0M0M
00M0
3M01
0010
0100
0000
1000
0000
0001
0100
,
0001
0000
1000
0100
0010
0000
0001
1000
0010
0000
0100
0001
1000
0000
0001
0010
,
0100
0000
0010
0001
1000
0000
0010
1000
0010
0000
1000
0001
0010
0000
0100
0010
,
0001
0000
1000
0010
1000
0000
0001
0010
0100
0000
0010
0001
1000
0000
0001
0100
,
0020
0000
0000
0000
2030
0000
0000
0000
3001
0010
0001
0010
0100
1000
0100
1000
,
0002
0000
0000
0103
0010
0000
1000
0100
0010
0000
0001
1000
0100
0010
0100
0010
,
0001
0000
1000
0010
0100
0000
0001
0010
0100
0000
1000
0001
0100
0010
0100
0010
,
1000
0000
0001
0010
0100
0000
0010
0001
1000
0000
0001
0100
0010
0000
1000
0100
,
0010
0001
0010
0001
2000
0000
0000
0000
3010
0100
0010
0100
0002
0023
0230
0000
,
1300
0000
0001
1000
0001
0000
0100
0010
1000
0000
0001
0010
0100
0000
0010
0001
,
1000
0000
0010
0100
0001
0000
1000
0100
0010
0000
0100
1000
0001
0000
1000
0001
,
1000
0000
0100
0010
0100
0000
0010
0001
1000
0000
0010
0100
0001
0000
1000
0100
,
0020
0032
2003
3020
,
1030
0000
0100
1000
0001
0000
1000
0100
0010
0000
0001
0100
0001
0000
0100
0010
,
1000
0000
0100
1000
0001
0000
0100
0010
1000
0000
0001
0010
0100
0000
0010
0001
,
1000
0000
0010
0100
0001
0000
1000
0100
1000
0000
0001
0100
0010
0000
1000
0000
,
0002
0000
0023
0000
0230
0000
0000
0000
1300
0001
1000
0001
1000
0001
1000
0001
,
1000
0000
0010
0100
0001
0000
1000
0100
0010
0001
1000
0000
0010
0000
0100
0001
,
1000
0000
0100
0010
0001
0000
1000
0001
0100
0010
1000
0000
0100
0010
0000
0100
,
1000
0000
0001
0100
0001
0000
0100
0010
1000
0001
1000
0000
0100
0000
1000
0100
,
0010
0000
0001
1000
0001
0000
0100
0010
1000
0001
0010
0100
1000
0100
0010
0001
,
2000
0000
0000
0000
3010
0100
0001
0100
0010
0100
0001
0100
0010
0100
0001
0100
,
0020
0000
0000
0000
1030
0100
0010
0100
1000
0100
0010
0100
1000
0100
0010
0100
,
2000
0000
0000
0000
3001
0100
0001
0100
0020
0000
0000
0000
1030
0001
1000
0001
,
0200
0320
2030
0000
3200
0000
0000
0000
0320
0000
0000
0000
0032
0000
0000
0000
,
1003
0101
1000
0101
1000
0011
1000
0011
,
1000
0101
1000
0101
1000
0011
1000
0011
,
1000
0101
0010
0101
1000
0011
0100
0011
,
1000
0101
1000
0011
1000
0200
0000
0310
,
0001
1100
0001
1100
0001
1010
0001
1010
,
0001
1100
0001
1100
0001
1010
0001
1010
,
0001
0000
1000
0001
0000
1000
0100
0000
0010
0001
0000
1000
0001
0000
0010
0100
,
1000
0001
1000
0001
1000
0010
1000
0010
0200
0000
0302
0000
0000
0000
2003
0000
,
3100
0010
0001
0000
1000
0000
0011
0000
1000
0000
0012
0000
0000
0000
1003
0000
,
0001
0010
0100
0000
1000
0000
0101
0000
1000
0000
0101
0000
0000
0000
1000
0000
,
0001
1010
0100
1010
0001
1100
0010
1100
,
0002
0000
0023
0000
0230
2300
0000
3002
,
1003
0010
0100
0000
0001
0000
1100
0000
0001
0000
1100
0000
0001
0100
0001
0000
,
1000
0000
0000
0011
0000
0000
1000
0000
0000
0011
0000
0000
1000
0000
0100
0000
0100
0000
0001
0000
0100
0000
0100
0000
,
1000
0000
0100
0010
0000
0001
1000
0000
0001
0100
0010
0100
0001
0010
0100
1000
,
0002
0023
0230
2300
,
3001
0000
0100
0010
1000
0000
0001
0010
0100
1000
0100
0000
1000
0000
0001
1000
,
0001
0000
0100
0010
1000
0000
0001
0010
0100
0010
0001
0000
1000
0010
0000
1000
,
0001
0000
0010
0100
1000
0000
0100
1000
0001
1000
0010
0000
0100
0000
0001
0010
,
0100
0000
0010
0001
1000
0000
0001
0100
0020
0000
2030
0000
0000
0000
3002
0000
,
1003
0000
0000
1100
0000
0000
0110
0000
0011
0000
0000
1001
0000
0000
1010
0000
,
1100
0000
0000
0011
0000
0000
1001
0000
1010
0000
0000
0011
0000
0000
1001
0000
,
1000
0000
0001
0000
0100
0000
0010
0000
1000
0100
0010
0001
0100
0010
1000
0001
,
0MM0
0000
0000
0000
,
0000
0000
0000
0000
,
0MM0
0000
000M
M0M0
000M
M0M0
000M
MM00
,
000M
MM00
000M
M0M0
000M
M0M0
0000
0000
,
0MM0
0000
0001
1010
0001
1010
0001
1100
,
0001
1100
0001
1010
0001
1010
0001
1100
,
0001
1100
0001
1010
0100
1010
0001
1100
,
0010
0000
0000
1100
0000
0000
0001
0000
0100
0000
0100
0000
1000
0000
0100
0000
0100
0000
0001
0000
0010
0000
0010
0000
,
0400
0302
1003
0011
1000
0011
1000
0101
,
1000
0101
1000
0011
1000
0011
1000
0101
,
1000
0000
0101
0000
1000
0000
0001
1000
0100
0010
0001
1000
0010
0000
1000
0001
,
0000
1000
0100
0010
0002
0000
0203
0000
0000
0000
0000
0000
0320
0000
2030
0000
,
0000
0000
3001
1010
0001
1010
0001
1100
,
0001
1100
0001
1010
0001
1010
0001
1100
,
0001
0000
1100
0000
0001
0000
0010
0100
0000
1000
0001
0000
1000
0010
0000
1000
,
0001
0010
0200
0000
2300
0000
3020
0000
,
0230
0000
0000
0000
0301
0000
1000
0010
0000
0000
0001
0000
0000
0000
0100
0000
,
0000
0000
0001
0000
0010
0000
1000
0100
0000
0000
0001
0000
0000
0000
0010
0000
,
0000
0000
0001
0000
0100
0000
1000
0100
0000
0000
0001
0000
0100
0000
1000
0010
,
0000
0000
0000
0001
0000
0000
0010
0000
0100
0000
0100
0000
1000
0000
0010
0000
0010
0000
0001
0000
0100
0000
0100
0000
,
4000
0000
0000
0000
3001
0100
0010
1000
0100
0010
0100
1000
0010
0100
0001
0100
,
0010
1000
0001
0010
0100
1000
0010
0100
0010
1000
0001
0010
0100
0010
0001
0100
,
0001
1000
0010
0100
0001
1000
0010
1000
0100
0010
0001
0010
0100
1000
0010
1000
,
0001
0100
0010
1000
0020
0000
0000
0000
2030
0000
0000
0000
3200
0000
0000
0000
,
2300
0000
0000
0000
3111
0MMM
0000
0000
0000
0000
0000
0000
0000
0000
0000
0000
;
