#TITLE:Emerald Sword;
#SUBTITLE:;
#ARTIST:Rhapsody;
#TITLETRANSLIT:;
#SUBTITLETRANSLIT:;
#ARTISTTRANSLIT:;
#CREDIT:Arvin;
#BANNER:../bn-Rhapsody.png;
#BACKGROUND:../Rhapsody-bg.png;
#LYRICSPATH:;
#CDTITLE:;
#MUSIC:Rhapsody - Emerald Sword.ogg;
#OFFSET:1.830;
#SAMPLESTART:33.293;
#SAMPLELENGTH:12.000;
#SELECTABLE:YES;
#BPMS:0.000=180.000,540.000=120.000,544.000=180.000;
#STOPS:231.000=0.320
;
#BGCHANGES:;
// cache tags:
#FIRSTBEAT:8.000;
#LASTBEAT:768.000;
#SONGFILENAME:Songs/Rhapsody of Fire/Emerald Sword - [Arvin]/emeraldsword.sm;
#HASMUSIC:1;
#HASBANNER:1;
#MUSICLENGTH:261.089;
// end cache tags

//---------------dance-single - Arvin----------------
#NOTES:
     dance-single:
     Arvin:
     Challenge:
     14:
     1.000,1.000,0.498,0.234,1.000,2131.000,130.000,61.000,4.000,5.000:

0000
0000
0000
0000
,
0000
0000
0000
0000
,
1100
0100
1000
0010
0100
0002
0000
1003
,
0100
0000
0020
0000
0000
0000
0031
0000
1000
0100
1000
0010
0100
0000
0000
0000
,
0101
0001
0010
0100
1000
0020
0000
0130
,
0001
0020
0000
0130
1000
0001
1001
0000
,
0101
0001
1000
0100
1000
0002
0000
1003
,
0100
0000
2000
0000
0000
0000
3100
0000
0010
0100
1000
0001
0100
0000
0000
0000
,
1001
0001
1000
0100
0010
0002
0000
1003
,
0100
0000
0020
0000
0000
0000
0130
0000
1000
0010
1000
0010
0100
0000
0000
0000
,
0001
0010
0100
1000
0001
0010
0100
1000
0010
0100
0001
1000
0001
1000
0010
0100
,
0001
0010
0100
1000
0001
0010
0100
1000
0010
0100
0001
1000
0001
1000
0010
0100
,
0001
1000
0001
0100
0010
1000
0100
0010
0001
0100
0010
1000
0001
1000
0010
0100
,
0001
1000
0100
0010
0001
1000
0100
1000
0001
0010
0100
1000
0001
0010
0001
0100
,
0010
1000
0001
1000
0010
0100
0001
0100
0010
1000
0100
0010
0100
1000
0010
0100
,
0001
1000
0001
0100
0010
0100
0001
1000
0001
0100
0001
1000
0010
1000
0001
0100
,
0001
1000
0001
0010
0100
1000
0001
1000
0100
0010
0001
0100
0010
1000
0100
0010
,
0001
0100
0010
1000
0100
0010
0001
1000
0010
0100
0001
0100
0010
1000
0100
0010
,
0001
1000
0010
1000
0002
0000
0003
0000
,
1000
0100
0010
0100
1000
0010
0100
0001
1000
0000
0100
0000
0010
0000
0001
0000
,
0010
0100
0010
0100
2000
0000
0000
0000
,
3001
0010
0100
0010
0001
0100
0010
0100
0002
0000
0003
0000
1000
0000
0100
0000
,
0010
0001
0010
0000
0100
0000
1000
0000
0001
0000
0000
0000
0000
0000
0100
0000
,
0010
0100
0001
0010
0100
0000
1100
0000
,
1000
0100
0010
0001
0010
0100
1000
0001
1000
0000
0010
0000
0100
0000
0010
0000
,
1000
0100
0010
0001
1000
0100
0010
0001
2000
0000
3000
0000
1001
0000
0000
0000
,
1000
0100
0010
0001
0100
0010
1000
0100
0010
0001
1000
0010
1000
0001
0010
0100
,
1000
0010
0100
0001
0010
0100
1000
0001
0010
0001
1000
0100
1000
0010
0100
0001
,
1000
0010
1000
0001
0100
0001
1000
0100
0010
0001
1000
0001
0100
0010
0100
0001
,
1000
1001
0011
0101
1010
1100
1001
0101
,
0001
0010
0100
1000
0010
0100
0001
0010
0100
1000
0001
0100
0001
1000
0100
0010
,
0001
0100
0010
1000
0100
0010
0001
1000
0100
1000
0001
0010
0001
0100
0010
1000
,
0001
0100
0001
1000
0010
1000
0001
0010
0100
1000
0001
1000
0010
0100
0010
1000
,
0001
1000
0010
0100
0001
0100
0010
1000
0100
0000
0000
0010
0000
0000
0001
0000
,
1000
0100
0010
0001
0010
0100
1000
0001
1000
0010
0100
0001
0100
0010
1000
0010
,
0100
0001
0100
0010
1000
0001
1000
0010
0100
0001
1000
0001
0100
0010
1000
0100
,
0010
0001
1000
0001
0010
0100
1000
0010
0100
0001
0010
0100
1000
0100
0010
0001
,
1000
1010
1100
1001
0011
0101
1001
1010
,
1000
0010
0100
0001
0010
0100
1000
0100
1000
0010
0100
0001
0010
0001
0010
0100
,
1000
0001
0100
0001
1000
0010
0100
0001
1000
0010
0100
0010
0100
0001
1000
0100
,
0010
0100
0010
0001
1000
0100
1000
0010
0100
0010
1000
0100
0010
0001
1000
0001
,
0100
0010
0100
0001
1000
0000
0010
0000
1010
0000
1000
0000
0100
0000
0010
0000
,
0002
0000
1003
0010
1010
0000
0001
0010
,
0012
0000
0000
0003
1000
0000
0010
0000
,
1010
0000
1000
0000
0100
0000
0110
0000
0100
1000
0001
0000
,
1001
0000
0000
0001
1001
0000
2000
0000
,
3101
0000
0001
0010
0110
0000
0100
1000
,
1002
0000
0000
0103
,
0101
0000
0001
0000
0100
0000
0110
0000
0010
0000
1000
0001
,
1001
0000
1000
0001
0010
0001
1000
0010
1000
0001
0100
0001
,
1002
0000
0000
0000
0000
0013
0100
1000
,
1200
0000
0000
0000
0000
0310
0001
0001
,
1000
1000
0010
0010
1010
1000
1000
0100
,
0020
0000
0000
0000
0000
0000
0000
0000
0031
0010
0100
1000
0001
0000
0000
0000
,
2001
0000
0000
0000
0000
0000
3100
0000
0010
0000
0001
0000
1000
0000
0000
0010
0000
0000
1000
0000
0000
0001
0000
0000
,
1001
0000
0001
1001
1001
1001
0011
0011
,
0011
0010
0100
0100
1000
1000
0001
0001
,
0200
0000
0000
0000
0000
0000
0000
0000
0310
1000
0001
0100
0010
MMMM
0000
0000
,
0001
0010
0100
1000
0010
0100
0001
0010
0100
1000
0001
0100
0001
1000
0100
0010
,
0001
0100
0010
1000
0100
0010
0001
1000
0100
1000
0001
0010
0001
0100
0010
1000
,
0001
0100
0001
1000
0010
1000
0001
0010
0100
1000
0001
1000
0010
0100
0010
1000
,
0001
1001
1100
1010
0101
0011
1001
1010
,
1000
0100
0010
0001
0100
0010
1000
0100
0010
0001
1000
0010
1000
0001
0010
0100
,
1000
0010
0100
0001
0010
0100
1000
0001
0010
0001
1000
0100
1000
0010
0100
0001
,
1000
0010
1000
0001
0100
0001
1000
0100
0010
0001
1000
0001
0100
0010
0100
0001
,
1000
0001
0100
0010
1000
0010
0100
0001
0010
0000
0000
0100
0000
0000
1000
0000
,
0001
0010
0100
1000
0100
0010
0001
1000
0001
0100
0010
1000
0010
0100
0001
0100
,
0010
1000
0010
0100
0001
1000
0001
0100
0010
1000
0001
1000
0010
0100
0001
0010
,
0100
1000
0001
1000
0100
0010
0001
0100
0010
1000
0100
0010
0001
0010
0100
1000
,
0001
0101
0011
1001
1100
1010
1001
0101
,
0001
0100
0010
1000
0100
0010
0001
0010
0001
0100
0010
1000
0100
1000
0100
0010
,
0001
1000
0010
1000
0001
0100
0010
1000
0001
0100
0010
0100
0010
1000
0001
0010
,
0100
0010
0100
1000
0001
0010
0001
0100
0010
0100
0001
0010
0100
1000
0001
1000
,
0010
0100
0010
1000
0001
0100
0001
0100
0010
0000
1010
0000
1000
0000
0001
0000
,
2000
0000
3001
0100
0101
0000
1000
0100
,
2100
0000
0000
3000
0001
0000
0100
0000
,
0101
0000
0001
0000
0010
0000
0110
0000
0010
0001
1000
0000
,
1001
0000
0000
1000
1001
0000
0002
0003
,
1100
0000
1000
0100
0110
0000
0010
0001
,
2001
0000
0000
3010
,
1010
0000
1000
0000
0010
0000
0110
0000
0100
0000
0001
1000
,
1001
0000
0000
0000
0001
0000
0000
0000
0000
1000
0000
0000
1002
0000
0000
0000
0000
0000
0000
0000
0000
0000
0000
0000
,
1013
0000
2000
3002
,
0103
0010
1000
0001
1000
0100
0010
0001
1000
0010
1000
0001
0010
0100
1000
0001
,
0100
0001
1000
0100
0010
0001
0100
0001
0100
0010
1000
0010
0100
0001
0010
0100
,
1000
0100
1000
0010
0100
0010
1000
0001
1000
0100
0010
0001
0100
0010
1000
0001
,
1000
0100
0010
0001
0100
0010
1000
0001
0010
0100
1000
0001
1000
0010
0100
0001
,
1000
0100
1000
0001
0100
0010
1000
0001
0010
0001
1000
0010
0100
0001
0010
0001
,
0010
0100
1000
0100
0010
0001
0100
0010
1000
0010
1000
0100
0010
0100
1000
0001
,
1000
0010
0100
0001
0010
0100
1000
0001
1000
0010
0100
0001
0010
0100
1000
0001
,
1000
0100
1000
0100
1000
0100
1000
0010
0200
0000
0000
0000
0302
0000
0000
0000
,
0103
0010
1000
0001
1000
0100
0010
0001
1000
0010
1000
0001
0010
0100
1000
0001
,
0100
0001
1000
0100
0010
0001
0100
0001
0100
0010
1000
0010
0100
0001
0010
0100
,
1000
0100
1000
0010
0100
0010
1000
0001
1000
0100
0010
0001
0100
0010
1000
0001
,
1000
0100
0010
0001
0100
0010
1000
0001
0010
0100
1000
0001
1000
0010
0100
0001
,
1000
0100
1000
0001
0100
0010
1000
0001
0010
0001
1000
0010
0100
0001
0010
0001
,
0010
0100
1000
0100
0010
0001
0100
0010
1000
0010
1000
0100
0010
0100
1000
0001
,
1000
0010
0100
0001
0010
0100
1000
0001
1000
0010
0100
0001
0010
0100
1000
0001
,
1000
0010
0100
0001
1000
0100
0010
0001
0200
0000
0000
0000
0310
0000
0000
0000
,
1000
0000
0001
0010
0001
0000
1000
0000
0100
0000
0010
0000
0001
0000
0100
0000
,
0101
0000
0001
0010
0100
0000
1000
0000
0001
0000
0100
0000
0001
0000
0000
0000
,
1001
0000
1000
0100
0010
0000
0001
0000
0200
0000
0000
0000
0301
0000
0000
0000
,
0020
0000
0130
0000
1000
0001
0100
0000
,
1001
0000
1000
0100
1000
0000
0001
0000
0010
0000
0100
0000
1000
0000
0010
0000
,
1010
0000
1000
0100
0010
0000
0001
0000
1000
0000
0010
0000
1000
0000
0000
0000
,
1001
0000
0001
0010
0100
0000
1000
0000
0020
0000
0000
0000
1030
0000
0000
0000
,
0200
0000
0310
0000
0001
1000
0010
0000
,
1000
0100
1000
0100
0010
0001
0010
0001
1000
0010
1000
0010
0100
0001
0100
0001
,
0010
0100
0010
0100
1000
0001
1000
0001
0100
0010
0100
0010
1000
0001
1000
0001
,
0010
0100
0010
0100
1000
0010
1000
0010
0100
0001
0100
0001
0010
0100
0010
0100
,
1000
0001
1000
0001
0100
0010
0100
0010
1000
0001
1000
0001
0010
0100
0010
0100
,
1000
0010
1000
0010
0100
0001
0100
0001
1000
0100
1000
0100
0010
0001
0010
0001
,
0100
0010
0100
0010
1000
0001
1000
0001
0010
0100
0010
0100
1000
0001
1000
0001
,
0100
0010
0100
0010
1000
0100
1000
0100
0010
0001
0010
0001
0100
0010
0100
0010
,
1000
0001
1000
0001
0010
0100
0010
0100
1000
0001
1000
0001
0100
0010
0100
0010
,
1000
0100
0010
0002
0000
0000
1003
0000
,
0001
0010
0100
1000
0040
0000
0000
0000
,
1030
0100
0010
0002
0000
0000
1003
0000
,
0010
1000
0010
0100
0001
0010
0100
1000
,
0001
0100
0010
2000
0000
0000
3001
0000
,
0100
0010
1000
0001
0020
0000
0130
1000
,
0002
0000
0000
0000
0103
0000
0010
0000
0100
0000
0001
0010
0100
0000
1000
0000
,
0001
0010
0001
0010
0001
0010
0001
0010
0001
0010
0001
0010
0001
0010
0001
0010
,
0001
1000
1001
1000
0100
0010
0011
0010
,
0100
1000
1001
0001
0100
0010
0110
0010
,
1000
0001
0101
0100
0010
1000
1001
0001
,
0010
0100
1100
1000
0010
0100
0101
0001
,
1000
0100
0110
0010
0001
1000
1010
0010
,
0100
0001
0101
0100
0010
1000
1001
0001
,
2000
0000
0000
0000
3010
0000
0100
0000
0001
0000
0010
0100
1000
0000
0001
0000
,
1000
0100
1000
0100
1000
0100
1000
0100
1000
0100
1000
0100
1000
0100
1000
0100
,
1000
0000
0001
0010
0011
0000
1000
0010
,
1000
0100
0010
0001
1001
0000
1000
0000
,
1001
0000
1000
0100
1100
0000
0100
0010
,
0001
0100
0010
0100
0002
0000
0000
0000
,
2003
0000
0000
0000
,
3001
0010
0100
1000
0010
0100
0001
0010
0100
1000
0001
0100
0001
1000
0100
0010
,
0001
0100
0010
1000
0100
0010
0001
1000
0100
1000
0001
0010
0001
0100
0010
1000
,
0001
0100
0001
1000
0010
1000
0001
0010
0100
1000
0001
1000
0010
0100
0010
1000
,
0001
1001
1100
1010
0101
0011
1001
1010
,
1000
0100
0010
0001
0100
0010
1000
0100
0010
0001
1000
0010
1000
0001
0010
0100
,
1000
0010
0100
0001
0010
0100
1000
0001
0010
0001
1000
0100
1000
0010
0100
0001
,
1000
0010
1000
0001
0100
0001
1000
0100
0010
0001
1000
0001
0100
0010
0100
0001
,
1000
0001
0100
0010
1000
0010
0100
0001
0010
0000
0000
0100
0000
0000
1000
0000
,
0001
0010
0100
1000
0100
0010
0001
1000
0001
0100
0010
1000
0010
0100
0001
0100
,
0010
1000
0010
0100
0001
1000
0001
0100
0010
1000
0001
1000
0010
0100
0001
0010
,
0100
1000
0001
1000
0100
0010
0001
0100
0010
1000
0100
0010
0001
0010
0100
1000
,
0001
0101
0011
1001
1100
1010
1001
0101
,
0001
0100
0010
1000
0100
0010
0001
0010
0001
0100
0010
1000
0100
1000
0100
0010
,
0001
1000
0010
1000
0001
0100
0010
1000
0001
0100
0010
0100
0010
1000
0001
0010
,
0100
0010
0100
1000
0001
0010
0001
0100
0010
0100
0001
0010
0100
1000
0001
1000
,
0010
0100
0010
1000
0001
0000
0100
0000
0101
0000
0001
0000
0010
0000
0100
0000
,
2000
0000
3001
0100
0101
0000
1000
0100
,
2100
0000
0000
3000
0001
0000
0100
0000
,
0101
0000
0011
0001
,
1001
0000
0000
1000
1001
0000
0002
0000
,
1013
0000
1000
0100
0110
0000
0010
0001
,
2001
0000
0000
3010
,
1010
0000
0110
0000
,
1001
0000
0000
1000
1001
0000
0000
0000
,
0011
0000
0002
2003
,
3010
0100
0001
1000
0001
0010
0100
1000
0001
0100
0001
1000
0100
0010
0001
1000
,
0010
1000
0001
0010
0100
1000
0010
1000
0010
0100
0001
0100
0010
1000
0100
0010
,
0001
0010
0001
0100
0010
0100
0001
1000
0001
0010
0100
1000
0010
0100
0001
1000
,
0001
0010
0100
1000
0010
0100
0001
1000
0100
0010
0001
1000
0001
0100
0010
1000
,
0001
0010
0001
1000
0010
0100
0001
1000
0100
1000
0001
0100
0010
1000
0100
1000
,
0100
0010
0001
0010
0100
1000
0010
0100
0001
0100
0001
0010
0100
0010
0001
1000
,
0001
0100
0010
1000
0100
0010
0001
1000
0001
0100
0010
1000
0100
0010
0001
1000
,
0001
0010
0001
0010
0001
0010
0001
0100
0020
0000
0000
0000
2030
0000
0000
0000
,
3010
0100
0001
1000
0001
0010
0100
1000
0001
0100
0001
1000
0100
0010
0001
1000
,
0010
1000
0001
0010
0100
1000
0010
1000
0010
0100
0001
0100
0010
1000
0100
0010
,
0001
0010
0001
0100
0010
0100
0001
1000
0001
0010
0100
1000
0010
0100
0001
1000
,
0001
0010
0100
1000
0010
0100
0001
1000
0100
0010
0001
1000
0001
0100
0010
1000
,
0001
0010
0001
1000
0010
0100
0001
1000
0100
1000
0001
0100
0010
1000
0100
1000
,
0100
0010
0001
0010
0100
1000
0010
0100
0001
0100
0001
0010
0100
0010
0001
1000
,
0001
0100
0010
1000
0100
0010
0001
1000
0001
0100
0010
1000
0100
0010
0001
1000
,
0001
0101
0001
1000
1002
0000
2003
0000
,
3010
0100
0001
1000
0001
0010
0100
1000
0001
0100
0001
1000
0100
0010
0001
1000
,
0010
1000
0001
0010
0100
1000
0010
1000
0010
0100
0001
0100
0010
1000
0100
0010
,
0001
0010
0001
0100
0010
0100
0001
1000
0001
0010
0100
1000
0010
0100
0001
1000
,
0001
0010
0100
1000
0010
0100
0001
1000
0100
0010
0001
1000
0001
0100
0010
1000
,
0001
0010
0001
1000
0010
0100
0001
1000
0100
1000
0001
0100
0010
1000
0100
1000
,
0100
0010
0001
0010
0100
1000
0010
0100
0001
0100
0001
0010
0100
0010
0001
1000
,
0001
0100
0010
1000
0100
0010
0001
1000
0001
0100
0010
1000
0100
0010
0001
1000
,
0001
0010
0001
0010
0001
0010
0001
0100
0020
0000
0000
0000
2030
0000
0000
0000
,
3010
0100
0001
1000
0001
0010
0100
1000
0001
0100
0001
1000
0100
0010
0001
1000
,
0010
1000
0001
0010
0100
1000
0010
1000
0010
0100
0001
0100
0010
1000
0100
0010
,
0001
0010
0001
0100
0010
0100
0001
1000
0001
0010
0100
1000
0010
0100
0001
1000
,
0001
0010
0100
1000
0010
0100
0001
1000
0100
0010
0001
1000
0001
0100
0010
1000
,
0002
0000
0013
0100
,
2200
0000
3320
0000
,
2032
0000
0000
3003
,
1001
0000
0000
0000
;
