#TITLE:Tiger Lampage;
#SUBTITLE:;
#ARTIST:sasakure.UK;
#TITLETRANSLIT:;
#SUBTITLETRANSLIT:;
#ARTISTTRANSLIT:;
#CREDIT:M.L-INS;
#BANNER:../Tachyon DIVA.png;
#BACKGROUND:../Tachyon DIVA-bg.png;
#LYRICSPATH:;
#CDTITLE:;
#MUSIC:Tiger Lampage.ogg;
#OFFSET:-0.400;
#SAMPLESTART:100.000;
#SAMPLELENGTH:12.000;
#SELECTABLE:YES;
#BPMS:0.000=150.003;
#STOPS:;
#BGCHANGES:;
// cache tags:
#FIRSTBEAT:38.000;
#LASTBEAT:308.000;
#SONGFILENAME:Songs/Tachyon DIVA/^CK[yCW[M.L-INS]/Tiger Lampage.sm;
#HASMUSIC:1;
#HASBANNER:1;
#MUSICLENGTH:126.119;
// end cache tags

//---------------dance-single - Blank----------------
#NOTES:
     dance-single:
     Blank:
     Challenge:
     13:
     1.000,1.000,0.056,0.373,1.000,866.000,7.000,47.000,44.000,0.000:
0000
0000
0000
0000
,
0000
0000
0000
0000
,
0000
0000
0000
0000
,
0000
0000
0000
0000
,
0000
0000
0000
0000
,
0000
0000
0000
0000
,
0000
0000
0000
0000
,
0000
0000
0000
0000
,
0000
0000
0000
0000
,
0000
0000
0000
0000
0000
0000
0000
0000
0000
0000
0000
0000
0000
0000
0000
0000
1000
0000
0100
0000
1000
0000
0001
0000
0010
0100
1000
0000
0001
0000
0100
0000
,
0020
0000
0000
0000
0230
0000
0000
0302
0000
1000
0000
0003
2000
0000
0000
0010
,
0000
3100
0000
0000
0200
0000
0000
0001
0000
0010
0300
0000
0020
0000
0000
1000
,
0000
0100
0030
0000
2000
0000
0000
0001
0000
0100
3000
0000
0002
0000
0000
1000
,
0000
0100
0003
0000
0020
0000
0000
1000
0000
0100
0030
0000
0200
0000
0000
0000
,
0301
0000
0000
0000
1000
0000
0000
0000
0100
0000
0000
0000
0010
0000
0000
0000
0100
0000
0000
0000
1000
0000
0000
0000
0001
0000
0000
0000
0000
0000
1000
0000
0000
0100
0000
0000
1000
0000
0000
0000
0000
0000
0001
0000
0000
0100
0000
0000
,
0010
1000
0010
0100
0001
0000
1000
0100
0010
0100
1000
0001
1000
0000
0001
0100
,
0010
1000
0100
1000
0010
0000
1000
0100
1000
0001
0100
0010
1000
0000
0001
0100
,
0010
0000
1000
0000
0001
0000
0100
0000
0010
0000
0000
0000
1000
0000
0100
0000
1000
0000
0001
0000
0100
0001
0100
0001
0010
0000
0100
0000
0000
0000
0100
0000
,
2000
0000
0000
0000
3002
0000
0000
0000
0103
0100
0010
1000
0M00
0000
1000
1000
,
0001
0010
0M00
0000
0001
0001
0100
0010
M000
0000
2000
0000
3001
0001
0000
0100
,
0010
1000
0010
0100
0000
0001
0010
0100
1000
0010
0100
0002
0000
0000
1003
0000
,
0000
0000
0100
0100
0010
0001
0000
1000
0010
0100
0001
0100
0010
1000
0000
1000
,
0010
0000
0010
0200
0000
0000
0310
0000
0000
1000
1000
0100
0010
0001
0100
0000
,
0010
1000
0000
0100
0010
0000
0001
0100
0000
0010
1000
0000
0002
0000
1003
0000
,
0001
1000
0001
0000
0100
0000
0010
0000
1000
0000
0M00
0000
1000
0000
0001
0000
0100
0000
0010
0000
1000
0000
0100
0000
0010
0000
0001
0000
0M00
0000
0001
0000
,
0010
0000
0100
0000
0010
0000
0001
0000
1000
0000
0100
0000
1000
0001
1000
0000
0100
0000
M000
0000
0100
0000
1000
0000
0001
0000
0100
0000
0010
0000
0010
0000
,
1000
0000
0100
0000
0010
0000
0001
0000
0M00
0000
0001
0000
0010
0000
0001
0000
1000
0000
0010
0000
0100
0001
0100
0000
0010
0000
1000
0000
0100
0000
0010
0000
,
M000
0010
0100
1000
0001
0M00
0001
1000
0100
0010
0100
1000
000M
1000
0010
0100
,
0001
0000
0010
0000
0100
1000
0100
0000
0020
0000
0000
0000
0031
0000
M000
0000
0001
0000
0100
0000
0010
0000
1000
0000
0100
0000
0010
0000
0M00
0000
0010
0000
,
0100
0000
1000
0000
0001
0000
0100
0000
0010
0000
1000
0000
0100
0000
0010
0000
0100
1000
0100
0000
1000
0000
0001
0000
0100
0000
0010
0000
1000
0000
0100
0000
,
0010
0001
0010
0000
0100
0000
1000
0000
0001
0000
0M00
0000
0001
0000
0100
0000
0010
0000
1000
0000
0100
0000
0010
0000
0001
1000
0001
1000
0001
0000
0100
0000
,
0010
1000
0010
0100
0001
0010
0001
1000
0200
0000
0000
0000
1000
0000
0000
0000
,
1300
0000
0000
0000
0010
0000
0000
0020
0000
0000
0000
0000
0130
0000
0000
0200
,
0000
0000
0000
0000
0301
0000
0000
2002
3000
0000
0000
0000
0100
0000
0023
0000
,
0000
0000
1000
0000
1000
0000
0000
0000
0130
0000
0001
0010
0001
0100
0010
1000
,
0010
0100
0001
0010
0100
1000
0100
0010
0002
0000
0000
0000
0100
0000
0000
0000
,
0103
0000
0000
0000
0010
0000
0000
0020
0000
0000
0000
0000
0130
0000
0000
0200
,
0000
0000
0000
0000
0301
0000
0000
2001
0000
0000
0000
0000
3010
0100
0000
0102
,
0000
0000
0000
0000
0000
0000
0000
0000
1003
0000
0100
0000
0000
0000
0120
0000
0000
0000
0000
0000
0000
0000
0000
0000
0031
0100
0001
0100
0001
0000
1000
0000
,
0100
0000
0010
0000
0001
0000
0100
0000
0010
0000
1000
0000
0001
0000
0100
0000
0001
0000
1000
0000
0010
0000
1000
0000
0100
0000
0010
0001
0010
0000
0100
0000
,
0010
0000
0001
0000
1000
0000
0010
0000
1000
0000
0100
0010
0100
0010
0100
0000
2000
0000
0000
0000
3001
0000
0100
0000
0000
0000
0100
0000
0001
0000
0000
0000
,
1000
0100
0010
0001
0200
0000
0310
0000
1000
0000
0001
0100
0000
0100
0001
0000
,
0010
0100
1000
0001
0200
0000
0310
0000
1000
0000
0001
0100
0000
0100
0010
0000
,
1000
0010
0100
0001
0200
0000
0310
0000
1000
0000
0001
0100
0000
0100
0010
0000
,
1000
0001
0010
0100
2000
0000
3001
0000
1000
0100
0010
0001
0100
0010
0200
0000
,
0301
0000
0010
0000
0100
0000
1000
0000
0001
0100
0010
1000
0100
0010
0002
0000
,
1003
0000
0100
0000
0010
0000
0001
0000
1000
0010
0100
0001
1000
0100
0020
0000
,
0031
0000
0000
0000
0100
0000
0000
0000
0110
0000
0000
0000
0100
0000
0000
0000
0001
0000
0100
0000
0010
0000
1000
0000
0100
0010
0100
0000
1000
0000
0001
0000
,
1000
0010
0100
0001
1000
0100
0010
0001
1000
0100
0010
0100
1000
0001
0100
0020
,
M03M
0010
0001
0200
M30M
0100
1000
0001
0100
0010
1000
0100
0010
0001
0100
0020
,
M03M
0010
0001
0200
M30M
0100
1000
0100
0010
0100
1000
0001
0010
0001
1000
0020
,
M03M
0010
0001
0200
M30M
0100
1000
0001
0100
0001
1000
0100
0010
0100
1000
0200
,
M30M
0100
0001
0020
M03M
0010
1000
0001
0100
0010
1000
0100
0010
0100
1000
0040
,
M03M
0010
0001
0400
M30M
0100
1000
0001
0100
0001
0010
0100
0010
0001
1000
0400
,
M30M
0100
0001
0040
M03M
0010
1000
0010
0100
0001
0010
0100
1000
0100
0010
0001
,
1000
0010
1000
0001
1000
0100
0010
0100
1000
0001
0100
0001
0010
0001
1000
0100
,
1000
0000
0001
0000
0100
0000
0001
0000
0010
0000
0001
0000
0100
0000
0010
0000
1000
0000
0010
0000
0100
0000
0001
0000
0010
0000
0000
0100
0000
0000
1000
0000
0000
0100
0000
0000
0010
0000
0000
0001
0000
0000
1000
0000
0000
0100
0000
0000
,
1000
0001
0100
0001
0010
0100
0010
0001
1000
0010
0100
0001
1000
0100
1000
0001
,
0100
0010
1000
0100
1000
0001
0100
0001
0010
0100
1000
0100
0010
0001
1000
0100
,
1000
0001
0100
0010
1000
0100
1000
0001
0100
0010
1000
0001
0100
0010
1000
0100
,
0010
0000
0000
0000
0001
0000
0000
0000
0100
0000
0000
0000
0010
0000
0000
0000
1000
0000
0000
0000
0001
0000
0000
0000
0010
0000
0000
0100
0000
0000
1000
0000
0000
0001
0000
0000
0100
0000
0000
0010
0000
0000
1000
0000
0000
0100
0000
0000
,
0010
0001
0010
0100
1000
0001
0100
0010
1000
0010
0100
0001
0010
0001
1000
0010
,
1000
0100
0010
0001
0100
0010
1000
0001
1000
0010
0100
0001
0010
0001
1000
0010
,
1000
0000
0100
0000
0010
0000
0100
0000
1000
0000
0001
0000
0100
0000
0001
0000
1000
0000
0010
0000
0100
0001
0100
0001
0100
0000
0010
0000
1000
0000
0001
0000
,
0100
0000
0010
0000
1000
0000
0100
0000
0010
0000
0002
0000
0000
0000
0000
0000
0103
0000
0100
0000
M00M
0000
0110
0000
0000
0000
0000
0000
0010
M00M
0010
0000
,
0000
0000
0110
0000
0000
0000
0100
M00M
0100
0000
0000
0000
0001
0000
1000
0000
0100
0000
1000
0000
0001
0000
0100
0000
0010
0000
1000
0000
0100
0000
1000
0000
,
0001
0100
0001
0010
0100
0010
0001
1000
0100
1000
0001
0100
0010
1000
0100
0010
,
0001
0010
0100
1000
0001
0100
0010
1000
0100
1000
0001
0100
0001
1000
0100
1000
,
0001
0100
0001
0010
0001
1000
0100
1000
0001
0010
0001
0100
0010
1000
0100
0010
,
0001
0100
0010
1000
0001
0010
0100
1000
0001
0100
0010
1000
0010
0100
0001
0010
,
0001
1000
0100
0010
0100
1000
0001
0100
0001
1000
0100
1000
0001
0100
0010
1000
,
0100
1000
0001
0100
0001
0010
0001
0100
0010
1000
0010
0100
0001
0010
0100
1000
,
0100
0010
0001
1000
0100
1000
0001
0100
0001
1000
0010
0100
0001
0010
0100
1000
,
0100
0010
0001
1000
0100
1000
0001
0100
0010
1000
0100
0010
0001
0100
0010
1000
,
0001
0010
0100
1000
0001
0010
0001
0100
0010
0100
0001
1000
0100
0010
0100
1000
,
0001
0100
0001
1000
0100
1000
0001
0100
0001
0010
0100
1000
0100
0010
0001
1000
,
0100
1000
0001
0100
0001
1000
0010
1000
0200
0000
0000
0000
0000
0000
0000
00M0
,
0300
0000
0000
0000
;
