#TITLE:Flowing 5.8.8.;
#SUBTITLE:;
#ARTIST:Rainy;
#TITLETRANSLIT:;
#SUBTITLETRANSLIT:;
#ARTISTTRANSLIT:;
#CREDIT:;
#BANNER:BN.png;
#BACKGROUND:BG.png;
#LYRICSPATH:;
#CDTITLE:KOMBO.png;
#MUSIC:Flowing 5.8.8..mp3;
#OFFSET:-5.550;
#SAMPLESTART:22.126;
#SAMPLELENGTH:12.000;
#SELECTABLE:YES;
#BPMS:0.000=87.000;
#STOPS:;
#BGCHANGES:;
// cache tags:
#FIRSTBEAT:7.000;
#LASTBEAT:142.021;
#SONGFILENAME:Songs/Definitive Keyboard Megapack/Flowing 5.8.8 [KOMBO]/Flowing 5.8.8..sm;
#HASMUSIC:1;
#HASBANNER:1;
#MUSICLENGTH:104.888;
// end cache tags

//---------------dance-single - KOMBO - Original----------------
#NOTES:
     dance-single:
     KOMBO - Original:
     Hard:
     10:
     0.718,0.677,1.000,0.629,0.467,341.000,120.000,66.000,0.000,65.000:
0000
0000
0000
0000
,
0000
0000
0000
2002
,
3103
0000
0001
0100
1010
0000
1100
0100
1000
0110
0001
0100
1010
0000
0022
0000
,
0133
0000
1000
0010
0101
0000
0011
0010
0001
0110
1000
0010
0101
0000
2020
0000
,
3031
0000
0010
0001
1100
0000
0101
0001
0100
1001
0010
0001
1100
0000
0022
0000
,
1033
0000
0100
1000
0011
0000
1010
1000
0010
1001
0100
1000
0011
0000
2020
0000
,
3130
0000
0001
0100
1010
0000
1100
0100
1000
0110
0001
0100
1010
0000
0202
0000
,
0313
0000
1000
0010
0101
0000
0011
0010
0001
0110
1000
0010
0101
0000
2020
0000
,
3031
0000
0010
0001
1100
0000
0101
0001
0100
1001
0010
0001
1100
0000
0022
0000
,
1033
0000
0100
1000
0011
0000
1010
1000
0010
1001
0100
1000
0011
0000
2002
0000
,
3103
0000
0001
0100
1010
0000
1100
0100
1000
0110
0001
0100
1010
0000
0202
0000
,
0313
0000
1000
0010
0101
0000
0011
0010
0001
0110
1000
0010
0101
0000
2020
0000
,
3130
0000
0001
0001
0011
0000
1010
0100
0100
1001
0010
0010
0011
0000
0022
0000
,
0133
0000
0100
0100
1100
0000
1100
0010
1000
1010
0100
1000
1100
0000
0220
0000
,
2332
0010
0010
0010
0010
0100
0010
0100
,
0010
0010
0010
0010
0100
0010
0100
0010
,
0100
0010
0010
0100
0010
0100
0010
0010
,
0010
0000
0100
0000
0010
0000
0010
0000
0100
0000
0010
0000
0100
0010
0100
0010
,
3103
0000
0001
0100
1010
0000
1100
0100
1000
0110
0001
0100
1010
0000
0022
0000
,
0133
0000
1000
0010
0101
0000
0011
0010
0001
0110
1000
0010
0101
0000
2020
0000
,
3031
0000
0010
0001
1100
0000
0101
0001
0100
1001
0010
0001
1100
0000
0022
0000
,
1033
0000
0100
1000
0011
0000
1010
1000
0010
1001
0100
1000
0011
0000
2020
0000
,
3130
0000
0001
0100
1010
0000
1100
0100
1000
0110
0001
0100
1010
0000
0202
0000
,
1303
0000
0100
1000
0011
0000
1010
1000
0010
1001
0100
1000
0011
0000
2020
0000
,
3130
0000
0001
0100
1010
0000
1100
0100
1000
0110
0001
0100
1010
0000
0202
0000
,
0313
0000
0010
0000
0110
0000
0100
1000
0100
0010
0001
0000
0100
0000
0020
0000
,
2032
0000
0000
0000
0000
0000
0000
0020
,
0000
0000
0000
0000
0000
0000
0000
0000
0000
0000
0000
0000
0000
0000
0000
0000
0000
0000
0000
0000
0000
0000
0000
0000
0200
0000
0000
0000
0000
0000
0000
0000
0000
0000
0000
0000
0000
0000
0000
0000
0000
0000
0000
0000
0000
0000
0000
0000
0000
0000
0000
0000
0000
0000
0000
0000
0000
0000
0000
0000
0000
0000
0000
0000
0000
0000
0000
0000
0000
0000
0000
0000
0000
0000
0000
0000
0000
0000
0000
0000
0000
0000
0000
0000
0000
0000
0000
0000
0000
0000
0000
0000
0000
0000
0000
0000
0000
0000
0000
0000
0000
0000
0000
0000
0000
0000
0000
0000
0000
0000
0000
0000
0000
0000
0000
0000
0000
0000
0000
0000
3030
0000
0000
0000
0000
0000
0000
0000
0000
0000
0000
0000
0000
0000
0000
0000
0000
0000
0000
0000
0000
0000
0000
0000
2000
0000
0000
0000
0000
0000
0000
0000
0000
0000
0000
0000
0000
0000
0000
0000
0000
0000
0000
0000
0000
0000
0000
0000
0320
0000
0000
0000
0000
0000
0000
0000
0000
0000
0000
0000
0000
0000
0000
0000
0000
0000
0000
0000
0000
0000
0000
3000
,
2000
0003
0000
0002
0000
0030
3000
0000
,
0000
0000
0000
0000
0000
0000
0000
0000
0013
0000
0010
0000
0010
0010
0010
0010
,
1100
0000
0001
0100
1010
0000
1100
0100
1000
0110
0001
0100
1010
0000
0022
0000
,
0133
0000
1000
0010
0101
0000
0011
0010
0001
0110
1000
0010
0101
0000
2020
0000
,
3031
0000
0010
0001
1100
0000
0101
0001
0100
1001
0010
0001
1100
0000
0022
0000
,
1033
0000
0100
1000
0011
0000
1010
1000
0010
1001
0100
1000
0011
0000
2200
0000
,
3320
0030
0000
0000
0000
0000
0000
0000
0000
0000
0000
0000
0000
0000
0000
0000
0000
0000
0000
0000
0000
0000
0000
0000
0000
0000
0000
0000
0000
0000
0000
0000
0000
0000
0000
0000
0000
0000
0000
0000
0000
0000
0000
0000
0000
0000
0000
0000
0020
0030
0000
0000
0000
0000
0000
0000
0000
0000
0000
0000
0000
0000
0000
0000
0000
0000
0000
0000
0000
0000
0000
0000
0000
0000
0000
0000
0000
0000
0000
0000
0000
0000
0000
0000
0000
0000
0000
0000
0000
0000
0000
0000
0000
0000
0000
0000
0020
0030
0000
0000
0000
0000
0000
0000
0000
0000
0000
0000
0000
0000
0000
0000
0000
0000
0000
0000
0000
0000
0000
0000
0000
0000
0000
0000
0000
0000
0000
0000
0000
0000
0000
0000
0000
0000
0000
0000
0000
0000
0000
0000
0000
0000
0000
0000
0020
0030
0000
0000
0000
0000
0000
0000
0000
0000
0000
0000
0000
0000
0000
0000
0000
0000
0000
0000
0000
0000
0000
0000
0000
0000
0000
0000
0000
0000
0000
0000
0000
0000
0000
0000
0000
0000
0000
0000
0000
0000
0000
0000
0000
0000
0000
0000
,
0020
0030
0000
0000
0000
0000
0000
0000
0000
0000
0000
0000
0000
0000
0000
0000
0000
0000
0000
0000
0000
0000
0000
0000
0000
0000
0000
0000
0000
0000
0000
0000
0000
0000
0000
0000
0000
0000
0000
0000
0000
0000
0000
0000
0000
0000
0000
0000
0020
0030
0000
0000
0000
0000
0000
0000
0000
0000
0000
0000
0000
0000
0000
0000
0000
0000
0000
0000
0000
0000
0000
0000
0000
0000
0000
0000
0000
0000
0000
0000
0000
0000
0000
0000
0000
0000
0000
0000
0000
0000
0000
0000
0000
0000
0000
0000
0020
0030
0000
0000
0000
0000
0000
0000
0000
0000
0000
0000
0000
0000
0000
0000
0000
0000
0000
0000
0000
0000
0000
0000
0000
0000
0000
0000
0000
0000
0000
0000
0000
0000
0000
0000
0000
0000
0000
0000
0000
0000
0000
0000
0000
0000
0000
0000
0000
0000
0000
0000
0000
0000
0000
0000
0000
0000
0000
0000
0000
0000
0000
0000
0000
0000
0000
0000
0000
0000
0000
0000
0000
0000
0000
0000
0000
0000
0000
0000
0000
0000
0000
0000
0000
0000
0000
0000
0000
0000
0000
0000
0000
0000
0000
0000
;
