#TITLE:HIGH;
#SUBTITLE:;
#ARTIST:RAM;
#TITLETRANSLIT:;
#SUBTITLETRANSLIT:;
#ARTISTTRANSLIT:;
#CREDIT:;
#BANNER:high banner.PNG;
#BACKGROUND:high-bg.PNG;
#LYRICSPATH:;
#CDTITLE:!hayden-cdtitle.png;
#MUSIC:HIGH.MP3;
#OFFSET:-0.420;
#SAMPLESTART:87.000;
#SAMPLELENGTH:12.000;
#SELECTABLE:YES;
#BPMS:0.000=180.000,164.000=90.000,180.000=180.000;
#STOPS:;
#BGCHANGES:;
// cache tags:
#FIRSTBEAT:3.000;
#LASTBEAT:309.000;
#SONGFILENAME:Songs/Keyboard Collaboration II/Hayden - High/HIGH.sm;
#HASMUSIC:1;
#HASBANNER:1;
#MUSICLENGTH:111.180;
// end cache tags

//---------------dance-single - ----------------
#NOTES:
     dance-single:
     :
     Hard:
     11:
     1.000,1.000,1.000,0.072,0.895,672.000,135.000,8.000,0.000,0.000:  // measure 1
0000
0000
0000
0000
0000
0000
0001
0001
,  // measure 2
0110
0000
0000
0000
,  // measure 3
0000
1001
0000
0000
1010
0000
0000
0000
,  // measure 4
1001
0000
0000
0000
,  // measure 5
0000
0011
0000
0000
0101
0000
1001
0000
,  // measure 6
1100
0000
0000
0000
0000
0110
0000
0000
,  // measure 7
0000
0101
0000
0000
1010
0000
0000
0000
,  // measure 8
1001
0000
0000
0000
0000
1001
0000
1100
,  // measure 9
0000
1010
0010
0010
0010
0010
0010
0010
,  // measure 10
1001
0010
0100
0010
1000
0100
0010
0001
,  // measure 11
0100
1001
0010
0100
0011
0100
0001
1000
,  // measure 12
0110
1000
0010
0100
0001
0010
0100
1000
,  // measure 13
0100
0011
1000
0100
1010
0001
0110
1000
,  // measure 14
0011
1000
0100
0011
0000
0011
0000
0010
,  // measure 15
1000
0110
0001
0100
1001
0010
0001
1000
,  // measure 16
0110
0001
1000
0110
0000
0110
0000
0001
,  // measure 17
1000
0010
0100
0001
1000
0010
0100
0001
1000
0100
0010
0001
1000
0100
0010
0001
,  // measure 18
1000
0000
0000
1001
0000
1010
0000
1100
,  // measure 19
0000
0101
0000
0011
0110
0000
0011
0000
,  // measure 20
1001
0000
0000
1010
0000
1100
0000
1010
,  // measure 21
0000
0000
1100
0000
0110
0000
0011
0000
0001
0010
0100
1000
0010
0100
0001
1000
,  // measure 22
0110
0000
0000
0110
0000
0101
0000
1010
,  // measure 23
0000
0011
0000
1010
1001
0000
0011
0000
,  // measure 24
0110
0000
0000
0011
0000
1010
0000
2002
,  // measure 25
3003
0100
1001
0110
,  // measure 26
1001
0000
1000
0010
1000
0000
0001
0100
0010
1000
0001
0100
0010
0000
1000
0100
,  // measure 27
1000
0000
0001
0100
0001
0000
1000
0010
0100
0001
1000
0100
0010
0000
0001
0010
,  // measure 28
0100
0000
1000
0010
0100
0000
1000
0010
1000
0001
0100
0001
0010
0000
1000
0001
,  // measure 29
1000
0000
0010
0100
0010
0000
0001
0010
0100
1000
0010
0100
0010
0000
1000
0010
,  // measure 30
1000
0000
0001
0100
0001
0000
0010
0100
0010
1000
0100
0010
0001
0000
1000
0010
,  // measure 31
0100
0000
0001
0010
0100
0000
1000
0010
1000
0100
1000
0001
0100
0000
0001
1000
,  // measure 32
0001
0000
0100
0010
0100
0000
0001
1000
0001
0010
0100
1000
0010
0000
0010
0000
,  // measure 33
1001
0101
0000
1010
0101
0101
1010
0110
,  // measure 34
1001
0000
0001
0100
0001
0000
0001
0100
0001
0000
0001
0100
0001
0000
1000
0010
,  // measure 35
0100
0001
1000
0100
0010
0001
1000
0001
0010
0100
1000
0010
0100
0000
1000
0010
,  // measure 36
1000
0000
1000
0010
1000
0000
1000
0010
1000
0000
0001
0100
0010
1000
0001
1000
,  // measure 37
0010
0100
0001
1000
0100
0010
0001
0010
0100
1000
0010
0100
0001
0000
0010
0100
,  // measure 38
0010
0000
0010
0100
0010
0000
0010
0100
0010
0000
1000
0010
1000
0100
0010
0001
,  // measure 39
0100
0010
0100
0001
0010
0100
1000
0010
0100
0001
1000
0100
0010
0000
0001
0010
,  // measure 40
0001
0010
0100
1000
0100
1000
0010
1000
0010
1000
0001
1000
0001
0100
0001
0100
,  // measure 41
0001
0100
0010
1000
0001
0100
0010
1000
0001
0100
0010
1000
0001
0100
0010
1000
,  // measure 42
0101
1000
0010
0100
0001
0010
0100
1010
0000
0110
0000
1010
0101
0000
0000
0000
,  // measure 43
1001
0100
0010
0100
0001
1000
0100
0011
0000
1010
0000
0101
0110
0000
1010
0000
,  // measure 44
1001
0010
0100
1000
0010
0100
0001
1100
0000
0101
0000
0110
1001
0000
0000
0000
,  // measure 45
0101
0001
0001
0001
0001
0001
0001
0001
1001
0010
0000
0001
0010
0100
0010
0100
,  // measure 46
1001
0000
1000
0010
0000
0010
0100
0000
,  // measure 47
0000
1000
0100
1000
0100
0000
0100
0001
,  // measure 48
0010
0000
0001
0010
0000
0000
1000
0000
,  // measure 49
1000
0110
0110
0110
0001
1010
1010
1010
,  // measure 50
1001
0100
0010
0100
0000
1000
0100
0000
,  // measure 51
1000
2000
3200
0320
,  // measure 52
1030
0100
1000
0010
0000
0100
0001
0000
,  // measure 53
1100
0010
0010
0010
0010
0010
0010
0000
,  // measure 54
1001
0000
0000
0101
0000
1010
0000
1100
,  // measure 55
0000
0101
0000
0011
0011
0000
1001
0000
,  // measure 56
1100
0000
0000
1010
0000
0110
0000
0101
,  // measure 57
0000
0011
0011
0011
0011
0000
1001
0000
,  // measure 58
1100
0000
0000
1010
0000
0110
0000
0101
,  // measure 59
0000
0011
0000
0101
0101
0000
1001
0000
,  // measure 60
1100
0000
0000
1010
0000
0110
0000
2002
,  // measure 61
3003
1010
0000
0101
1010
0000
0110
0000
,  // measure 62
1001
0000
0001
0100
0001
0000
1000
0010
0100
0001
1000
0010
0100
0000
0001
0010
,  // measure 63
0001
0000
1000
0010
1000
0000
0001
0100
0010
1000
0001
0010
0100
0000
1000
0100
,  // measure 64
0010
0000
0001
0100
0010
0000
0001
0100
0001
1000
0010
1000
0100
0000
0001
1000
,  // measure 65
0001
0000
0100
0010
0100
0000
1000
0100
0010
0001
0100
0010
0100
0000
0001
0100
,  // measure 66
0001
0000
1000
0010
1000
0000
0100
0010
0100
0001
0010
0100
1000
0000
0001
0100
,  // measure 67
0010
0000
1000
0100
0010
0000
0001
0100
0001
0010
0001
1000
0010
0000
1000
0001
,  // measure 68
1000
0000
0010
0100
0010
0000
1000
0001
1000
0100
0010
0001
0100
0000
0100
0000
,  // measure 69
1001
1100
1100
1100
1100
0000
1010
0000
,  // measure 70
1001
0000
1000
0010
1000
0000
1000
0010
1000
0000
1000
0010
1000
0000
0001
0100
,  // measure 71
0010
1000
0001
0010
0100
1000
0001
1000
0100
0010
0001
0100
0010
0000
0001
0100
,  // measure 72
0001
0000
0001
0100
0001
0000
0001
0100
0001
0000
1000
0010
0100
0001
1000
0001
,  // measure 73
0100
0010
1000
0001
0010
0100
1000
0100
0010
0001
0100
0010
1000
0000
0100
0010
,  // measure 74
0100
0000
0100
0010
0100
0000
0100
0010
0100
0000
0001
0100
0001
0010
0100
1000
,  // measure 75
0010
0100
0010
1000
0100
0010
0001
0100
0010
1000
0001
0010
0100
0000
0100
0000
,  // measure 76
0001
1000
0001
0100
0001
0010
0100
1000
,  // measure 77
0001
0010
0100
1000
0001
0010
0100
1000
0001
0100
0010
1000
0001
0100
0010
1000
,  // measure 78
0002
0003
0000
0000
;
