#TITLE:F.D.D.;
#SUBTITLE:Chaos Head Anime OP;
#ARTIST:Kanako Itou;
#TITLETRANSLIT:;
#SUBTITLETRANSLIT:;
#ARTISTTRANSLIT:;
#CREDIT:Arashi Kaze;
#BANNER:Chaos Head OP-bn.jpg;
#BACKGROUND:Chaos Head OP-bg.jpg;
#LYRICSPATH:;
#CDTITLE:Arashi Kaze.png;
#MUSIC:Chaos Head OP.mp3;
#OFFSET:-1.272;
#SAMPLESTART:44.727;
#SAMPLELENGTH:17.636;
#SELECTABLE:YES;
#BPMS:0.000=165.005,2.000=164.991,3.000=165.005,5.000=164.991,6.000=165.005,8.000=164.991,9.000=165.005,10.000=164.991,11.000=165.005,13.000=164.991,14.000=165.005,16.000=164.991,17.000=165.005,19.000=164.991,20.000=165.005,21.000=164.991,22.000=165.005,24.000=164.991,25.000=165.005,27.000=164.991,28.000=165.005,29.000=164.991,30.000=165.005,32.000=164.991,33.000=165.005,35.000=164.991,36.000=165.005,37.000=164.991,38.000=165.005,40.000=164.991,41.000=165.005,43.000=164.991,44.000=165.005,45.000=164.991,46.000=165.005,48.000=164.991,49.000=165.005,51.000=164.991,52.000=165.005,53.000=164.991,54.000=165.005,56.000=164.991,57.000=165.005,59.000=164.991,60.000=165.005,61.000=164.991,62.000=165.005,64.000=164.991,65.000=165.005,67.000=164.991,68.000=165.005,69.000=164.991,70.000=165.005,72.000=164.991,73.000=165.005,75.000=164.991,76.000=165.005,77.000=164.991,78.000=165.005,80.000=164.991,81.000=165.005,83.000=164.991,84.000=165.005,85.000=164.991,86.000=165.005,88.000=164.991,89.000=165.005,91.000=164.991,92.000=165.005,93.000=164.991,94.000=165.005,96.000=164.991,97.000=165.005,99.000=164.991,100.000=165.005,101.000=164.991,102.000=165.005,104.000=164.991,105.000=165.005,107.000=164.991,108.000=165.005,109.000=164.991,110.000=165.005,112.000=164.991,113.000=165.005,115.000=164.991,116.000=165.005,117.000=164.991,118.000=165.005,120.000=164.991,121.000=165.005,123.000=164.991,124.000=165.005,125.000=164.991,126.000=165.005,128.000=164.991,129.000=165.005,131.000=164.991,132.000=165.005,133.000=164.991,134.000=165.005,136.000=164.991,137.000=165.005,139.000=164.991,140.000=165.005,141.000=164.991,142.000=165.005,144.000=164.991,145.000=165.005,147.000=164.991,148.000=165.005,149.000=164.991,150.000=165.005,152.000=164.991,153.000=165.005,155.000=164.991,156.000=165.005,157.000=164.991,158.000=165.005,160.000=164.991,161.000=165.005,163.000=164.991,164.000=165.005,165.000=164.991,166.000=165.005,168.000=164.991,169.000=165.005,171.000=164.991,172.000=165.005,173.000=164.991,174.000=165.005,176.000=164.991,177.000=165.005,180.000=164.991,181.000=165.005,184.000=164.991,185.000=165.005,188.000=164.991,189.000=165.005,192.000=164.991,193.000=165.005,196.000=164.991,197.000=165.005,200.000=164.991,201.000=165.005,204.000=164.991,205.000=165.005,208.000=164.991,209.000=165.005,212.000=164.991,213.000=165.005,216.000=164.991,217.000=165.005,220.000=164.991,221.000=165.005,224.000=164.991,225.000=165.005,228.000=164.991,229.000=165.005,232.000=164.991,233.000=165.005,236.000=164.991,237.000=165.005,240.000=164.991,241.000=165.005;
#STOPS:;
#BGCHANGES:-3.000=Chaos Head OP.avi=1.000=0=0=0,
99999=-nosongbg-=1.000=0=0=0 // don't automatically add -songbackground-
;
// cache tags:
#FIRSTBEAT:0.000;
#LASTBEAT:241.000;
#SONGFILENAME:Songs/new cedric/Chaos Head OP -Anime-/F.D.D.sm;
#HASMUSIC:1;
#HASBANNER:1;
#MUSICLENGTH:90.072;
// end cache tags

//---------------dance-single - ----------------
#NOTES:
     dance-single:
     :
     Medium:
     5:
     0.341,0.366,0.122,0.144,0.000,191.000,11.000,13.000,0.000,0.000:
1001
0000
0000
0000
,
1001
0000
0100
0010
,
0100
0000
1000
0001
,
1000
0000
0010
0100
,
0001
0000
0010
0001
,
0100
0000
0100
0001
,
0100
0000
0010
1000
,
0010
0000
1000
0001
,
1000
0000
0100
1000
,
0002
0000
0000
0003
,
1001
0010
0100
0001
,
0000
0010
0001
1000
,
0000
0100
0010
1000
,
0001
0100
0010
1000
,
0000
0100
0010
1000
,
0000
0100
1000
0001
,
0000
0010
0100
0001
,
1000
0010
0100
0001
,
1001
0000
0000
0100
0000
0000
0000
0010
,
0000
0000
0000
0100
0000
0010
0000
0000
,
1001
0000
0000
0010
0000
0000
0000
0100
,
0000
0000
0000
0010
0000
0100
0000
0000
,
0001
1000
0010
0100
,
0001
1000
0010
1000
,
0002
0000
0000
0000
0003
0000
0000
2000
,
0000
0000
3000
0001
0000
1001
0000
0000
,
1000
0001
0100
0010
,
1000
0001
0100
0001
,
1000
0000
0010
0000
0100
0000
0000
0002
,
0000
0003
0100
0000
0010
0000
0000
0000
,
0010
0100
0010
0100
,
0001
1000
0001
1000
,
0001
0100
0010
1000
,
0011
0000
0000
1001
0000
0000
0101
0000
,
0001
0100
0010
1000
,
0010
0000
0100
0001
0000
0001
0100
0000
,
0010
1000
0010
0100
,
0002
0000
0000
0000
0003
0000
0000
0100
,
1000
0000
0000
1000
0010
0000
0000
0010
,
0100
0000
0000
0100
0001
0000
0000
0000
,
0001
0100
0010
1000
,
0002
0003
0000
2000
3000
0000
0002
0003
,
1000
0010
0100
0001
,
0100
0000
0010
1000
0000
1000
0010
0000
,
0100
0001
0100
0010
,
2000
0000
0000
0000
3000
0000
0000
0010
,
0001
0000
0000
0001
0100
0000
0000
0100
,
0010
0000
0000
0010
1000
0000
0100
0000
,
1000
0000
0010
0001
,
0010
0000
0000
0100
0000
0000
0010
0000
,
0200
0000
0300
0000
0010
0000
0000
0200
,
0000
0300
0001
0000
1000
0000
0000
0000
,
0200
0300
0010
0000
,
0001
0000
0000
1000
0000
0000
1001
0000
,
0001
1000
0001
1000
,
0010
0100
0010
0100
,
1001
0000
0000
0000
0010
0000
0100
0020
,
0000
0000
0000
0000
,
0030
0000
0001
1000
,
0001
0000
1000
0000
0001
0000
1000
0100
,
0000
0000
0000
0000
,
0000
0000
0000
0000
;

//---------------dance-single - ----------------
#NOTES:
     dance-single:
     :
     Hard:
     8:
     0.722,0.634,0.633,0.400,0.139,362.000,57.000,36.000,0.000,1.000:
0100
1000
0000
1000
0000
0100
1000
0000
,
0002
0000
1003
0010
0000
0001
1000
0100
,
0020
0000
0031
0100
0000
1000
0001
0010
,
0200
0000
1300
0001
0000
0010
1000
0100
,
2000
0000
0000
0000
3001
0000
1000
0000
0000
0000
0001
0000
0100
1000
0100
0000
,
0002
0000
1103
0001
0010
0100
0001
0010
,
0002
0000
0013
1000
0100
0010
1000
0100
,
2000
0000
3100
0001
1000
0001
1000
0100
,
0020
0000
0000
0000
0130
0000
1000
0000
0001
0010
0001
0000
0100
0000
0000
0000
,
0012
0000
0000
0000
0000
0100
1003
0100
,
0011
0000
1000
0002
0000
0003
0001
0010
,
0000
0010
0100
2000
0000
3000
1000
0100
,
0000
0000
0001
0011
0000
1100
0000
0101
,
0000
1010
0000
0110
0000
2002
0000
3003
,
1100
0000
0001
2000
0000
3000
1000
0100
,
0000
0100
0010
0002
0000
0003
0001
0010
,
0000
0000
1000
1100
0000
0011
0000
1010
,
0000
0101
0000
0110
0000
2002
0000
3003
,
1000
0010
0100
0002
0000
1003
0100
0002
,
0000
0103
0000
0002
0103
0002
0003
0000
,
0001
0100
0010
2000
0000
3010
0001
2000
,
0000
3010
0100
0001
1100
0011
0000
0001
,
0010
0001
1000
0010
0100
0001
0000
0001
,
0011
0000
1100
0000
0002
0003
0020
0030
,
0200
0001
0010
0001
0310
0100
0110
1001
,
0000
0000
0000
0000
0000
0000
0001
0010
0100
0000
1000
0000
0100
0000
0000
0000
,
0001
0010
0100
1000
0011
0100
1000
0011
,
0000
0010
0100
2000
0001
3010
0001
0000
,
1000
0100
0010
0001
1100
0010
0001
1100
,
0000
0001
0010
1000
0100
1000
0000
0000
,
0100
0000
0010
0000
0001
0000
1000
0100
1000
0000
0010
0000
0001
0000
0000
0000
,
0100
0000
1000
0000
0100
0000
0001
0010
0001
0000
0100
0000
1000
0000
0200
0000
,
0001
1000
0001
1000
0301
0000
0001
0000
,
0011
0101
0000
0110
0000
1100
1010
0000
,
1100
0000
0000
0001
0000
0000
0010
0000
1100
0000
0000
1000
0000
0000
0100
0000
,
0011
0000
0000
0100
0000
0000
1000
0000
0000
0000
0001
0000
0010
0000
0001
0000
,
0100
0010
0001
1000
0000
0001
0000
0001
,
2000
0000
0001
0010
0001
0000
0100
0000
3001
0010
0100
0000
0010
0000
0001
0000
,
0011
0000
0000
1000
0000
0000
0100
0000
1100
0000
0000
0001
0000
0000
0010
0000
,
0011
0000
0000
1000
0000
0000
0100
0000
1100
0000
0000
0000
0000
0000
0000
0000
,
0010
0001
0010
0100
1000
0100
0000
1000
,
0010
0000
0100
0000
0000
0000
0001
0000
1000
0000
0001
0000
0100
0010
0001
0010
,
1100
0000
0000
1000
0000
0000
0100
0000
0011
0000
0000
0001
0000
0000
0010
0000
,
1100
0000
0000
0010
0000
0000
0001
0000
0000
0000
1000
0000
0100
0000
1000
0000
,
0010
0100
1000
0001
0000
1000
0000
1000
,
0002
0000
1000
0100
1000
0000
0010
0000
1003
0100
0010
0000
0100
0000
1000
0000
,
1100
0000
0000
0001
0000
0000
0010
0000
0011
0000
0000
1000
0000
0000
0100
0000
,
1100
0000
0000
0001
0000
0000
0010
0000
0011
0000
0100
0000
1000
0000
0100
0000
,
0000
0000
0000
0001
0010
0100
1000
0100
,
0001
0000
1000
0001
0000
0100
0011
0100
,
0011
0000
0000
1000
1100
0000
1000
0011
,
0000
0000
0011
0000
1100
0000
0000
1000
,
0011
0000
0000
0000
1100
0000
0000
0100
,
0011
1000
0100
0011
1000
0100
0011
0000
,
0001
0000
0100
0000
0010
0000
1000
0100
1000
0000
0001
0000
0010
0000
0000
0000
,
1000
0000
0010
0000
0100
0000
0001
0010
0001
0000
1000
0000
0100
0000
0000
0000
,
1001
0000
0000
0001
1000
0010
0100
2000
,
3000
0002
0000
0000
1000
0100
0010
0100
,
2003
3000
1000
0000
0001
0010
0100
0010
,
0002
0003
0001
0000
1000
0001
2000
0002
,
0000
3003
0000
0000
0000
0000
0000
0000
,
0000
0000
0000
0000
;

//---------------dance-single - ----------------
#NOTES:
     dance-single:
     :
     Challenge:
     11:
     0.917,0.836,0.999,0.144,0.383,475.000,90.000,13.000,0.000,0.000:
0101
1010
0000
0110
0000
0101
1010
0000
,
2000
0000
3001
0010
1100
0010
1001
0010
,
1200
0000
0310
0001
0011
0100
1001
0100
,
0021
0000
0130
0010
1001
0010
1100
0010
,
1002
0000
0000
0000
0013
0000
0100
0000
1000
0000
0001
0100
0010
1000
0001
0010
,
1100
0000
0001
0000
0011
0000
1000
0100
1000
0000
0001
0000
0100
0000
1000
0000
,
0100
0000
0001
0000
0011
0000
0100
0010
0100
0000
0001
0000
0100
0000
1000
0000
,
0001
0000
0010
0000
1100
0000
0001
0100
0010
0000
0001
0000
0100
0000
0010
0000
,
1000
0000
0100
0000
0011
0000
0001
0100
0010
1000
0001
0010
1100
0000
0000
0000
,
0021
0000
0000
0000
0000
0000
0000
0000
0000
0000
0100
1000
0001
1030
0100
0000
,
0011
0000
0100
0000
1000
0000
0001
0100
0001
0100
0001
0000
1000
0000
0001
0000
,
0010
0000
1000
0000
0100
0000
0001
0010
1000
0100
0010
0000
1000
0000
0100
0000
,
0010
0000
0001
0000
0010
0000
1000
0100
1000
0001
0010
0000
0001
0000
1000
0000
,
0010
0000
0100
0000
0001
0000
0100
1000
0010
0100
0010
0000
0100
0000
0010
0000
,
1100
0000
0010
0000
0001
0000
1000
0010
1000
0010
1000
0000
0001
0000
1000
0000
,
0100
0000
0001
0000
0010
0000
1000
0100
0001
0010
0100
0000
0001
0000
0010
0000
,
0100
0000
1000
0000
0100
0000
0001
0010
0001
1000
0100
0000
1000
0000
0001
0000
,
0100
0000
0010
0000
1000
0000
0100
0010
0001
0010
1100
0000
0000
0000
0000
0000
,
0011
0100
1000
0110
0001
0100
1000
0110
,
1000
0100
0010
0011
0100
1100
0000
0000
,
1100
0010
0001
0110
1000
0010
0001
0110
,
0001
0010
0100
1100
0110
0011
0000
0001
,
0010
0000
1000
0000
0001
0000
1000
0100
0010
0000
1000
0000
0100
0000
1000
0000
,
0001
0000
0010
0000
0100
0000
1000
0100
0010
0000
1000
0000
0001
0000
1000
0000
,
0002
1000
0010
1000
0013
1000
1100
2020
,
0000
0000
3030
0000
0000
0000
0010
1000
0100
0000
0001
0000
0010
0000
0000
0000
,
1100
0010
0001
0010
1100
0001
1000
0110
,
0000
1000
0110
0001
0011
1000
0100
0000
,
0011
0100
1000
0100
0011
1000
0001
0110
,
0000
0001
0110
1000
1100
0010
0000
0000
,
0001
0000
0010
0000
0100
0000
1000
0100
1000
0000
0010
0000
0001
0000
0010
0000
,
1000
0000
0100
0000
0010
0000
0001
0010
0001
0000
0010
0000
0100
0000
0020
0000
,
0001
1000
0001
1000
0031
1000
0001
0000
,
0101
1001
0000
1001
0000
0101
1001
0000
,
1001
0000
0000
0001
0000
0000
0010
0000
1100
0000
0000
1000
0000
0000
0100
0000
,
0011
0000
0000
0100
0000
0000
1000
0000
0000
0000
0001
0000
0010
0000
0001
0000
,
0100
1000
0001
0100
0010
1000
0001
0010
,
0100
0000
0001
1000
0001
0000
1000
0000
0001
1000
0001
1000
0001
0000
1000
0000
,
1100
0000
0000
1000
0000
0000
0100
0000
0110
0000
0000
0010
0000
0000
0001
0000
,
0011
0000
0000
0100
0000
0000
1000
0000
1100
0000
0001
0010
0001
0000
1000
0000
,
0011
1000
0010
0100
0001
0100
0000
1000
,
0011
0000
0100
0000
0001
0000
1000
0000
0001
0000
0010
1000
0010
1000
0100
1000
,
0011
0000
0000
1000
0000
0000
0100
0000
0011
0000
0000
0001
0000
0000
0010
0000
,
1100
0000
0000
0010
0000
0000
0001
0000
0000
0000
1000
0000
0100
0000
1000
0000
,
0010
0001
1000
0010
0100
0001
1000
0100
,
0010
0000
1000
0001
1000
0000
0001
0000
1000
0001
1000
0001
1000
0000
0001
0000
,
0011
0000
0000
0001
0000
0000
0010
0000
0110
0000
0000
0100
0000
0000
1000
0000
,
1100
0000
0000
0010
0000
0000
0001
0000
0011
0000
1000
0000
1010
0000
1001
0000
,
0010
0001
0010
1000
0100
0000
1000
0000
0010
0000
0100
0000
0001
0000
0010
0000
,
1100
0000
0010
0000
1000
0000
0001
1000
0100
0000
0001
0000
0011
0000
0010
0000
,
1100
0000
0001
0001
1100
0000
0100
0011
,
0000
0011
0100
0000
1100
0000
1000
1000
,
0011
0000
0000
0010
1100
0000
0000
0001
,
1100
0000
0001
0000
0010
0000
1100
0000
0001
0000
0010
0000
1100
0010
0001
0010
,
1100
0000
0001
0000
0011
0000
1000
0010
0100
0001
0100
0000
0011
0000
0000
0000
,
0010
0000
1000
0000
1100
0000
0001
0100
0010
1000
0010
0000
1100
0000
0000
0000
,
0011
0000
0000
0000
0000
0000
0100
0010
0001
0010
0100
0010
0001
0000
0002
0000
,
0003
0000
2000
0000
0000
0000
0100
0010
0100
0000
0001
0000
0100
0000
0010
0000
,
3100
0000
0000
0000
1100
0000
0001
0010
0001
0000
0100
0000
0010
0000
1000
0000
,
0100
0000
0000
0000
0110
0000
0001
1000
0001
0000
1000
0000
0002
0000
2000
0000
,
0000
3003
0000
0000
,
0000
0000
0000
0000
;

//---------------dance-single - Hard Edit----------------
#NOTES:
     dance-single:
     Hard Edit:
     Edit:
     12:
     1.000,0.935,1.000,0.189,0.466,531.000,134.000,17.000,0.000,3.000:
0110
1001
0000
1001
0000
0110
1001
0000
,
0120
1000
0031
1000
0010
0100
0001
0010
,
1200
0001
1300
0010
0001
1000
0100
1000
,
0201
0010
1300
0001
1000
0010
0100
0001
,
1020
0000
0001
0000
1030
0000
0100
0000
0001
0000
0100
0001
0010
0001
0100
1000
,
0011
0000
0010
0000
0011
0000
1000
0010
0100
0001
1000
0000
0011
0000
0010
0000
,
0110
0000
0100
0000
1100
0000
0001
0100
0010
1000
0001
0000
1100
0000
0100
0000
,
0110
0000
0010
0000
0011
0000
0100
0001
1000
0010
0100
0000
0011
0000
1000
0000
,
1100
0000
0001
0000
0011
0000
0100
0010
1000
0100
1000
0001
0010
0000
0000
0000
,
1020
0000
0001
0000
1000
0000
0001
0000
1000
0000
0001
1000
0130
1000
0001
0000
,
1100
0000
0010
0000
0011
0000
0100
0010
0100
0001
0010
0000
1100
0000
0001
0000
,
0011
0000
1000
0000
1100
0000
0010
0001
1000
0100
1000
0000
1100
0000
0001
0000
,
1100
0000
1000
0000
0011
0000
1000
0001
1000
0010
1000
0000
0011
0000
0010
0000
,
0110
0100
1100
0001
0011
0202
0000
0303
,
0011
0000
0100
0000
1100
0000
0010
0100
0010
1000
0100
0000
0011
0000
1000
0000
,
1100
0000
0001
0000
0011
0000
0100
1000
0001
0010
0001
0000
0011
0000
1000
0000
,
0011
0000
0001
0000
1100
0000
0001
1000
0001
0100
0001
0000
1100
0000
0100
0000
,
0110
0010
0011
1000
1100
2020
0000
3030
,
1001
0010
0100
1001
0010
0100
0010
1001
,
0010
0000
0100
0000
0010
0000
0101
0000
0110
0000
1010
0000
0001
0010
0100
0000
,
1001
0100
0010
1001
0100
0010
0100
1001
,
0100
0010
0100
1010
0110
0101
0010
0001
,
0010
0000
0100
0000
0010
0000
0100
1000
0100
0000
0010
0000
0001
0000
0100
0000
,
0001
0000
1000
0000
0100
0000
0001
0010
0001
0000
1000
0000
0100
0000
0010
0000
,
0002
0100
0010
0100
0010
0103
1100
1001
,
0010
0000
0100
0000
0010
0000
1000
0100
1000
0000
0001
0000
0010
0000
1000
0000
,
0011
0100
0010
0100
0011
0100
0010
0011
,
1000
0011
0100
0010
1001
0010
0100
0001
,
1100
0010
0100
0010
1100
0010
0100
1100
,
0001
0000
1100
0000
0010
0000
0100
0000
1001
0000
0100
0000
1001
0000
0010
0100
,
0010
0000
1000
0000
0010
0000
0100
0000
0001
0000
0010
0000
0100
0000
1000
0100
,
1000
0000
0001
0000
0100
0000
0010
0000
1000
0000
0100
0000
0010
0000
0001
0010
,
0002
1000
0100
0010
1003
0100
0011
0001
,
0011
0101
0001
0101
0001
0101
1001
0000
,
1100
0000
0001
0100
0001
0100
0010
0000
0011
0000
1000
0010
1000
0010
0100
0000
,
1100
0000
0000
0001
0000
0000
0011
0000
0000
0000
1000
0000
0100
0000
1000
0000
,
0011
0000
1000
0100
0001
0010
1000
0100
1000
0000
0001
0000
0010
0000
1000
0000
,
0200
0000
0001
1000
0001
0000
1000
0000
0310
1000
0010
0100
0010
0000
1000
0000
,
1100
0000
0000
0001
0000
0000
1000
0000
1100
0000
0000
0010
0000
0000
1000
0000
,
1100
0000
0000
0100
0000
0000
1000
0000
1100
0000
0001
0010
0001
0000
1000
0000
,
0011
0100
1000
0001
0010
0001
1000
0001
,
1100
0001
0100
0001
0100
0010
0100
1000
0001
0100
0001
0010
1100
0000
0001
0000
,
0011
0000
1000
0010
1000
0010
0100
0000
1100
0000
0001
0100
0001
0100
0010
0000
,
0011
0000
0000
1000
0000
0000
1100
0000
0000
0000
0001
0000
0010
0000
0001
0000
,
1100
0000
0001
0010
1000
0100
0001
0010
0001
0000
1000
0000
0100
0000
0001
0000
,
0020
0000
1000
0001
1000
0000
0001
0000
0130
0001
0100
0010
0100
0000
0001
0000
,
0011
0000
0000
1000
0000
0000
0001
0000
0011
0000
0000
0100
0000
0000
0001
0000
,
0011
0000
0000
0010
0000
0000
0001
0000
0011
0000
0001
0000
0101
0000
1001
0000
,
0100
0001
0010
1000
0100
0000
0001
0000
0010
0000
0001
0000
1000
0000
0100
0000
,
0010
0000
1000
0000
0010
0000
0001
0100
0011
0000
1010
0000
0101
0000
0110
0000
,
1001
0010
0010
0001
1100
0010
0100
0011
,
0000
0001
0011
0010
1100
1000
0001
0100
,
0011
0001
0001
0010
1100
0000
0000
0100
,
0011
1000
0010
1000
0010
1000
0011
1000
0001
1000
0001
1000
0011
0000
0100
0000
,
0011
0000
0010
0000
0110
0000
1000
0001
1000
0010
0100
0000
1001
0000
0010
0000
,
1100
0000
0100
0000
0110
0000
0001
1000
0001
0100
0010
0000
1001
0000
0001
0000
,
1001
0000
0010
0000
0100
0000
0001
0010
0001
0100
1000
0010
0001
0000
0002
0000
,
0003
2000
0000
0000
0101
0010
0101
0010
,
3101
0010
1001
0100
1010
0100
1010
0100
,
1010
0100
1001
0100
0011
1010
0101
2002
,
0000
3003
0000
0000
0000
0000
0000
0000
,
0000
0000
0000
0000
;
