#TITLE:Ouverture 1928;
#SUBTITLE:;
#ARTIST:Dream Theater;
#TITLETRANSLIT:;
#SUBTITLETRANSLIT:;
#ARTISTTRANSLIT:;
#CREDIT:;
#BANNER:Ouverture 1928.png;
#BACKGROUND:Ouverture 1928.jpg;
#LYRICSPATH:;
#CDTITLE:KS.png;
#MUSIC:Ouverture 1928.mp3;
#OFFSET:-0.500;
#SAMPLESTART:33.293;
#SAMPLELENGTH:11.920;
#SELECTABLE:YES;
#BPMS:0.000=111.000,49.000=114.000,51.000=111.000,83.000=116.000,83.500=111.000,114.750=106.000,115.000=111.000,176.500=117.500,177.000=111.000,270.750=125.000,271.000=111.300,302.750=103.000,303.000=111.000,307.000=113.500,322.000=117.800,350.500=113.000,366.500=112.500,374.500=110.500,382.500=111.300,566.000=140.020;
#STOPS:;
#BGCHANGES:;
// cache tags:
#FIRSTBEAT:29.000;
#LASTBEAT:403.813;
#SONGFILENAME:Songs/keyboard/Ouverture 1928/Ouverture 1928.sm;
#HASMUSIC:1;
#HASBANNER:1;
#MUSICLENGTH:219.067;
// end cache tags

//---------------dance-single - ----------------
#NOTES:
     dance-single:
     :
     Challenge:
     12:
     0.932,1.000,0.826,0.758,1.000,1082.000,181.000,166.000,0.000,1.000:  // measure 1
0000
0000
0000
0000
,  // measure 2
0000
0000
0000
0000
,  // measure 3
0000
0000
0000
0000
,  // measure 4
0000
0000
0000
0000
,  // measure 5
0000
0000
0000
0000
,  // measure 6
0000
0000
0000
0000
,  // measure 7
0000
0000
0000
0000
,  // measure 8
0000
0000
0000
0000
0000
0000
1000
0100
1000
0100
0000
0000
0000
0000
0000
0010
0001
0010
0001
0010
0001
0010
0000
0000
,  // measure 9
0100
0010
0100
0010
0000
0000
1000
0001
1000
0001
0000
0000
0000
0000
0000
0010
0100
0010
0100
0010
0100
0010
0000
0000
,  // measure 10
0001
0100
0001
0100
0000
0000
1000
0010
1000
0010
0000
0000
0000
0000
0000
0001
1000
0001
1000
0001
1000
0001
0000
0000
,  // measure 11
0010
0100
0010
0100
0000
0000
1000
0100
1000
0100
0000
0000
0000
0000
0000
0001
0010
0001
0010
0001
0010
0001
0000
0000
,  // measure 12
0010
1000
0010
1000
0000
0000
1000
0001
1000
0001
0000
0000
0000
0000
0000
1000
0001
1000
0001
1000
0001
1000
0000
0000
,  // measure 13
1000
0000
0001
0000
1000
0000
0001
0000
0000
0000
0000
0000
0010
0000
0100
0000
0010
0000
0100
0000
0000
0000
0000
0000
0000
0000
0000
0000
0000
0000
0000
0000
0000
0000
0000
0000
2002
0000
0000
0000
0000
0000
0000
0000
0000
3003
0000
0000
,  // measure 14
0100
0100
2002
0000
0000
3003
0100
0100
2002
3003
0100
0100
2002
0000
0000
3003
,  // measure 15
0100
0100
2002
0000
0000
3003
0100
0100
2020
3030
0100
0100
0022
0000
0000
0033
,  // measure 16
1000
1000
0022
0000
0000
0033
1000
1000
0022
0033
1000
1000
0022
0000
0000
0033
,  // measure 17
1000
1000
0022
0000
0000
0033
1000
1000
0220
0330
1000
1000
0202
0000
0000
0303
,  // measure 18
0010
0010
0202
0000
0000
0303
0010
0010
0202
0303
0010
0010
0202
0000
0000
0303
,  // measure 19
0010
0010
0202
0000
0000
0303
0010
0010
2200
3300
0010
0010
0220
0000
0000
0330
,  // measure 20
0001
0000
0000
0001
0000
0000
0220
0000
0000
0000
0000
0000
0000
0000
0000
0330
0000
0000
0001
0000
0000
0001
0000
0000
0220
0000
0000
0330
0000
0000
0001
0000
0000
0001
0000
0000
1000
0000
0010
0000
0100
0000
0001
0000
0010
0000
0100
0000
,  // measure 21
1000
0000
0100
0000
0010
0000
0001
0000
0100
0000
0010
0000
1000
0000
0001
0000
0010
0000
0100
0000
1000
0000
0100
0000
0010
0000
0001
0000
0100
0000
0010
0000
1000
0000
0001
0000
0220
0000
0000
0000
0000
0000
0330
0000
0000
1000
0000
0000
,  // measure 22
0110
0000
0000
0000
0000
0000
0000
0000
0011
0000
0000
0000
0000
0000
0000
0000
1100
0000
0000
0000
0001
0000
0000
0000
0010
0000
0000
0000
0000
0000
0000
0000
1001
0000
0000
0000
0000
0000
0000
0000
0010
0100
0000
0000
0000
0000
0000
0000
0202
0000
0000
0000
0000
0000
0000
0000
0303
0000
0000
0000
0010
0000
0000
0000
,  // measure 23
0101
0000
0000
0000
0000
0000
0000
0000
1010
0000
0000
0000
0000
0000
0000
0000
1100
0000
0000
0000
0010
0000
0000
0000
0100
0000
0000
0000
0000
0000
0000
0000
0011
0000
0000
0000
0000
0000
0000
0000
1000
0100
0000
0000
0000
0000
0000
0000
2002
0000
0000
0000
0000
0000
0000
0000
3003
0000
0000
0000
0010
0000
0000
0000
,  // measure 24
1001
0000
0000
0000
0000
0000
0000
0000
0110
0000
0000
0000
0000
0000
0000
0000
0011
0000
0000
0000
0100
0000
0000
0000
1000
0000
0000
0000
0000
0000
0000
0000
0101
0000
0000
0000
0000
0000
0000
0000
0010
1000
0000
0000
0000
0000
0000
0000
2200
0000
0000
0000
0000
0000
0000
0000
3300
0000
0000
0000
0001
0000
0000
0000
,  // measure 25
1100
0000
0000
0000
0011
0000
0000
0000
0110
0000
1000
0001
1000
0000
0001
0000
0110
0000
1000
0000
0100
0000
0010
0000
2002
0000
0000
0000
3003
0000
0010
0000
,  // measure 26
1001
0000
0000
0000
0000
0000
0000
0000
0110
0000
0000
0000
0000
0000
0000
0000
0011
0000
0000
0000
0100
0000
0000
0000
1000
0000
0000
0000
0000
0000
0000
0000
0101
0000
0000
0000
0000
0000
0000
0000
1000
0010
0000
0000
0000
0000
0000
0000
0220
0000
0000
0000
0000
0000
0000
0000
0330
0000
0000
0000
1000
0000
0000
0000
,  // measure 27
0110
0000
0000
0000
0000
0000
0000
0000
0011
0000
0000
0000
0000
0000
0000
0000
1100
0000
0000
0000
0010
0000
0000
0000
0100
0000
0000
0000
0000
0000
0000
0000
1001
0000
0000
0000
0000
0000
0000
0000
0010
0001
0000
0000
0000
0000
0000
0000
2200
0000
0000
0000
0000
0000
0000
0000
3300
0000
0000
0000
0010
0000
0000
0000
,  // measure 28
1100
0000
0000
0000
0000
0000
0000
0000
0101
0000
0000
0000
0000
0000
0000
0000
0110
0000
0000
0000
0001
0000
0000
0000
1000
0000
0000
0000
0000
0000
0000
0000
0011
0000
0000
0000
0000
0000
0000
0000
0100
1000
0000
0000
0000
0000
0000
0000
0202
0000
0000
0000
0000
0000
0000
0000
0303
0000
0000
0000
1000
0000
0000
0000
,  // measure 29
0101
0000
0000
0000
0000
0000
0000
0000
0000
0000
0000
0000
0000
0000
0000
0000
0000
0000
0000
0000
0000
0000
0000
0000
0110
0000
0000
0000
0000
0000
0000
0000
0000
0000
0000
0000
0000
0000
0000
0000
0000
0000
0000
0000
0000
0000
0000
0000
1000
0000
0000
0001
0000
0000
0000
0000
0000
0000
0000
0000
0000
0000
0000
0000
0000
0000
0000
0000
0000
0000
0000
0000
1000
0000
0000
0000
0000
0000
0000
0000
0010
0000
0000
0000
0000
0000
0000
0000
0100
0000
0000
0000
0000
0000
0000
0000
1001
0000
0000
0000
0000
0000
0000
0000
0000
0000
0000
0000
0000
0000
0000
0000
0000
0000
0000
0000
0000
0000
0000
0000
0001
0000
0000
0000
0000
0000
0000
0000
0000
0000
0000
0000
0010
0000
0000
0000
0000
0000
0000
0000
0000
0000
0000
0000
0100
0000
0000
0000
0000
0000
0000
0000
0000
0000
0000
0000
1000
0000
0000
0000
0000
0000
0000
0000
0000
0000
0000
0000
0010
0000
0000
0000
0000
0000
0000
0000
0000
0000
0000
0000
0001
0000
0000
0000
0000
0000
0000
0000
0000
0000
0000
0000
,  // measure 30
0110
0000
0000
0000
0000
0000
1000
0000
0000
0000
0000
0000
1000
0000
0000
1000
0000
0000
1000
0000
0000
0000
0000
0000
0010
0000
0000
0100
0000
0000
0001
0000
0000
1000
0000
0000
0110
0000
0000
0000
0000
0000
0001
0000
0010
0000
0100
0000
,  // measure 31
1001
0000
0000
0000
0000
0000
1001
0000
0000
1001
0000
0000
0010
0000
0000
1000
0000
0000
0100
0000
0000
0001
0000
0000
1100
0000
0000
0000
0000
0000
0010
0000
0000
0000
0000
0000
0010
0000
0001
0000
0010
0000
0001
0000
0000
0000
0000
0000
,  // measure 32
1000
0000
0000
0010
0000
0000
0001
0000
0000
0100
0000
0000
1001
0000
0000
0000
0000
0000
0100
0000
0000
0000
0000
0000
0100
0000
0001
0000
0010
0000
0100
0000
1000
0000
0010
0000
0100
0000
0000
0001
0000
0000
0010
0000
0000
1000
0000
0000
,  // measure 33
0011
0000
0000
0000
0000
0000
0100
0000
0000
0000
0000
0000
0100
0000
0000
0100
0000
0000
0100
0000
0000
0000
0000
0000
1000
0000
0000
0100
0000
0000
0001
0000
0000
0010
0000
0000
0011
0000
0000
0000
0000
0000
1000
0000
0100
0000
0010
0000
,  // measure 34
1001
0000
0000
0000
0000
0000
1001
0000
0000
1001
0000
0000
0100
0000
0000
0010
0000
0000
0001
0000
0000
1000
0000
0000
0110
0000
0000
0000
0000
0000
0001
0000
0000
0000
0000
0000
0001
0000
0100
0000
0001
0000
0100
0000
0000
0000
0000
0000
,  // measure 35
1000
0000
0000
0010
0000
0000
0100
0000
0000
0001
0000
0000
0110
0000
0000
1000
0000
0000
0100
0000
0000
0010
0000
0000
0001
0000
0000
0110
0000
0000
0000
0000
0000
1000
0000
0000
0110
0000
0001
0000
0010
0000
0100
0000
1000
0000
0001
0000
,  // measure 36
0110
0000
0000
2000
0000
0000
0000
0000
0000
0000
0000
0000
3001
0000
0010
0000
0001
0000
0010
0000
0000
0000
0000
0000
0000
0000
0000
0000
0000
0000
0100
0000
0010
0000
0100
0000
0010
0000
0100
0000
0010
0000
0100
0000
0000
0000
0000
0000
,  // measure 37
1000
0000
0100
0000
1000
0000
0100
0000
0000
0000
0000
0000
0002
0000
0000
0000
0000
0000
0000
0000
0000
0203
0000
0000
0000
0000
0000
0000
0000
0000
0302
0000
0000
0000
0000
0000
0023
0000
0000
0000
0000
0000
0000
0000
0000
2030
0000
0000
,  // measure 38
0000
0000
0000
0000
3020
0000
0000
0000
0032
0000
0000
0000
0000
0000
0000
0000
0003
0000
0100
0000
0020
0000
0000
0000
1030
0010
0100
0001
0010
0100
1000
0001
,  // measure 39
0100
0000
0000
0000
0000
0000
0010
0000
0000
0000
0000
0000
1000
0000
0000
0000
0000
0000
0001
0000
0000
0000
0000
0000
0010
0000
0000
0000
0000
0000
0000
0000
0100
0000
0000
0000
0000
0000
0000
0000
1000
0000
0000
0000
0000
0000
0000
0000
0002
0000
0000
0000
0000
0000
0000
0000
0000
0000
0000
0000
0000
0000
0000
0000
0000
0000
0000
0000
0000
0000
0000
0000
0000
0000
0000
0000
0000
0000
0000
0000
0023
0000
0000
0000
0000
0000
0000
0000
0000
0000
0000
0000
0000
0000
0000
0000
0000
0000
0000
0000
0000
0000
0000
0000
0000
0000
0000
0000
0000
0000
0000
0000
0230
0000
0000
0000
0000
0000
0000
0000
0000
0000
0000
0000
0000
0000
0000
0000
0000
0000
0000
0000
0000
0000
0000
0000
0000
0000
0000
0000
0000
0000
0000
0000
2300
0000
0000
0000
0000
0000
0000
0000
0000
0000
0000
0000
0000
0000
0000
0000
0000
0000
0000
0000
0000
0000
0000
0000
0000
0000
0000
0000
0000
0000
0000
0000
0000
0000
0000
0000
0000
0000
0000
0000
0000
0000
0000
0000
0000
0000
0000
0000
,  // measure 40
0000
0000
0000
0000
3100
0000
0001
0000
0020
0000
0000
0000
0000
0000
0000
0000
0000
0000
0000
0000
0130
0000
1000
0000
0002
0000
0000
0000
0103
0010
0100
0010
,  // measure 41
1000
0010
1000
0010
0100
0000
0001
0000
2000
0000
0000
0000
3000
0000
1000
0001
1000
0000
0020
0000
0030
0000
0020
0000
0030
0000
0100
0000
0001
0000
0020
0000
,  // measure 42
0000
0000
0130
0000
1000
0001
1000
0001
0100
0010
0100
0010
2000
0000
3000
0000
2000
0000
0000
0000
3000
0000
0100
0000
0010
0000
0002
0000
0000
0000
0000
0000
,  // measure 43
0000
0000
0000
0000
0000
0000
0000
0000
0000
0000
0000
0000
0000
0000
0000
0000
0000
0000
0000
0000
0000
0000
0000
0000
0103
0000
0000
0000
0000
0000
0000
0000
0000
0000
0000
0000
0010
0000
0000
0000
0000
0000
0000
0000
0000
0000
0000
0000
1000
0000
0000
0000
0000
0000
0000
0000
0000
0000
0000
0000
0000
0000
0000
0000
0100
0000
0000
0000
0000
0000
0000
0000
0000
0000
0000
0000
0000
0000
0000
0000
0000
0000
0000
0000
1000
0000
0000
0000
0000
0000
0100
0000
0000
0000
0000
0000
0010
0000
0000
0000
0000
0000
0001
0000
0000
0000
0000
0000
1000
0000
0000
0000
0000
0000
0100
0000
0000
0000
0000
0000
0010
0000
0000
0000
0000
0000
0100
0000
0000
0000
0000
0000
1000
0000
0000
0000
0000
0000
0010
0000
0000
0000
0000
0000
0100
0000
0000
0000
0000
0000
0001
0000
0000
0000
0000
0000
0010
0000
0000
0000
0000
0000
0100
0000
0000
0000
0000
0000
1000
0000
0000
0000
0000
0000
0100
0000
0000
0000
0000
0000
0010
0000
0000
0000
0000
0000
0001
0000
0000
0000
0000
0000
,  // measure 44
1000
0010
0100
0001
1000
0100
0010
0002
0000
0000
0000
0000
0000
0000
0003
0000
1001
0000
0000
0000
1001
0000
1001
0000
0110
0000
0000
0000
0000
0000
0011
0000
,  // measure 45
0000
1100
1002
0000
0000
0000
0000
0013
,  // measure 46
0000
0010
0000
0000
2000
0000
0000
0000
0000
0000
0100
0000
3002
0000
0000
0023
,  // measure 47
0000
0000
2030
0000
3020
0000
0000
0000
0000
0000
0031
1000
0020
0000
0000
0230
,  // measure 48
0000
0000
0000
0000
0302
0000
0000
0000
2003
0000
0000
0000
0000
0000
0000
0000
3200
0000
0000
0000
0000
0000
0000
0000
0320
0000
0000
0000
0000
0000
1030
0010
,  // measure 49
0002
0000
0000
0000
0203
0000
0000
0000
0000
0000
1300
0010
0200
0000
0000
0302
,  // measure 50
0000
0000
0013
0000
2000
0000
0000
3200
0000
0000
0320
0000
0032
0000
0000
2003
,  // measure 51
0000
0000
0000
0000
0000
0000
3020
0000
0000
0000
0000
0000
0230
0000
0000
0000
0000
0000
0000
0000
0000
0000
0000
0000
0000
0000
0000
1300
0000
0000
0100
0000
0000
0010
0000
0000
0002
0000
0000
0000
0000
0000
0000
0000
0023
0000
0000
0000
,  // measure 52
0000
0000
0000
0000
0230
0000
0000
0000
0000
0000
0000
0000
2300
0000
0000
0000
0000
0000
0000
0000
0000
0000
0000
0000
3020
0000
0000
0000
0000
0000
0000
0000
0000
0030
0000
0000
0020
0000
0000
0000
0000
0000
0000
0000
0000
0000
0000
0000
,  // measure 53
1030
0010
0100
0001
0010
0100
2000
0000
0000
0001
0000
0000
3100
0000
0000
0020
0000
0000
0000
0000
0000
0130
0000
0000
,  // measure 54
1000
0000
0000
0000
0000
0000
0020
0000
0000
0000
0000
0000
0000
0000
0000
0000
0000
0000
1030
0000
0000
0100
0000
0000
0010
0000
0001
0000
0010
0000
0100
0000
0000
1000
0000
0000
0010
0000
0000
0100
0000
0000
0001
0000
0000
1000
0000
0000
,  // measure 55
0020
0100
0031
2000
0000
3010
0100
0002
,  // measure 56
0003
0000
0000
2000
0000
0000
3020
0000
0000
0230
0000
0000
0320
0000
0000
0230
0000
0000
0301
0000
0000
0001
0100
0010
,  // measure 57
2000
0010
3100
0002
0000
0103
0020
2030
,  // measure 58
3000
0000
0000
0000
0000
0000
1000
0000
0000
0001
0000
0000
0100
0000
0010
0000
0100
0000
0001
0000
0000
1000
0000
0000
0001
0000
0000
0010
0000
0000
0100
0000
0000
0001
0000
0000
0010
0000
0001
0000
0010
0000
0100
0000
0000
1000
0000
0000
,  // measure 59
0010
0000
0000
0100
0000
0000
0001
0000
0000
1000
0000
0000
0100
0000
0000
0010
0000
0000
1000
0000
0000
0100
0000
0000
0010
0000
0000
0001
0000
0000
0100
0000
0000
0010
0000
0000
1000
0000
0100
0000
0010
0000
0001
0000
0000
0100
0000
0000
,  // measure 60
1000
0000
0100
0000
0010
0000
0001
0000
0100
0000
0010
0000
1000
0000
0001
0000
0010
0000
0100
0000
1000
0000
0010
0000
0002
0000
0000
0000
0000
0000
0000
0000
0000
0000
0000
0000
1003
0000
0000
0000
0000
0000
0000
0000
0000
1000
0000
0000
,  // measure 61
0011
0000
1000
0000
1000
0001
1000
1000
0011
0000
1000
0000
0001
0000
1000
0001
,  // measure 62
1010
0000
0001
0000
0001
1000
0001
0001
1010
0000
0001
0000
0100
0000
0010
0100
,  // measure 63
1001
0000
0100
0000
0100
0010
0100
0100
1001
0000
0100
0000
0010
0000
1000
0010
,  // measure 64
1100
0000
0000
0000
0000
0000
0010
0000
0000
0000
0000
0000
0010
0000
0100
0000
0010
0000
1100
0000
0000
0000
0000
0000
0010
0000
0000
0010
0000
0000
1100
0000
0000
0000
0000
0000
0001
0000
0000
0000
0000
0000
0010
0000
0000
0100
0000
0000
,  // measure 65
1010
0000
0100
0000
0100
0010
0100
0100
1010
0000
0100
0000
1000
0000
0100
0001
,  // measure 66
0110
0000
0100
0000
0001
0100
0001
0001
0110
0000
0110
0110
0100
0000
0100
0010
,  // measure 67
1001
0000
0100
0000
0100
0010
0100
0100
1001
0000
0100
0000
1000
0000
1000
0100
,  // measure 68
0011
0000
1000
0000
1000
0011
1000
1000
0011
0000
0011
0011
2000
0000
0000
0000
,  // measure 69
0000
3020
0000
0000
0032
0000
2003
0000
,  // measure 70
0000
0000
0000
0000
3200
0000
0000
0000
0000
0000
0000
0000
0000
0000
0000
0000
0000
0000
0000
0000
0301
0000
0000
0000
0010
1000
0020
0000
0000
0000
0000
0000
,  // measure 71
0000
0000
0000
0000
0000
0000
0000
0000
0000
1030
0000
0000
0000
0020
0000
0000
0000
0000
0000
0230
0000
0000
0000
0000
,  // measure 72
0000
0000
0000
0302
0203
0320
2030
0000
,  // measure 73
0000
3002
0000
0000
0023
1000
2030
0000
,  // measure 74
0000
0000
0000
0000
0000
0000
3100
0000
0000
0001
0000
0000
0020
0000
0000
0000
,  // measure 75
0000
0000
0000
0000
0000
0000
0000
1030
0100
2000
0000
0000
,  // measure 76
0000
0000
0000
0000
0000
0000
0000
0000
0000
0000
0000
0000
0000
0000
0000
0000
0000
0000
0000
0000
0000
0000
0000
0000
3000
0000
0000
0000
0000
0000
0100
0000
0001
0000
1000
0000
0020
0000
0000
0130
0000
0000
0001
0000
0000
1000
0000
0000
,  // measure 77
0100
0010
1000
0100
0010
1000
0100
0001
0010
0100
1000
0001
0110
1000
0100
0010
,  // measure 78
0101
0010
0100
1000
0011
0100
0010
2000
0000
3001
0100
0010
1100
0001
1000
0100
,  // measure 79
0011
1000
0010
0001
0220
0000
0000
0330
1001
0010
0100
1000
0101
1000
0100
0010
,  // measure 80
1100
0010
0100
0002
0000
1003
0010
0100
1001
0010
0100
1000
0011
0100
1000
0010
,  // measure 81
1100
0001
0010
0100
1000
0010
0001
0100
1010
0001
0010
0100
1010
0001
1010
0001
,  // measure 82
1010
0001
1010
1010
0000
0101
0101
0101
0000
1100
1100
1100
0011
0110
1100
0101
,  // measure 83
1010
0101
1100
0110
1001
0110
0101
1002
0000
0000
0000
0000
0000
0000
0000
0003
,  // measure 84
1001
1000
0100
0001
0100
1000
0000
0001
0010
1000
0010
0100
1000
0100
0001
1000
,  // measure 85
0001
0001
0100
0100
0010
0010
1000
1000
0001
0001
0110
0110
0000
0110
1001
0001
,  // measure 86
0010
1000
0010
0001
0000
1000
0100
0001
0100
0010
0100
1000
0010
0001
1000
1000
,  // measure 87
0010
0000
0000
0010
0000
0000
0100
0000
0000
0100
0000
0000
0001
0000
0000
0001
0000
0000
1000
0000
0000
1000
0000
0000
0110
0000
0000
0110
0000
0000
0000
0000
0000
0110
0000
0000
1000
0000
0010
0000
0100
0000
0001
0000
0010
0000
0100
0000
,  // measure 88
1000
0100
0010
0001
0010
0100
1000
0100
0001
0100
1000
0010
0001
0010
1000
0002
0000
0000
0000
0000
0000
0000
0000
0000
,  // measure 89
0000
0000
0000
0000
0000
0003
0002
0000
0000
0000
0203
0000
0000
0000
0000
0000
,  // measure 90
2300
0000
0000
0000
0000
0000
0000
3000
1000
0100
0020
0000
0000
0000
0000
0000
,  // measure 91
0000
0000
0000
2030
0000
3002
0000
0000
,  // measure 92
0023
0000
0000
0000
0000
0000
0000
0000
0000
0000
0000
0000
0000
0000
0000
0000
0000
0000
0000
0000
0000
0000
0000
0000
1030
0000
0000
0000
0000
0000
0000
0000
0010
0000
0000
0000
0000
0000
0000
0000
1000
0000
0000
0000
0000
0000
0000
0000
0010
0000
0000
0000
0000
0000
0000
0000
0100
0000
0000
0000
0000
0000
0000
0000
0010
0000
0000
0000
0000
0000
0000
0000
1000
0000
0000
0000
0000
0000
0000
0000
0001
0000
0000
0000
0000
0000
0000
0000
1000
0000
0000
0000
0000
0000
0000
0000
0100
0000
0000
0000
0000
0000
0000
0000
1000
0000
0000
0000
0000
0000
0000
0000
0100
0000
0000
0000
0000
0000
0000
0000
1000
0000
0000
0000
0000
0000
0100
0000
0000
0000
0000
0000
0010
0000
0000
0000
0000
0000
0001
0000
0000
0000
0000
0000
0100
0000
0000
0000
0000
0000
0010
0000
0000
0000
0000
0000
1000
0000
0000
0000
0000
0000
0001
0000
0000
0000
0000
0000
0010
0000
0000
0000
0000
0000
0100
0000
0000
0000
0000
0000
1000
0000
0000
0000
0000
0000
0001
0000
0000
0000
0000
0000
,  // measure 93
0100
0010
1000
0100
0010
0100
1000
0010
0100
0001
1000
0100
0010
0001
0010
0100
1000
0010
0100
0001
1000
0100
0010
0100
1000
0010
0100
0010
1000
0100
0010
0001
,  // measure 94
0100
0000
0000
0000
0000
0000
0001
0000
0000
0000
0000
0000
0010
0000
0000
0000
0000
0000
0100
0000
0000
0000
0000
0000
1000
0000
0000
0000
0000
0000
0010
0000
0000
0000
0000
0000
0100
0000
0000
0000
0000
0000
0001
0000
0000
0000
0000
0000
0100
0000
0000
0000
0000
0000
0010
0000
0000
0000
0000
0000
1000
0000
0000
0000
0000
0000
0100
0000
0000
0000
0000
0000
0010
0000
0000
0000
0000
0000
0001
0000
0000
0000
0000
0000
0100
0000
0000
0000
0000
0000
0010
0000
0000
0000
0000
0000
1000
0000
0000
0000
0000
0000
0100
0000
0000
0000
0000
0000
0010
0000
0000
0000
0000
0000
0001
0000
0000
0000
0000
0000
0010
0000
0000
0000
0000
0000
0000
0000
0100
0000
0000
0000
0000
0000
0000
0000
1000
0000
0000
0000
0000
0000
0000
0000
0010
0000
0000
0000
0000
0000
0100
0000
0000
0000
0000
0000
0001
0000
0000
0000
0000
0000
0010
0000
0000
0000
0000
0000
0100
0000
0000
0000
0000
0000
0000
0000
1000
0000
0000
0000
0000
0000
0000
0000
0010
0000
0000
0000
0000
0000
0000
0000
,  // measure 95
0100
0001
0100
0010
1000
0100
0002
0000
0000
0000
0000
0000
0000
0000
0000
0000
0000
0000
0000
0000
2003
0000
0000
0000
3020
0000
0000
0000
0230
0000
0000
0000
,  // measure 96
0320
0000
0032
0000
2003
0000
3200
0000
0320
0000
1031
0100
0010
0100
1001
0010
,  // measure 97
0100
0010
1001
0100
0010
0100
1001
0010
0100
0010
1100
0010
0001
0010
1100
0001
,  // measure 98
0010
0001
1100
0010
0001
0010
1100
0001
0010
0001
0110
1000
0001
1000
0110
0001
,  // measure 99
1000
0001
0110
1000
0001
1000
0110
0001
1000
0001
1010
0100
0001
0100
1010
0001
,  // measure 100
0100
0000
0000
0000
0001
0000
0000
0000
1010
0000
0000
0000
0100
0000
0000
0000
0001
0000
0000
0000
0100
0000
0000
0000
1010
0000
0000
0000
0001
0000
0000
0000
0100
0000
0000
0000
0001
0000
0000
0000
0000
1100
0000
0000
0000
1100
0000
0000
0000
1100
0000
0000
0000
1100
0000
0000
0000
0000
0000
0000
0000
0000
0000
0000
,  // measure 101
0000
0101
0000
0000
0000
0101
0000
0000
0000
0101
0000
0000
0000
0101
0000
0000
0000
0000
0000
0000
0000
0000
0000
0000
0000
0110
0000
0000
0000
0110
0000
0000
0000
0110
0000
0000
0000
0000
0000
0000
0000
0000
0000
0000
0000
0000
0000
0000
0000
1001
0000
0000
0000
1001
0000
0000
0000
1001
0000
0000
0000
1001
0000
0000
;
