#TITLE:Over The Rave;
#SUBTITLE:(Izzy);
#ARTIST:Takoyaki;
#TITLETRANSLIT:;
#SUBTITLETRANSLIT:;
#ARTISTTRANSLIT:;
#CREDIT:;
#BANNER:untitled.JPG;
#BACKGROUND:362.jpg;
#LYRICSPATH:;
#CDTITLE:!IzzyTitle.JPG;
#MUSIC:over_the_rave_0.mp3;
#OFFSET:-0.765;
#SAMPLESTART:37.777;
#SAMPLELENGTH:12.000;
#SELECTABLE:YES;
#BPMS:0.000=159.640,32.000=159.800,191.750=159.860,216.000=160.500,287.500=161.500,326.250=320.160,328.500=160.900;
#STOPS:254.000=0.100
,329.000=0.100
,330.000=0.100
;
#BGCHANGES:;
// cache tags:
#FIRSTBEAT:16.000;
#LASTBEAT:331.000;
#SONGFILENAME:Songs/Izzy/Over The Rave (Izzy)/otr.sm;
#HASMUSIC:1;
#HASBANNER:1;
#MUSICLENGTH:133.284;
// end cache tags

//---------------dance-single - Hard----------------
#NOTES:
     dance-single:
     Hard:
     Hard:
     12:
     0.994,1.000,0.638,0.735,1.000,744.000,85.000,98.000,0.000,0.000:
0000
0000
0000
0000
,
0000
0000
0000
0000
,
0000
0000
0000
0000
,
0000
0000
0000
0000
,
1001
0001
0010
0100
1000
0100
0010
0001
,
0001
0000
1000
0010
0000
0100
0010
0100
,
0010
0000
0110
0011
0110
0011
0110
0000
,
0000
0100
0010
0100
0010
0100
0010
0100
0010
0100
0010
0000
2002
0000
3003
0000
,
1000
0001
1000
0000
0010
0000
0100
0010
0000
1000
0000
0001
0100
0010
0100
0001
,
1000
0000
0010
0000
1000
0100
0001
0010
0000
1000
0000
0001
0100
0010
0100
0000
,
0001
1000
0001
0000
0010
0100
1000
0100
0000
0001
0000
0010
1000
0001
1000
0000
,
0010
0000
0010
0000
0100
0000
1000
0010
0000
0001
0000
1000
0001
0010
0001
0000
,
0001
0000
0010
0100
0010
0000
0001
0010
0000
1000
0000
0010
0100
0000
0001
0010
,
0001
0000
1000
0100
1000
0000
0010
1000
0000
0001
0000
0010
0100
0000
1000
0000
,
2002
0000
0000
0000
0000
3003
0000
0000
0220
0000
0000
0000
0330
0000
0000
0000
,
1000
0100
0010
0001
0100
0010
1000
0100
0010
0001
0100
0010
1000
0100
0010
0000
,
1001
0000
1000
0001
1000
0000
0001
0010
0001
0000
1000
0100
0000
0001
0100
0010
,
1001
0000
1000
0100
0010
0001
1000
0100
0010
0001
1000
0000
0110
0000
1001
0000
,
1000
0100
1000
0000
0010
0001
0010
0000
1001
0000
1000
0010
1000
0010
1000
0010
,
1000
0100
1000
0100
1000
0100
1000
0001
1000
0001
1000
0001
1000
0001
1000
0000
,
0220
0330
0000
0000
2002
3003
0000
0000
0220
0330
0000
0000
2002
3003
0000
0000
,
0220
0330
0000
0000
2002
3003
0000
0000
1000
0100
1000
0000
0001
0010
0001
0000
,
1000
0100
1000
0000
0001
0010
0001
0000
1001
0000
0001
0010
0100
1000
0001
0010
,
0100
1000
0001
0010
0100
1000
0001
0010
0100
1000
0001
0010
0200
0000
0300
0000
,
0110
0000
1001
0000
0100
0000
0001
0000
0010
0000
1000
0100
0000
1000
0100
0010
,
1001
0000
1000
0001
1000
0001
1000
0001
1000
0001
1000
0000
1001
0000
0110
0000
,
1000
0100
1000
0100
0001
0010
0001
0010
0000
0000
1000
0001
0100
0010
1000
0001
,
0100
0010
1000
0001
0100
0010
1000
0001
0100
0010
1000
0001
0100
0010
1000
0001
,
0000
0110
1000
0000
0001
0000
1000
0000
0110
0000
0010
0001
0000
0001
0100
0001
,
1000
0001
0010
0001
0100
0001
1000
0001
0010
0001
0100
0000
0110
0000
1001
0000
,
0100
0000
0010
0000
0100
0000
0010
0000
1001
0000
1000
0100
0010
0001
0010
0100
,
1000
0100
0010
0001
0010
0100
1000
0100
0010
0001
0010
0100
1000
0000
0000
0000
,
2002
0000
0000
0000
0000
0000
3003
0000
0022
0000
0000
0000
0000
0033
0000
0000
,
2000
0000
0000
3000
0001
0100
0001
0000
0002
0000
0000
0003
1000
0000
0000
0000
,
0000
0000
0000
0000
1001
0000
0000
0000
0110
0000
0000
0000
1001
0000
0000
0010
,
0100
0000
0010
0001
0000
0100
0010
0000
0001
0100
0000
1000
0100
0000
0110
0000
,
2002
0000
0000
3003
0010
0100
0010
0000
0220
0000
0000
0330
1000
0001
1000
0000
,
2002
0000
0000
3003
0001
1000
0001
0000
2002
0000
0000
3003
1001
0000
0000
0000
,
0000
0110
1001
0110
,
0000
0000
0000
0000
0000
0000
0000
0000
1000
0001
1000
0001
0110
0000
0000
0000
,
2002
0000
0000
0000
,
0000
0000
0000
3003
0000
0000
1000
0100
0000
0001
0010
0000
1000
0001
0000
0010
,
1000
0000
0000
0000
0000
0000
0000
0000
0000
0000
0000
0000
0000
0000
0000
0010
,
0100
0000
0010
0100
0000
1000
0100
0000
0001
0010
0100
1000
0000
0001
0000
2002
,
0000
0000
0000
0000
,
0000
0000
3003
0110
1001
0000
1000
0100
,
0011
0000
0011
0000
,
0001
0100
0001
0000
0100
0000
0100
0000
0001
0010
0001
0000
2002
0000
0000
0000
,
3003
0000
0000
0000
,
0000
0000
0000
0000
0000
0000
0100
0000
0000
0010
0000
1000
0000
0010
0000
1000
,
0000
0000
0000
0000
0000
0000
0000
0000
0000
0000
0000
0000
0000
0000
0000
1000
,
0100
0000
0010
0001
0000
1001
0000
0000
0010
0001
0000
0000
0100
0000
1000
0000
,
0220
0000
0000
0000
0000
0330
0000
0000
,
0000
0000
0000
0000
0000
0100
1000
0000
0000
0100
1000
0010
0001
0100
1000
0000
,
0100
0000
0220
0330
,
0020
0230
0320
0230
0320
0230
0300
2000
3002
2003
3002
2003
3002
0003
0000
0000
,
0100
0000
1000
0100
1000
0000
0001
0100
0001
0000
1000
0001
0000
0001
0100
0010
,
1000
0000
0001
0100
0010
1000
0001
0100
0010
1000
0001
0000
0110
0000
0110
0000
,
0011
0000
0110
0000
1100
0000
0011
0000
0110
0000
2000
3200
0320
0032
0023
0230
,
2300
3200
0320
0230
0320
0230
0320
0230
2300
3200
2300
3200
2300
3200
0320
0032
,
1003
0000
1000
0000
0100
0010
0100
0000
1001
0000
1000
0001
0000
0010
0100
0010
,
0100
0000
0010
0100
1000
0100
0010
0100
1000
0100
0010
0100
1000
0100
0010
0000
,
0100
1000
0010
0000
0100
0001
0010
0000
0100
0010
2000
3002
2003
3002
0203
0320
,
0230
0320
0230
0320
2030
3002
2003
3002
2003
3000
0000
0220
0000
0330
0000
1000
,
0100
1000
0000
1000
0100
1000
0000
0001
0010
0100
1000
0000
0100
0010
0100
1000
,
0000
1000
0100
0010
0001
0010
0100
0010
0000
0100
0001
1000
0000
0110
0000
1000
,
0100
1000
0000
0001
0000
0100
0010
0100
0010
1000
0010
0100
0001
1000
0010
0100
,
0001
1000
0010
0100
0001
1000
0010
0100
0001
1000
0010
0100
0001
1000
0010
0001
,
0000
0000
0000
1000
0100
0010
0000
1000
0100
0010
0001
0000
0100
0001
0100
1000
,
0000
1000
0100
0010
0001
0010
0100
1000
0100
0010
0000
1001
0000
1001
0000
1000
,
0001
1000
0001
1000
0001
0000
0000
0010
0000
0100
0010
0100
0010
0100
0010
0100
,
1000
0001
0010
0100
1000
0001
0010
0100
1000
0001
0000
2002
0000
3003
0000
0110
,
0000
1001
0000
0110
0000
1001
0000
1000
0001
0010
0001
0000
1000
0001
0000
1010
,
0000
1001
0000
1001
0000
0110
0000
1000
0001
0000
0001
0000
0010
0100
0000
1001
,
0000
1001
0000
0110
0000
0110
0000
1001
0000
0100
1000
0100
1000
0100
1000
0100
,
0010
0100
0010
0100
0010
0100
0010
0100
0010
0001
0010
0001
0010
0001
0010
0001
,
0010
0000
0010
0000
0100
0000
0100
0000
1000
0001
0000
1001
0000
0001
1000
0000
,
1000
0100
1000
0000
0001
0010
0001
0000
1000
0001
0000
0010
0000
0010
0100
0000
,
0001
0010
0001
0000
1000
0100
1000
0000
1001
0000
1000
0100
0010
0100
1000
0100
,
1000
0100
0010
0100
0010
0100
0010
0100
0010
0001
0010
0100
0010
0001
0010
0001
,
0010
0001
0010
0001
0010
0100
1000
0100
0010
0001
1000
0100
0010
0001
0010
0100
,
1000
0001
1000
0000
0010
1000
0001
0010
0001
0220
0000
0000
0000
0000
0000
0000
,
0000
0000
0000
0330
;
