#TITLE:GHOST REVIVAL;
#SUBTITLE:;
#ARTIST:L.E.D.;
#TITLETRANSLIT:;
#SUBTITLETRANSLIT:;
#ARTISTTRANSLIT:;
#CREDIT:;
#BANNER:Ghost Revival-BN.PNG;
#BACKGROUND:Ghost Revival-BG.PNG;
#LYRICSPATH:;
#CDTITLE:!cattitle.png;
#MUSIC:GHOST REVIVAL.mp3;
#OFFSET:-1.989;
#SAMPLESTART:40.579;
#SAMPLELENGTH:12.000;
#SELECTABLE:YES;
#BPMS:0.000=148.010;
#STOPS:;
#BGCHANGES:;
// cache tags:
#FIRSTBEAT:0.000;
#LASTBEAT:296.500;
#SONGFILENAME:Songs/Fabulously Fresh Flock of Fantastic Files F5/(Cat) Ghost Revival/GHOST REVIVAL.sm;
#HASMUSIC:1;
#HASBANNER:1;
#MUSICLENGTH:126.174;
// end cache tags

//---------------dance-single - ----------------
#NOTES:
     dance-single:
     :
     Hard:
     11:
     1.000,1.000,0.190,0.396,1.000,944.000,24.000,50.000,0.000,0.000:
1000
0010
0100
0100
,
0001
1000
0010
0010
,
1000
0010
0010
0100
,
0100
0000
1000
0010
1000
0000
0001
0000
,
0010
0100
1000
0100
,
0001
0001
0100
0010
,
1000
1000
0010
0100
,
0010
0000
0010
1000
0010
0000
1000
0000
,
1001
0000
0000
0000
0000
0000
0000
0000
0000
0000
0000
0000
0000
0000
0000
0000
0001
1000
0001
1000
0001
0000
1000
0000
0001
0000
1000
0000
0001
0000
1000
0000
,
0001
0100
0010
1000
0001
0010
0100
1000
0010
0100
0010
1000
0010
0100
0001
1000
,
0100
0010
0100
1000
0001
0010
0100
0010
0001
1000
0010
0100
0001
1000
0010
0100
,
0001
0010
0100
1000
0010
0100
0001
1000
0100
0010
0001
0100
0010
1000
0001
1000
,
0010
0100
0001
1000
0010
0100
0001
0010
0001
0100
0010
1000
0100
1000
0010
0100
,
0001
0100
0010
1000
0010
0100
0001
0100
0010
1000
0001
0010
0100
0010
0001
1000
,
0010
0100
0010
1000
0100
0010
0100
1000
0001
0100
0010
0100
0001
1000
0010
0100
,
0001
0010
0100
1000
0010
0100
0001
0010
0100
1000
0010
0100
0001
0100
0010
1000
,
0100
1000
0010
0100
0001
0010
0001
0100
0010
1000
0100
1000
0010
1000
0001
0100
,
1001
0100
0000
0001
0010
0000
1000
0100
0000
0001
0010
0000
1000
0001
0100
0001
,
0000
1000
0000
0001
0100
0010
1000
0001
0000
0000
1000
0000
0001
0100
0001
0010
,
1001
0000
0010
0000
0100
0010
0000
1000
0000
0001
0100
0000
1000
0001
0100
0001
,
0100
0000
0010
0000
1000
0000
0001
0000
0000
0000
1000
0000
0000
0000
0001
0000
0000
0000
0100
0000
0000
0000
0100
0000
0000
0000
0010
0000
0000
0000
1000
0000
0000
0001
0000
0000
0100
0000
0000
0010
0000
0000
1000
0000
0000
0010
0000
0000
,
1001
0100
0010
1000
0001
0100
0010
1000
0010
0100
0001
0100
0010
1000
0010
0100
,
1001
0100
0001
1000
0010
0100
0001
0010
0100
1000
0010
0100
0001
1000
0010
0100
,
1001
0010
0100
0001
1000
0100
0010
0100
1001
0100
0010
0100
0001
0000
0110
0000
,
1001
0000
0110
1000
0001
0110
0010
1000
1001
0100
0010
1001
0001
0100
0110
0100
,
1001
0100
0010
1000
0010
0100
0001
0100
0010
1000
0100
0010
0001
0100
0010
1000
,
0010
0100
0001
1000
0010
0100
0001
1000
0010
0100
0001
0010
0100
1000
0010
0100
,
0001
0100
0010
0100
0001
1000
0010
0100
0010
1000
0010
0100
0010
1000
0010
0100
,
0001
0010
0100
0010
0001
0100
0010
1000
0001
0100
0001
0010
0001
1000
0010
0100
,
0001
1000
0100
1000
0010
1000
0001
0100
0010
1000
0010
0100
0001
0010
0100
1000
,
0010
0100
0001
1000
0010
0100
0001
0100
0010
1000
0100
0010
0100
1000
0001
0010
,
0100
0010
0001
0100
0001
0100
0010
1000
0001
0100
0010
0100
0001
1000
0010
0100
,
0001
1000
0010
0100
0001
1000
0010
0100
0001
0100
0010
1000
0001
0100
0010
0100
,
0001
1000
0010
0100
0010
1000
0010
0100
0001
0010
0100
0010
0001
1000
0010
0100
,
0001
0010
0001
0100
0010
1000
0100
1000
0010
0100
0001
0010
0001
0100
0010
1000
,
0010
0100
0001
0010
0001
0100
0010
0100
0001
1000
0010
0100
0001
1000
0100
1000
,
0010
0100
0001
0100
0010
1000
0010
0100
0001
1000
0100
0010
0001
0100
0010
1000
,
0001
0010
0100
1000
0010
0100
0001
0100
0010
0100
0001
1000
0010
0100
0001
0010
,
0001
1000
0001
0100
0001
1000
0010
0100
0001
1000
0010
1000
0100
1000
0001
0100
,
0010
1000
0010
0100
0001
1000
0010
0100
0001
0010
0001
0100
0010
1000
0010
0100
,
0001
1000
0010
0100
0001
1000
0100
0010
0001
0100
0010
1000
0010
0100
0001
1000
,
0002
0203
0320
0000
2030
3020
0030
0200
,
0302
0003
0200
0320
0030
0002
0023
0230
,
1300
2000
3200
0300
0002
0023
0030
0200
,
0320
0030
0002
0203
0300
2000
3002
0023
,
2030
3200
0320
0030
0200
0302
0003
2000
,
3020
0030
0200
0320
0030
0002
0203
2300
,
3001
0200
0320
0030
2000
3200
0300
0002
,
0023
0030
0020
0230
0300
2000
3020
0230
,
1300
0010
0000
0100
0001
0010
0000
0100
0000
1000
0010
0000
0100
1000
0010
0100
,
0000
1000
0000
0010
0100
0000
1000
0000
0001
0100
0000
0010
1000
0001
0100
0010
,
1001
0000
0000
0100
0000
0000
0000
0000
0000
0001
0000
0000
0100
0000
0001
0000
1000
0000
0010
0000
0000
0000
0000
0000
0100
0000
0000
0000
0000
0000
0001
0000
0000
0010
0000
0000
0000
0000
0000
1000
0000
0000
0010
0000
0000
0100
0000
0000
,
0001
0000
0000
1000
0000
0000
0010
0000
1000
0000
0001
0000
0100
0000
0010
0000
1000
0000
0000
0000
0001
0000
1000
0000
0000
0000
0000
0010
0000
0000
0000
0000
0000
1000
0000
0000
0001
0000
0000
0100
0000
0000
0010
0000
0000
0100
0000
0000
,
1001
0100
0001
1000
0010
0100
0010
1000
0001
0100
0010
0100
0001
1000
0010
0100
,
1001
0100
0010
1000
0001
0100
0010
1000
0001
0010
0100
1000
0010
0100
0010
0100
,
1001
0100
0001
1000
0010
1000
0110
0000
1001
0100
0010
1000
0001
1000
0110
0000
,
2002
0000
0000
0000
0000
0000
0000
0000
0000
0000
0000
0000
0000
0000
0000
3003
,
1001
0000
0000
0000
,
1000
0001
0100
0010
1000
0010
0100
0001
0100
0010
0100
0001
1000
0010
0100
0010
,
1000
0010
0100
0001
0010
0100
0010
0001
1000
0010
0100
0010
1000
0001
0100
0010
,
1000
0010
0100
0001
0100
0010
0100
0001
0010
0100
1000
0010
0100
0001
1000
0010
,
0100
0010
1000
0001
0100
0010
0100
0001
1000
0010
0100
0010
1000
0010
0100
1000
,
0100
0010
1000
0010
0100
0001
1000
0010
0100
0001
0010
0100
1000
0010
0100
0001
,
1000
0010
0100
0001
1000
0100
1000
0001
1000
0010
0100
0001
0100
0001
1000
0001
,
0010
0001
0100
0010
1000
0010
0100
0001
0010
0001
0100
0010
1000
0100
1000
0010
,
0100
0001
0010
0001
0100
0010
1000
0100
1000
0010
0100
0001
0100
0010
1000
0010
,
0100
0001
0010
0100
1000
0010
0100
0001
0010
0100
1000
0010
0100
0001
1000
0100
,
0010
0001
1000
0010
1000
0100
1000
0010
0100
0001
0100
0010
0100
0001
0010
0001
,
1000
0010
0100
0001
0100
0010
1000
0010
0100
0001
0100
0010
1000
0001
0010
0100
,
1000
0010
0100
0001
0100
0010
0100
0001
0010
0100
0010
0001
1000
0010
0100
0010
,
1000
0100
0010
0100
1000
0010
0100
0001
1000
0010
0100
0001
0010
0100
0010
0001
,
0100
0010
1000
0010
0100
0001
1000
0010
0100
0010
1000
0001
1000
0010
1000
0100
,
1000
0001
0100
0010
1000
0001
0100
0001
1000
0001
0010
0001
0100
0010
1000
0010
,
0100
0001
1000
0010
0100
0001
1000
0010
0100
0001
0010
0100
1000
0010
0100
0002
,
2000
3003
0000
0000
0000
0000
0000
0000
;
