#TITLE:11h30;
#SUBTITLE:s!mp steps;
#ARTIST:Danger;
#TITLETRANSLIT:;
#SUBTITLETRANSLIT:;
#ARTISTTRANSLIT:;
#CREDIT:;
#BANNER:;
#BACKGROUND:;
#LYRICSPATH:;
#CDTITLE:;
#MUSIC:Danger - 11h30.ogg;
#OFFSET:-0.093;
#SAMPLESTART:43.736;
#SAMPLELENGTH:12.000;
#SELECTABLE:YES;
#BPMS:0.000=132.000,68.000=395.998,69.500=132.000,77.000=395.998,78.500=132.000,86.000=395.998,87.500=132.000,95.000=395.998,96.500=131.999,104.000=395.998,105.500=131.999,113.000=395.997,114.500=131.999,122.000=395.997,123.500=131.998,131.000=395.997,132.500=131.998,172.000=395.996,173.500=131.998,181.000=389.997,182.500=131.998,190.000=395.996,191.500=131.998,199.000=395.996,200.500=131.998,208.000=395.996,209.500=131.998,217.000=395.996,218.500=131.998,226.000=395.996,227.500=131.998,235.000=395.996,236.500=131.997;
#STOPS:;
#BGCHANGES:;
// cache tags:
#FIRSTBEAT:8.000;
#LASTBEAT:308.000;
#SONGFILENAME:Songs/in the groove2/11H30/11H30.sm;
#HASMUSIC:1;
#HASBANNER:0;
#MUSICLENGTH:105.000;
// end cache tags

//---------------dance-single - Blank----------------
#NOTES:
     dance-single:
     Blank:
     Challenge:
     11:
     0.988,1.000,0.848,0.619,0.890,572.000,89.000,65.000,87.000,10.000:

0000
0000
0000
0000
,
0000
0000
0000
0000
,
0010
0000
1000
0010
0100
0000
0100
0000
0001
0000
0100
0000
0010
0000
1000
0000
,
1000
0100
0010
0000
0100
0000
0010
0000
0000
0000
1000
0100
0010
0001
0010
0100
,
1000
0001
0010
0001
0100
0010
1000
0001
0010
0100
0010
0001
0100
0010
1000
0100
,
0010
0001
1000
0100
1000
0100
0010
0001
0010
0001
0100
0001
0100
0001
1000
0100
,
1000
0100
0010
0001
0010
0100
1000
0010
0100
0001
0100
0010
1000
0100
0010
0001
,
0100
0010
0100
0010
1000
0100
1000
0100
1000
0010
1000
0010
0100
0001
0100
0001
,
0100
0001
0100
0001
0100
0001
0100
0001
0100
0001
0100
0001
0100
0001
0100
0001
,
0100
0010
1000
0100
0010
0001
1000
0100
0010
0100
1000
0010
0100
0001
0100
0010
,
1000
0001
0100
0010
1000
0100
1000
0100
1000
0010
1000
0010
0100
0001
0100
0001
,
0010
0001
0010
0001
1000
0100
1000
0100
0010
0001
0010
0001
1000
0100
0010
0001
,
1000
0100
1000
0010
0100
0001
0100
0010
1000
0001
0010
0100
1000
0100
0010
0001
,
0100
0010
0100
0010
1000
0100
1000
0100
0010
0001
0010
0100
1000
0001
0010
0001
,
0010
0100
1000
0100
1000
0100
0010
0100
1000
0001
0010
0001
0100
0010
0100
0010
,
1000
0001
0100
0010
1000
0100
0010
0001
0100
0010
1000
0100
0010
0001
0010
0100
,
1000
0010
0100
0001
0010
0001
0100
0010
2000
0000
0000
0000
0200
0000
0000
0000
,
3322
M000
0M00
M033
0000
1000
0010
0000
,
0101
0000
0000
0000
1000
0000
0100
0000
0010
0000
0100
0000
M000
0M00
00M0
000M
,
2020
0000
3232
00M0
M000
03M3
0000
1000
,
0010
0100
0001
0000
0010
0000
0000
0000
0202
0000
0000
0000
0303
0000
0000
0000
,
1000
0000
0000
0000
0010
0100
0000
0000
0022
0000
M000
0000
0M00
0000
M033
0000
,
0000
0110
1100
0000
0101
0000
0100
0010
,
1000
0100
0000
1010
0000
0100
2002
00M0
,
0M00
30M3
0000
1000
0100
0001
0100
1000
,
0010
0001
0010
2200
0000
0001
0000
3301
,
0220
M000
000M
M330
0000
0010
0100
0001
,
0100
0000
0010
0000
0100
0000
1000
0000
0100
0000
0010
0000
0000
0MM0
0000
0000
,
2020
0000
3232
M000
00M0
M303
0000
0000
,
0011
0110
0202
1313
,
0010
0000
0000
0000
0100
0001
0000
0000
0022
0000
M000
0000
0M00
0000
M033
0000
,
0000
0000
1100
0000
0010
0001
0100
0010
1000
0000
0000
0000
0101
0000
0010
0000
,
0000
1100
MM00
0110
0MM0
0011
0220
000M
,
M000
033M
0000
1000
0010
0100
0001
0100
,
0001
0010
0001
0000
1000
0000
0010
0100
0010
0000
1000
0000
0001
0010
0100
0010
,
0001
0000
0000
0000
1100
0000
0000
0000
0011
0000
0100
0010
0000
0000
0000
0000
,
1100
0000
0010
0000
0110
0000
0100
0000
0011
0000
1000
0100
0000
0000
0000
0000
,
1010
0000
0100
0000
0011
0000
0000
0000
0101
0000
0010
1000
0000
0000
0100
0000
,
2000
0000
0000
0000
3020
M000
0000
0000
0230
00M0
0000
0000
0302
0M00
0000
0000
,
1103
000M
0000
0000
1010
0000
0000
0000
0100
0001
1000
0020
0000
0030
M00M
0000
,
1100
0000
1000
0000
0011
0000
0100
0000
0010
0100
0001
2000
0000
3000
0000
0000
,
0110
0000
0000
0000
1100
0000
0000
0000
0010
0000
0100
0001
0000
0000
0001
0000
,
0200
0000
0000
0000
0320
0M00
0000
0000
2030
00M0
0000
0000
3001
M00M
0000
0000
,
0202
M000
00M0
M303
0000
0100
1010
0000
,
0101
0000
1000
0100
0001
0100
0000
1000
,
0000
0010
0202
M000
00M0
M303
0000
0010
,
0100
0001
1000
0100
0010
0001
0100
1010
,
0MM0
0101
0M00
0100
2020
000M
0M00
303M
,
0000
0010
0110
0000
1100
0000
0100
0010
,
1000
0100
0000
0011
0MM0
0101
2020
000M
,
0M00
303M
0000
1000
0010
0100
0001
0100
,
0010
1000
0100
0000
0010
0000
1100
0000
0MM0
0000
0110
0000
0MM0
0000
0011
0000
,
2200
000M
00M0
330M
0000
1000
0010
00M0
,
0100
0M00
0001
0010
0001
0100
0000
0000
,
2020
0000
3232
M000
00M0
M303
0000
0010
,
0100
0001
0010
0100
1000
0001
0100
0010
,
0000
0101
0000
0110
2020
000M
0M00
303M
,
0000
0000
1000
0000
0100
0000
0000
0000
0011
0000
0000
0000
1000
0100
1000
0000
,
0010
0100
0000
1010
0000
0110
0202
M000
,
00M0
M303
0000
1000
0010
0100
0010
1000
,
0001
0100
0001
0000
1000
0100
1000
0010
0100
0001
0010
0000
0000
0000
1100
0000
,
0110
0000
0000
0000
0011
0000
0000
0000
1000
0010
0100
0001
0000
0000
0000
0000
,
1100
0000
0010
0000
1010
0000
0100
0000
0001
0010
0100
0010
0000
0000
0000
0000
,
1100
0000
0010
0000
0101
0000
0000
0000
1000
0010
1000
0100
0000
0000
0001
0000
,
0020
0000
0000
0000
0230
00M0
0000
0000
2300
0M00
0000
0000
3002
M000
0000
0003
,
110M
0000
0000
0000
0110
0000
0000
0000
0001
0010
0100
1000
0000
0000
0000
0000
,
0001
0000
0010
0000
1000
0000
0010
0000
0001
0000
1000
0100
0000
0000
0000
0000
,
1010
0000
0001
0000
0110
0000
0000
0000
0001
0010
0001
0100
0000
0000
0010
0000
,
2000
0000
0000
0000
3020
M000
0000
0000
0230
00M0
0000
0000
0302
0M00
0000
0000
,
0113
000M
0000
0000
1000
0100
0010
0001
0100
0000
0000
1010
0000
0000
0000
0000
,
0110
0000
0000
0000
0001
0010
0001
0100
0010
0000
0000
1100
0000
0000
0010
0100
,
0000
0000
0000
0000
1000
0010
0100
0001
0010
0001
0000
0110
0000
0000
1100
0000
,
0000
0000
0000
0000
0001
0010
0100
1000
0010
0100
0010
1000
0100
0010
0001
0100
,
0000
0000
0000
0000
1000
0100
1000
0010
0100
0000
0000
0011
0000
0000
1100
0000
,
0000
0000
0000
0000
0001
0100
0010
1000
0010
0000
0000
0101
0000
0000
0100
0010
,
0000
0000
0000
0000
1000
0001
0100
0010
0100
0001
0000
1100
0000
0000
1010
0000
,
0000
0000
0000
0000
0001
0010
0100
1000
0010
0100
0001
0000
2200
0000
0000
0000
,
3311
0000
0000
0000
;
