#TITLE:STAR WARS;
#SUBTITLE:;
#ARTIST:MC F 40;
#TITLETRANSLIT:;
#SUBTITLETRANSLIT:;
#ARTISTTRANSLIT:;
#CREDIT:;
#BANNER:STAR WARS-bn.png;
#BACKGROUND:STAR WARS-bg.png;
#LYRICSPATH:;
#CDTITLE:!phenomegaTitle.png;
#MUSIC:STAR WARS.mp3;
#OFFSET:-0.060;
#SAMPLESTART:10.705;
#SAMPLELENGTH:11.900;
#SELECTABLE:YES;
#BPMS:0.000=180.260;
#STOPS:;
#BGCHANGES:;
// cache tags:
#FIRSTBEAT:0.000;
#LASTBEAT:283.000;
#SONGFILENAME:Songs/juju steps/Star Wars/STAR WARS.sm;
#HASMUSIC:1;
#HASBANNER:1;
#MUSICLENGTH:94.388;
// end cache tags

//---------------dance-single - ----------------
#NOTES:
     dance-single:
     :
     Hard:
     11:
     1.000,1.000,0.170,0.138,1.000,753.000,16.000,13.000,0.000,0.000:
0110
0000
0000
0000
0000
0000
0000
0000
0000
0000
0000
0000
0000
0000
0010
1000
,
0001
0000
0000
0000
0000
0000
0000
0000
0000
0000
0000
0000
0000
0000
0010
0001
,
1000
0000
1000
0000
1000
0100
0000
0100
,
0010
0000
0000
0010
0000
0000
0010
0000
0000
0010
0001
0010
,
0100
0000
0000
0100
0000
0000
0100
0000
0000
0100
1000
0001
,
1000
0000
0000
1000
0000
0000
1000
0000
0000
1000
0100
0010
,
0001
0010
0100
0010
0001
0010
0100
1000
0100
0010
0100
1000
,
0100
0010
0001
0010
0100
1000
0100
0010
0100
1000
0100
0010
,
0001
0100
0001
0100
0010
0100
0010
1000
0001
1000
0100
0010
0001
1000
0001
1000
,
0100
0010
0001
1000
0100
0010
0100
1000
0001
1000
0010
1000
0010
0100
0010
0100
,
0001
1000
0001
0010
0001
1000
0010
1000
0100
1000
0100
0010
0001
0010
0100
0010
,
0100
1000
0100
0010
0001
1000
0100
1000
0100
0010
0001
1000
0001
1000
0010
0100
,
0010
1000
0010
0100
0010
1000
0010
1000
0100
0010
0001
1000
0001
0100
0010
0100
,
0001
1000
0001
0010
0100
1000
0100
0010
0001
1000
0001
1000
0010
0100
0010
1000
,
0100
0010
0001
0010
0100
1000
0001
1000
0001
1000
0010
0100
0010
0100
0010
1000
,
0100
0010
0001
1000
0001
1000
0010
1000
0010
0100
0010
1000
0100
0010
0001
0010
,
0100
1000
0100
1000
0001
0100
0001
0100
0010
1000
0001
0100
0010
1000
0100
0010
,
0001
1000
0100
0010
0100
1000
0001
0100
0010
0100
0001
1000
0100
0010
0001
1000
,
0001
1000
0010
0100
0010
0100
0001
1000
0010
0100
0001
1000
0010
0100
0010
1000
,
0100
0010
0001
1000
0010
0100
0001
1000
0010
0100
0001
1000
0100
0010
0001
1000
,
0010
0100
0010
1000
0001
0100
0010
1000
0100
0010
0100
1000
0001
1000
0010
0100
,
0001
1000
0010
0100
0001
1000
0100
0010
0001
1000
0001
0100
0001
1000
0001
0100
,
0010
0100
0010
1000
0001
1000
0100
0010
0001
1000
0100
0010
0001
1000
0001
1000
,
0010
0100
0010
0100
0001
1000
0010
0100
0001
0100
0010
1000
0010
0100
0010
0100
,
0001
1000
0001
1000
0001
1000
0001
1000
0100
1000
0100
1000
0100
1000
0100
1000
,
0100
0010
0100
0010
0100
0010
0100
0010
0001
0010
0001
0010
0001
0010
0001
0010
,
0001
1000
0001
1000
0001
1000
0001
1000
0100
1000
0100
1000
0100
1000
0100
1000
,
0001
1000
0001
1000
0001
1000
0001
1000
0001
0100
0001
0100
0001
0100
0001
0100
,
0002
0000
0000
0000
0000
0000
0000
1003
,
0000
0000
0010
0000
0100
0000
1000
0000
0100
0000
0010
0000
0100
0000
1000
0010
,
0200
0000
0000
0000
0000
0000
0000
0000
0000
0000
0000
0000
1300
0000
0001
0100
,
0001
0000
2000
0000
0000
0000
0000
0000
0000
0000
0000
3000
0000
0000
0000
1000
,
0200
0000
0000
0000
0000
0000
0000
0310
,
0000
0000
1000
0000
0001
0000
0100
0000
0001
0000
1000
0000
0001
0000
0100
1000
,
0002
0000
0000
0000
0000
0000
0000
0000
0000
0000
0000
0000
0013
0000
0100
0001
,
0100
0000
0020
0000
0000
0000
0000
0000
0000
0000
0000
0000
0000
0000
0030
0010
,
0200
0000
0000
0000
0000
0000
0000
0000
0310
0000
0000
0000
0000
0000
0000
0001
,
2000
0000
0000
0000
0000
0000
0000
0000
3001
0000
0000
0000
0000
0000
0000
0100
,
0020
0000
0000
0000
0000
0000
0000
0000
0000
0000
0000
0000
0130
0000
0001
1000
,
0001
0000
2000
0000
0000
0000
0000
0000
0000
0000
3000
0000
0000
0000
0000
0001
,
0200
0000
0000
0000
0000
0000
0000
0000
1300
0000
0000
0000
0000
0000
0000
1000
,
0002
0000
0000
0000
0000
0000
0000
0000
0013
0000
0000
0000
0000
0000
0000
0100
,
0020
1000
0100
1000
,
0100
0000
0000
0000
1000
0000
0000
0000
0100
0000
0000
1000
0000
0000
0130
0000
,
0001
0100
0001
0100
0010
0100
0010
1000
0001
1000
0100
0010
0001
1000
0001
1000
,
0100
0010
0001
1000
0100
0010
0100
1000
0001
1000
0010
1000
0010
0100
0010
0100
,
0001
1000
0001
0010
0001
1000
0010
1000
0100
1000
0100
0010
0001
0010
0100
0010
,
0100
1000
0100
0010
0001
1000
0100
1000
0100
0010
0001
1000
0001
1000
0010
0100
,
0010
1000
0010
0100
0010
1000
0010
1000
0100
0010
0001
1000
0001
0100
0010
0100
,
0001
1000
0001
0010
0100
1000
0100
0010
0001
1000
0001
1000
0010
0100
0010
1000
,
0100
0010
0001
0010
0100
1000
0001
1000
0001
1000
0010
0100
0010
0100
0010
1000
,
0100
0010
0001
1000
0001
1000
0010
1000
0010
0100
0010
1000
0100
0010
0001
0010
,
0100
1000
0100
1000
0001
0100
0001
0100
0010
1000
0001
0100
0010
1000
0100
0010
,
0001
1000
0100
0010
0100
1000
0001
0100
0010
0100
0001
1000
0100
0010
0001
1000
,
0001
1000
0010
0100
0010
0100
0001
1000
0010
0100
0001
1000
0010
0100
0010
1000
,
0100
0010
0001
1000
0010
0100
0001
1000
0010
0100
0001
1000
0100
0010
0001
1000
,
0010
0100
0010
1000
0001
0100
0010
1000
0100
0010
0100
1000
0001
1000
0010
0100
,
0001
1000
0010
0100
0001
1000
0100
0010
0001
1000
0001
0100
0001
1000
0001
0100
,
0010
0100
0010
1000
0001
1000
0100
0010
0001
1000
0100
0010
0001
1000
0001
1000
,
0010
0100
0010
0100
0001
1000
0010
0100
0001
0100
0010
1000
0010
0100
0010
0100
,
0001
0000
0000
0000
0001
0100
1000
0010
,
0000
0000
1000
0001
1000
0000
0100
0000
0001
0000
0000
0000
0100
0000
0000
0000
,
0001
0000
0000
0000
0100
0010
1000
0001
,
0100
0001
0000
0001
,
0100
0000
0000
0000
1000
0010
0100
0001
,
0000
0000
0010
0100
0010
0000
1000
0000
0100
0000
0000
0000
0010
0000
0000
0000
,
0001
1000
0001
1000
0010
0100
0010
0100
,
1001
0000
1010
0000
0000
0101
0000
0110
,
1001
0000
0000
0000
0000
0000
1100
0000
0000
0001
1000
0010
0100
0000
0011
0000
,
1010
0000
0000
1001
0000
1100
0000
0110
,
1100
0000
1001
0000
0101
0000
1010
0000
0010
0100
0010
0100
0010
0000
0000
0000
;
